osu file format v7

[General]
AudioFilename: 05 Spiral.mp3
AudioLeadIn: 2000
PreviewTime: 44028
Countdown: 0
SampleSet: Normal
StackLeniency: 0.7
Mode: 0
LetterboxInBreaks: 1

[Editor]
DistanceSpacing: 1.10000002384186
BeatDivisor: 4
GridSize: 8

[Metadata]
Title:Spiral
Artist:MK feat. YURiE
Creator:Lena
Version:Insane
Source:EXIT TRANCE SPEED ANIME 2
Tags:techno anime Glasslake gto461013 asura cryin

[Difficulty]
HPDrainRate:7
CircleSize:4
OverallDifficulty:8
SliderMultiplier:1.4
SliderTickRate:1

[Events]
//Background and Video events
0,0,"26605 (1).jpg"
//Break Periods
2,11318,21035
2,68485,78368
2,128651,131701
//Storyboard Layer 0 (Background)
//Storyboard Layer 1 (Fail)
//Storyboard Layer 2 (Pass)
//Storyboard Layer 3 (Foreground)
//Storyboard Sound Samples
//Background Colour Transformations
3,100,0,0,0

[TimingPoints]
452,333.333333333333,4,2,0,100,1,0
20868,-100,4,1,0,100,0,0
43035,-100,4,2,0,100,0,0
44368,-100,4,1,0,100,0,1
63393,-100,4,1,0,100,0,0
100368,-100,4,2,0,100,0,0
103035,-100,4,1,0,100,0,1
121868,-100,4,1,0,100,0,0
132368,-100,4,1,0,87,0,0
148368,-100,4,1,0,100,0,0
159118,-100,4,2,0,80,0,0
164451,-200,4,2,0,50,0,0
175118,-100,4,1,0,100,0,1
193868,-100,4,1,0,100,0,0

[HitObjects]
176,304,452,6,0,C|88:192|176:72,1,280
256,48,1451,1,0
352,80,1785,2,0,C|424:192|336:304,1,280,0|0
256,352,2785,1,0
256,264,3118,2,0,C|136:192|192:48,1,280,0|0
256,32,4118,1,0
336,64,4451,2,0,C|376:192|248:272,1,280
184,272,5451,5,0
184,352,5618,1,0
256,352,5785,2,0,C|256:40,1,280
184,40,6785,1,0
144,104,7118,2,0,B|-120:136|160:200,1,280
224,200,8118,5,0
224,200,8285,1,0
256,192,8451,12,0,11118
32,240,21785,5,0
32,240,21951,1,0
32,240,22118,2,0,B|32:152|32:136,1,70,8|0
32,96,22451,2,0,B|120:96,1,70
104,96,22785,1,8
104,96,22951,1,0
144,160,23118,2,0,B|144:200|176:232,1,70,0|0
168,224,23451,5,8
168,224,23618,1,0
224,272,23785,2,0,B|256:296|176:328,1,70,0|0
120,328,24118,1,8
64,280,24285,1,0
16,224,24451,2,0,B|16:184|64:160,1,70,0|0
48,168,24785,1,8
48,168,24951,1,0
120,136,25118,6,0,B|144:104|80:56,1,70,0|0
168,32,25451,1,8
240,32,25618,1,0
240,104,25785,2,0,B|344:104,1,70,0|0
384,104,26118,2,0,B|384:208,1,70,8|0
312,192,26451,2,0,B|208:192,1,70,0|0
168,192,26785,2,0,B|168:104,1,70,8|0
168,48,27118,6,0,B|256:48,1,70,0|0
312,48,27451,1,8
312,48,27618,2,0,B|408:72,1,70,0|0
440,112,27951,2,0,B|432:192|432:192|432:184,1,70,0|8
432,256,28285,1,0
432,256,28451,1,0
432,256,28618,1,0
360,288,28785,2,0,B|272:336,1,70,8|0
224,304,29118,2,0,B|208:208,1,70,0|0
288,208,29451,1,8
360,184,29618,6,0,B|448:160,1,70,0|0
408,88,29951,2,0,B|312:112,1,70,0|8
264,128,30285,1,0
200,80,30451,2,0,B|144:16|112:32|64:80,1,140,0|8
32,120,30951,1,0
32,200,31118,6,0,B|32:304,1,70,0|0
96,312,31451,2,0,B|96:232,1,70,8|0
160,200,31785,2,0,B|160:288,1,70,0|0
224,200,32118,5,8
224,200,32285,1,0
224,200,32451,2,4,B|224:112,1,70,0|0
224,56,32785,1,8
296,40,32951,2,0,B|296:112,1,70,0|0
376,104,33285,2,0,B|424:88|472:72,1,70,0|8
488,144,33618,2,0,B|496:240|392:264,1,140
328,288,34118,5,8
256,232,34285,1,0
184,288,34451,1,0
112,232,34618,1,0
40,288,34785,1,8
24,200,34951,1,0
24,112,35118,2,0,B|24:24,2,70,0|0|8
104,104,35618,6,0,B|128:176,1,70,0|0
176,232,35951,1,0
248,264,36118,2,0,B|328:272,1,70,8|0
392,272,36451,2,0,B|440:192,1,70
480,120,36785,5,8
416,56,36951,1,0
352,120,37118,1,0
288,56,37285,1,0
224,120,37451,1,8
160,56,37618,1,0
96,120,37785,6,0,B|48:176,1,70
16,240,38118,2,0,B|56:312,1,70,8|0
120,336,38451,2,0,B|200:360|280:328,1,140,0|8
328,304,38951,1,0
400,336,39118,1,0
480,336,39285,6,0,B|480:256,1,70,0|8
480,266,39618,1,0
480,192,39785,2,0,B|488:96|384:72,1,140,0|8
336,80,40285,1,0
336,160,40452,2,0,B|336:248|232:272,1,140,0|8
184,288,40952,5,0
112,264,41118,1,0
56,208,41285,1,0
48,128,41452,1,8
48,128,41618,1,0
256,192,41702,12,0,42785
256,104,43118,5,0
336,152,43285,1,0
336,240,43452,1,0
256,288,43618,1,0
176,240,43785,1,0
176,152,43952,1,0
256,192,44118,1,0
256,192,44285,1,0
256,192,44452,6,4,B|256:296|184:336,1,140,0|8
136,344,44952,1,0
120,272,45118,2,0,B|112:168|192:136,1,140,0|8
232,104,45618,1,0
304,72,45785,2,0,B|392:32,1,70,0|0
448,32,46118,1,8
448,32,46285,1,0
480,104,46452,6,0,B|488:176|448:240,1,140,0|8
392,296,46952,1,0
320,328,47118,2,0,B|240:344|160:288,1,140,0|8
120,264,47618,5,0
160,200,47785,2,0,B|240:232,1,70,0|0
264,160,48118,2,0,B|336:120,1,70,8|0
392,96,48452,2,0,B|456:152,1,70,0|0
496,200,48785,2,0,B|432:264,1,70,8|0
384,288,49118,5,0
304,280,49285,1,0
232,248,49452,1,8
232,248,49618,1,0
184,184,49785,2,0,B|176:248|80:280,1,140,0|8
16,320,50285,5,0
8,240,50452,2,0,B|0:144,1,70,0|0
24,96,50785,2,0,B|104:64,1,70,8|0
160,48,51118,2,0,B|240:104,1,70,0|0
280,128,51452,1,8
344,176,51618,2,0,B|424:192|464:112,1,140
496,48,52118,5,8
496,48,52285,1,0
416,40,52452,2,0,B|336:32|288:112,1,140,0|8
256,160,52952,2,0,B|200:240|144:160,1,140
104,96,53452,1,8
104,96,53618,2,0,B|16:16|8:160,1,140
8,208,54118,5,8
64,296,54285,1,0
120,208,54452,1,0
176,296,54618,1,0
232,208,54785,1,8
288,296,54952,1,0
344,208,55118,6,4,B|432:184|440:88,1,140,0|8
456,40,55618,1,0
376,40,55785,2,0,B|296:40,1,70
232,40,56118,2,0,B|184:96,1,70,8|0
136,152,56452,6,0,B|48:152,1,70
104,216,56785,2,0,B|176:216,1,70,8|0
136,280,57118,2,0,B|48:280,1,70
104,344,57452,2,0,B|192:344,1,70,8|0
312,344,57785,6,0,B|224:344,1,70
288,280,58118,2,0,B|368:280,1,70,8|0
312,216,58452,2,0,B|224:216,1,70
288,152,58785,2,0,B|360:152,1,70,8|0
432,152,59118,6,0,B|432:32|344:32,1,140,0|8
296,32,59618,1,0
240,80,59785,2,0,B|176:144,1,70
136,184,60118,1,8
136,184,60285,1,0
104,256,60452,2,0,B|176:328|256:312|256:312,3,140,0|8|0|8
304,312,61618,2,0,B|368:304|392:264,1,70
432,240,61952,5,0
384,184,62118,1,8
328,128,62285,2,0,B|272:72|192:104,1,140
128,136,62785,1,8
128,136,62952,1,0
128,136,63118,1,0
256,192,63202,12,0,65452
280,56,65785,5,4
168,56,66035,1,0
80,128,66285,1,4
80,128,66452,1,0
144,224,66702,1,0
240,280,66952,1,0
240,280,67118,2,4,B|368:352|432:216,1,210
456,176,67785,5,0
456,96,67952,1,0
376,96,68118,1,0
376,176,68285,1,4
424,72,79118,5,0
424,152,79285,2,0,B|424:176|424:192|400:216,1,70,0|8
336,256,79618,1,0
280,200,79785,2,0,B|280:160|288:120|208:88,1,140,0|8
144,64,80285,5,0
144,64,80451,1,0
72,96,80618,2,0,B|16:120|24:168,1,70,0|8
8,216,80951,1,0
40,288,81118,2,0,B|104:360|192:352,1,140,0|8
240,360,81618,5,0
240,280,81785,2,0,B|192:224|192:224,1,70,0|0
144,168,82118,2,0,B|208:96,1,70,8|0
248,64,82451,2,0,B|328:88,1,70,0|0
384,112,82785,2,0,B|400:200,1,70,8|0
400,264,83118,6,0,B|320:264|264:200,2,140,0|8|0
480,264,83951,1,0
480,264,84118,1,8
480,264,84285,1,0
480,264,84451,6,0,B|480:176|408:112,1,140,0|8
368,88,84951,1,0
296,56,85118,2,0,B|216:96,1,70
160,112,85451,2,0,B|72:56,1,70,8|0
24,56,85785,2,0,B|-8:128,1,70
0,200,86118,2,0,B|48:264,1,70,8|0
120,272,86451,5,0
200,264,86618,1,0
256,208,86785,1,8
296,136,86951,1,0
296,136,87118,6,0,B|352:72|448:88,1,140,0|8
496,96,87618,1,0
489,176,87785,2,0,B|511:244|417:312,1,140,0|8
360,321,88285,1,0
360,320,88451,6,0,B|272:320,1,70,0|0
240,256,88785,2,0,B|320:256,1,70,8|0
360,192,89118,2,0,B|272:192,1,70,0|0
288,112,89451,5,8
288,112,89618,1,0
264,40,89785,2,0,B|224:16|176:40,1,70,0|0
128,64,90118,1,8
72,120,90285,2,0,B|112:184|64:256,1,140
24,320,90785,5,8
24,320,90951,2,0,B|96:360|168:312,1,140
240,288,91451,5,8
168,232,91618,1,0
240,176,91785,1,0
168,120,91951,1,0
240,64,92118,1,8
240,64,92285,1,0
240,64,92451,6,0,B|256:32|328:40,1,70
376,40,92785,1,8
456,40,92951,2,0,B|504:104|456:184,1,140
408,232,93451,1,8
360,168,93618,1,0
320,104,93785,2,0,B|240:56|160:120,1,140,0|8
112,152,94285,5,0
112,240,94451,1,0
24,240,94618,1,0
24,152,94785,1,8
112,152,94951,1,0
112,240,95118,6,0,B|176:304|256:224,1,140,0|8
304,200,95618,1,0
312,120,95785,2,0,B|248:64|160:72,1,140,0|8
104,72,96285,1,0
48,128,96451,2,0,B|72:200,1,70
96,264,96785,2,0,B|176:312,1,70,8|0
232,328,97118,2,0,B|312:296,1,70
360,256,97451,5,8
408,192,97618,1,0
336,160,97785,2,0,B|248:128,1,70
192,120,98118,6,0,B|96:120,1,70,8|0
42,117,98451,1,0
42,117,98618,1,0
42,117,98785,2,0,B|40:200|96:272,1,140,8|0
256,192,99201,12,0,100118
320,160,100451,5,0
320,56,100618,1,0
424,56,100785,1,0
424,160,100951,1,0
320,160,101118,5,0
248,232,101285,1,0
176,160,101451,1,0
72,160,101618,1,0
72,56,101785,5,0
176,56,101951,1,0
176,160,102118,1,0
72,160,102285,1,0
8,240,102451,5,0
72,320,102618,1,0
136,240,102785,1,0
200,320,102951,1,0
200,320,103118,6,0,B|272:352|360:312,1,140,0|8
408,296,103618,1,0
408,296,103785,2,0,B|448:224,1,70,0|0
464,160,104118,2,0,B|448:88|376:48,1,140,8|0
304,40,104618,5,0
256,104,104785,2,0,B|176:64|176:64,1,70,8|0
128,40,105118,2,0,B|64:104,1,70,0|0
24,144,105451,1,8
24,144,105618,1,0
24,144,105785,6,0,B|8:224|72:272,1,140,0|8
136,304,106285,1,0
136,304,106451,2,0,B|216:320,1,70,0|0
280,328,106785,2,0,B|360:312|384:232,1,140,8|0
400,168,107285,5,0
360,104,107451,1,8
280,104,107618,2,0,B|208:144,1,70
148,170,107951,5,0
95,226,108118,1,8
88,302,108285,1,0
168,320,108451,2,0,B|264:304|208:192,1,140,0|8
192,144,108951,2,0,B|144:144|112:112,1,70
72,72,109285,2,0,B|96:32|160:40,1,70,0|8
208,40,109618,5,0
288,40,109785,2,0,B|368:24|432:104,1,140,0|8
448,152,110285,1,0
480,224,110451,2,0,B|480:264|440:288,1,70
384,328,110785,5,8
304,328,110951,2,0,B|224:264,1,70
264,216,111285,2,0,B|328:264,1,70,0|8
320,176,111618,2,0,B|248:120,1,70
264,56,111951,2,0,B|328:96,1,70,0|8
160,56,112285,6,0,B|105:99,1,70
112,176,112618,2,0,B|168:134,1,70,0|8
176,208,112951,2,0,B|120:250,1,70
119,328,113285,2,0,B|179:290,1,70,0|8
179,290,113618,5,0
179,290,113785,2,4,B|224:352|328:344,1,140,0|8
376,336,114285,1,0
432,280,114451,2,0,B|480:216,1,70
480,144,114785,2,0,B|432:72,1,70,8|0
384,32,115118,5,0
320,80,115285,1,0
256,32,115451,2,0,B|208:24|200:80,1,70,8|0
200,144,115785,2,0,B|200:184|152:192,1,70
80,216,116118,2,0,B|8:160|80:88,1,140,8|0
128,48,116618,5,0
128,48,116785,1,8
128,48,116951,2,0,B|216:56|248:160,1,140
264,200,117451,2,0,B|288:272,1,70,8|0
312,344,117785,2,0,B|416:352|440:256,1,140,0|8
448,208,118285,5,0
400,144,118451,1,0
344,88,118618,1,0
344,88,118785,2,0,B|272:56,1,70,8|0
208,40,119118,5,0
208,40,119285,2,0,B|120:64,1,70,0|8
64,80,119618,1,0
16,144,119785,2,0,B|16:224|88:296,1,140,0|8
120,328,120285,5,0
200,336,120451,2,0,B|216:240|136:192,1,140,0|8
104,152,120951,1,0
184,136,121118,2,0,B|224:120|264:136,1,70
256,208,121451,5,8
256,208,121618,1,0
256,208,121785,1,0
256,192,121951,12,0,124118
256,320,124451,5,4
144,296,124701,1,0
56,216,124951,1,4
56,216,125118,1,0
144,144,125368,1,0
256,128,125618,1,0
256,128,125785,6,0,B|344:128|384:208,1,140,4|0
400,264,126285,1,0
352,328,126451,2,0,B|256:352|256:248,1,140,4|0
256,184,126951,5,0
256,184,127118,1,4
256,192,127201,12,0,128451
448,264,132451,6,0,B|416:192|456:112,1,140
320,128,133118,2,0,B|352:191|320:263,1,140
192,264,133785,6,0,B|160:192|200:112,1,140
64,128,134451,2,0,B|96:191|64:263,1,140
184,192,135118,6,0,B|328:192,1,140
464,192,135785,6,0,B|496:128|456:56,1,140
320,56,136451,2,0,B|280:136|328:216,1,140
176,192,137118,6,0,B|216:120|160:32,1,140
56,152,137785,1,0
56,280,138118,2,0,B|128:328|200:272,1,140
184,128,138785,1,0
184,128,139118,6,0,B|256:80|328:136,1,140
316,205,139785,1,0
316,282,140118,1,0
316,282,140451,6,0,B|388:338|452:274,1,140
443,282,141118,2,0,B|536:256|504:144,1,140
512,176,141785,6,0,B|432:224|392:144,1,140
394,148,142451,2,0,B|400:64|304:16,1,140
328,32,143118,2,0,B|184:32,1,140
184,112,143618,5,0
184,112,143785,1,0
256,112,143951,1,0
328,112,144118,1,0
328,184,144285,5,0
256,184,144451,1,0
184,184,144618,1,0
224,248,144785,1,0
296,248,144951,1,0
328,312,145118,6,0,B|152:312,1,140
120,296,145618,1,0
56,264,145785,1,0
8,208,145951,1,0
24,136,146118,1,0
80,96,146285,1,0
144,64,146451,2,0,B|208:8|272:64,1,140
328,104,146951,5,0
328,104,147118,1,0
256,192,147201,12,0,148118
312,88,148451,5,0
384,88,148618,2,0,B|440:144,1,70,0|8
487,192,148951,1,0
438,251,149118,2,0,B|370:324,1,70,0|0
325,344,149451,1,8
325,344,149618,1,0
248,344,149785,6,0,B|216:360|176:320,1,70,0|0
112,272,150118,1,8
32,224,150285,1,0
112,176,150451,1,0
32,128,150618,1,0
112,88,150785,1,8
112,88,150951,1,0
112,88,151118,6,0,B|176:48,1,70,0|0
248,40,151451,1,8
248,40,151618,2,0,B|336:64,1,70,0|0
392,80,151951,2,0,B|440:136,1,70,0|8
472,200,152285,2,0,B|496:296|384:288,1,140
312,288,152785,5,8
224,288,152951,1,0
136,288,153118,1,0
136,200,153285,1,0
224,200,153451,1,8
312,200,153618,1,0
312,200,153785,6,0,B|352:200|368:136,1,70
392,88,154118,2,0,B|384:56|336:48,1,70,8|0
264,32,154451,2,0,B|184:24|128:80,1,140,0|8
80,128,154951,2,0,B|24:200,1,70
0,248,155285,2,0,B|64:288,1,70,0|8
120,328,155618,1,0
120,328,155785,6,0,B|208:328|240:240,1,140,0|8
264,184,156285,1,0
264,184,156451,2,0,B|240:136|280:96|272:120,1,70
304,48,156785,2,0,B|344:32|384:56,1,70,8|0
432,96,157118,2,0,B|464:128|464:176,1,70
456,232,157452,2,0,B|440:288|392:296,1,70,8|0
344,304,157785,6,0,B|192:304,3,140,0|8|0|8
128,344,159118,5,0
40,344,159285,1,0
40,256,159452,1,0
128,256,159618,1,0
200,304,159785,5,0
112,304,159952,1,0
112,216,160118,1,0
200,216,160285,1,0
272,256,160452,5,0
184,256,160618,1,0
184,168,160785,1,0
272,168,160952,1,0
344,216,161118,5,0
256,216,161285,1,0
256,128,161452,1,0
344,128,161618,1,0
416,168,161785,5,0
328,168,161952,1,0
328,80,162118,1,0
416,80,162285,1,0
416,168,162452,5,0
480,232,162618,1,0
416,296,162785,1,0
352,232,162952,1,0
288,296,163118,5,0
200,296,163285,1,0
200,208,163452,1,0
288,208,163618,1,0
288,120,163785,5,0
200,120,163952,1,0
200,32,164118,1,0
288,32,164285,1,0
288,32,164451,6,0,B|376:32|408:112,1,140,0|0
424,176,165452,1,0
400,248,165785,6,0,B|373:314|285:314,1,140,0|0
208,328,166785,1,0
128,320,167118,6,0,B|56:280|56:192,1,140
56,128,168118,1,0
112,72,168452,6,0,B|152:24|192:24|232:80,1,140,0|0
264,144,169452,1,0
264,144,169618,1,0
336,96,169785,6,0,B|416:64|456:144,1,140
472,216,170785,1,0
408,264,171118,6,0,B|320:312|280:224,1,140
248,168,172118,1,0
320,136,172452,6,0,B|264:64|184:112,1,140,0|0
152,168,173452,1,0
152,168,173618,1,0
256,192,173785,12,0,174785
104,192,175118,6,0,B|104:96|216:88,1,140,4|8
256,80,175618,1,0
328,104,175785,2,0,B|408:144,1,70,0|0
464,168,176118,2,0,B|448:264,1,70,8|0
424,304,176452,6,0,B|368:352|256:320,1,140,0|8
224,296,176952,1,0
224,296,177118,2,0,B|184:272|136:320,1,70,0|0
88,328,177452,2,0,B|48:320|40:280,1,70,8|0
24,208,177785,6,0,B|0:104|96:128,3,140,0|8|0|8
160,160,178952,1,0
224,200,179118,1,0
288,240,179285,1,0
360,264,179452,2,0,B|464:304|464:192,1,140,8|0
472,136,179952,5,0
440,64,180118,1,8
368,32,180285,1,0
296,64,180452,2,0,B|224:96,1,70
160,120,180785,2,0,B|72:120,1,70,8|0
128,184,181118,2,0,B|200:184,1,70
152,248,181452,2,0,B|64:248,1,70,8|0
128,312,181785,1,0
128,312,181952,1,0
128,312,182118,6,0,B|224:352,1,70,8|0
264,360,182452,2,0,B|344:320|336:320,1,70
392,288,182785,2,0,B|424:200,1,70,8|0
448,152,183118,2,0,B|432:72|344:48,1,140,0|8
288,32,183618,1,0
208,48,183785,2,0,B|128:64,1,70,0|0
64,80,184118,2,0,B|64:152,1,70,8|0
64,240,184452,5,0
200,240,184618,1,0
64,240,184785,1,8
152,144,184952,1,0
64,240,185118,1,0
64,104,185285,1,0
64,240,185452,1,8
152,336,185618,5,0
152,336,185785,2,0,B|232:368|296:304,1,140,4|8
352,280,186285,1,0
416,240,186452,2,0,B|456:176,1,70,0|0
496,112,186785,2,0,B|432:64,1,70,8|0
368,40,187118,6,0,B|280:32|240:104,1,140,0|8
216,168,187618,1,0
216,168,187785,2,0,B|152:112,1,70,0|0
112,64,188118,2,0,B|40:128,1,70,8|0
0,160,188452,2,0,B|0:208|32:240,1,70,0|0
48,296,188785,2,0,B|80:328|136:296,1,70,8|0
184,272,189118,2,0,B|248:232,1,70,0|0
304,184,189452,2,0,B|352:120,1,70,8|0
400,48,189785,5,0
504,48,189952,1,0
504,152,190118,1,8
400,152,190285,2,0,B|400:240,1,70,0|0
400,328,190618,1,0
312,264,190785,1,8
224,328,190952,1,0
120,328,191118,6,0,B|40:288|24:192,1,140,0|8
24,120,191618,1,0
24,120,191785,2,0,B|48:40|136:48,1,140,0|8
232,56,192285,1,0
160,136,192452,2,0,B|88:192|176:248,1,140,0|8
256,312,192952,5,0
360,312,193118,1,0
432,232,193285,1,0
360,152,193452,1,8
256,152,193618,1,0
184,232,193785,1,0
256,192,193868,12,0,196118
256,264,196452,5,4
352,192,196702,1,0
256,128,196952,1,4
256,128,197118,1,0
160,192,197368,1,0
64,128,197618,1,0
64,128,197785,2,0,B|112:64|200:56,1,140,4|0
256,64,198285,5,0
384,192,198452,1,0
256,320,198618,1,0
128,192,198785,1,0
256,192,198952,1,0
256,193,199117,1,4
