osu file format v8

[General]
AudioFilename: Spiral.mp3
AudioLeadIn: 0
PreviewTime: 103118
Countdown: 0
SampleSet: Soft
StackLeniency: 0.7
Mode: 0
LetterboxInBreaks: 1

[Editor]
DistanceSpacing: 1
BeatDivisor: 4
GridSize: 8

[Metadata]
Title:Spiral
Artist:MK feat. YURiE
Creator:Haruhi-boy
Version:Normal
Source:
Tags:

[Difficulty]
HPDrainRate:4
CircleSize:4
OverallDifficulty:5
ApproachRate:4
SliderMultiplier:1
SliderTickRate:1

[Events]
//Background and Video events
0,0,"bg2.jpg"
//Break Periods
2,42985,43131
2,65318,77798
2,100318,101798
//Storyboard Layer 0 (Background)
//Storyboard Layer 1 (Fail)
//Storyboard Layer 2 (Pass)
//Storyboard Layer 3 (Foreground)
//Storyboard Sound Samples
//Background Colour Transformations
3,100,163,162,255

[TimingPoints]
452,333.333333333333,4,2,0,100,1,0
21701,-100,4,1,0,90,0,0
44451,-100,4,1,0,100,0,1
63118,-100,4,1,0,100,0,0
63368,-100,4,1,0,80,0,0
79035,-100,4,1,0,100,0,0
103118,-100,4,1,0,100,0,1
121785,-100,4,1,0,100,0,0

[Colours]
Combo1 : 255,117,117
Combo2 : 81,81,162
Combo3 : 136,136,255

[HitObjects]
256,312,11118,6,0,B|256:200,1,100,2|0
160,224,11785,2,0,B|160:112,1,100
256,96,12451,2,0,B|256:208,1,100,2|0
344,152,13118,2,0,B|344:256,1,100
264,192,13785,6,0,B|152:192,1,100,2|0
184,96,14451,2,0,B|80:96,1,100
184,96,15118,2,0,B|304:96|288:96,1,100,2|0
296,192,15785,2,0,B|408:192,1,100
496,168,16451,6,0,B|496:280,1,100,2|0
400,232,17118,2,0,B|400:344,1,100
304,296,17784,2,0,B|304:184,1,100,2|0
208,224,18451,2,0,B|208:120,1,100
304,88,19118,6,0,B|208:136|104:88,1,200,2|0
56,176,20118,1,0
56,176,20451,2,0,B|128:272|64:384,1,200,2|0
168,320,21451,1,0
256,280,21785,5,0
352,280,22118,1,8
448,296,22451,1,0
496,208,22785,2,0,B|392:168|336:72,1,200,8|4
248,64,23785,1,0
208,152,24118,5,0
128,88,24451,1,8
32,72,24784,1,0
8,176,25118,2,0,B|112:216|168:312,1,200,8|4
256,328,26118,1,0
256,232,26451,2,0,B|256:176|256:112,2,100
336,296,27451,5,8
408,224,27785,1,0
408,128,28118,1,8
336,56,28451,2,0,B|112:56,1,200,0|4
72,136,29451,5,0
136,216,29785,1,0
72,288,30118,1,8
160,336,30451,1,0
160,336,30785,2,0,B|368:336,1,200,8|0
464,336,31785,1,4
328,192,32451,6,0,B|128:192,1,200
24,192,33451,1,8
96,128,33785,1,0
24,64,34118,1,8
120,56,34451,2,0,B|320:56,1,200
424,56,35451,5,0
376,144,35785,1,0
464,184,36118,2,0,B|464:296,2,100,8|0|8
360,184,37118,2,0,B|160:184,1,200
256,8,38451,5,8
256,208,39118,2,0,B|256:320,1,100
168,256,39785,1,8
256,72,40451,6,0,B|256:288,1,200
256,376,41451,1,8
360,376,41785,2,0,B|472:368|464:208,1,200
464,128,42785,1,4
256,192,44451,6,0,B|368:192,1,100,4|8
456,184,45118,1,0
408,96,45451,1,8
408,96,45785,2,0,B|296:96,1,100,0|0
208,96,46451,1,0
104,96,46785,6,0,B|56:200,1,100,0|0
16,275,47451,1,8
16,275,47785,1,0
16,272,48118,2,8,B|120:272|208:336|200:336,1,200
288,288,49118,1,0
384,320,49451,6,0,B|384:200,1,100,0|4
328,136,50118,1,8
232,136,50451,1,0
152,192,50785,1,0
256,192,51118,12,0,53785
256,192,55118,6,0,B|144:192,1,100,4|8
56,200,55785,1,0
104,288,56118,1,8
104,288,56452,2,0,B|216:288,1,100,0|0
304,288,57118,1,0
408,288,57452,6,0,B|456:184,1,100,0|0
496,109,58118,1,8
496,109,58452,1,0
496,112,58785,2,8,B|392:112|304:48|312:48,1,200
224,96,59785,1,0
128,64,60118,6,0,B|128:184,1,100,0|4
184,248,60785,1,8
280,248,61118,1,0
360,192,61451,1,8
280,128,61785,2,0,B|176:128,1,100
256,192,62285,12,0,65118
256,104,79118,5,0
160,104,79451,1,8
64,88,79784,1,0
16,176,80118,2,0,B|120:216|176:312,1,200,8|4
264,320,81118,1,0
304,232,81451,5,0
384,296,81784,1,8
480,312,82117,1,0
504,208,82451,2,0,B|400:168|344:72,1,200,8|4
256,56,83451,1,0
256,152,83784,2,0,B|256:208|256:272,2,100
176,88,84784,5,8
104,160,85118,1,0
104,256,85451,1,8
176,328,85784,2,0,B|400:328,1,200,0|4
440,248,86784,5,0
376,168,87118,1,0
440,96,87451,1,8
352,48,87784,1,0
352,48,88118,2,0,B|144:48,1,200,8|0
48,48,89118,1,4
184,192,89784,6,0,B|384:192,1,200
488,192,90784,1,8
416,256,91118,1,0
488,320,91451,1,8
392,328,91784,2,0,B|192:328,1,200
88,328,92784,5,0
136,240,93118,1,0
48,200,93451,2,0,B|48:88,2,100,8|0|8
152,200,94451,2,0,B|352:200,1,200
256,376,95784,5,8
256,176,96451,2,0,B|256:64,1,100
344,128,97118,1,8
256,312,97784,6,0,B|256:96,1,200
256,8,98784,1,8
152,8,99118,2,0,B|40:16|48:176,1,200
48,256,100118,1,4
248,192,103118,5,4
184,264,103451,1,8
128,344,103785,1,0
64,264,104118,1,8
8,184,104451,1,0
112,184,104785,1,0
208,184,105118,1,0
408,184,105785,5,0
352,264,106118,1,0
304,352,106451,1,0
216,296,106785,1,0
136,240,107118,1,4
136,240,107785,1,4
328,176,108451,5,4
288,88,108784,1,8
384,64,109118,1,0
392,160,109451,1,8
448,240,109784,1,0
368,304,110118,1,0
312,216,110451,1,0
112,200,111118,5,0
40,136,111451,1,0
144,136,111785,1,0
216,64,112118,1,0
288,136,112451,1,4
488,136,113118,1,4
392,312,113785,5,4
336,232,114118,1,8
280,152,114452,1,0
216,232,114785,1,8
160,312,115118,1,0
264,312,115452,1,0
360,312,115785,1,0
432,128,116452,5,0
336,120,116785,1,0
288,32,117118,1,0
208,96,117452,1,0
120,152,117785,1,4
120,152,118452,1,4
312,200,119118,5,4
272,288,119451,1,8
368,312,119785,1,0
376,216,120118,1,8
432,136,120451,1,0
352,72,120785,1,0
296,160,121118,1,0
96,160,121785,5,0
24,224,122118,1,0
128,224,122452,1,0
200,296,122785,1,0
272,224,123118,1,4
472,224,123785,1,4
312,104,124451,6,0,B|112:104,1,200,4|0
216,280,125785,2,0,B|416:280,1,200,4|0
256,152,127118,1,4
