osu file format v8

[General]
AudioFilename: Spiral.mp3
AudioLeadIn: 1996
PreviewTime: 103118
Countdown: 0
SampleSet: Soft
StackLeniency: 0.7
Mode: 0
LetterboxInBreaks: 1

[Editor]
DistanceSpacing: 1.2
BeatDivisor: 4
GridSize: 8

[Metadata]
Title:Spiral
Artist:MK feat. YURiE
Creator:Haruhi-boy
Version:Hard
Source:
Tags:

[Difficulty]
HPDrainRate:6
CircleSize:4
OverallDifficulty:8
ApproachRate:7
SliderMultiplier:1.4
SliderTickRate:1

[Events]
//Background and Video events
0,0,"bg2.jpg"
//Break Periods
2,65318,67551
//Storyboard Layer 0 (Background)
//Storyboard Layer 1 (Fail)
//Storyboard Layer 2 (Pass)
//Storyboard Layer 3 (Foreground)
//Storyboard Sound Samples
//Background Colour Transformations
3,100,163,162,255

[TimingPoints]
452,333.333333333333,4,2,0,100,1,0
21701,-100,4,1,0,90,0,0
43035,-100,4,2,0,100,0,0
44368,-100,4,1,0,100,0,0
44451,-100,4,1,0,100,0,1
63118,-100,4,1,0,100,0,0
63368,-100,4,1,0,80,0,0
79035,-100,4,1,0,90,0,0
100368,-100,4,2,0,100,0,0
103035,-100,4,1,0,100,0,0
103118,-100,4,1,0,100,0,1
121785,-100,4,1,0,100,0,0
125868,-100,4,1,0,70,0,0

[Colours]
Combo1 : 255,117,117
Combo2 : 81,81,162
Combo3 : 136,136,255

[HitObjects]
256,184,452,1,2
256,48,1118,2,0,B|352:56|368:144,1,140,0|0
408,256,1785,2,2,B|328:296|240:208|112:272,1,280
80,136,2785,5,0
192,48,3118,2,0,B|264:136|408:96,2,210,2|0|0
328,16,4451,2,0,B|240:224,1,210,2|0
216,272,5118,1,0
120,176,5451,5,2
72,120,5618,1,0
24,72,5785,2,2,B|160:-16|320:64,1,280
328,184,6785,1,0
408,64,7118,6,2,B|528:160|456:320,1,280
320,296,8118,1,0
320,296,8285,2,0,B|240:224|112:232,1,210
256,192,9118,12,2,11118
168,104,11451,6,0,B|320:112|384:288,1,280,0|0
240,232,12451,2,0,B|408:56,1,210
440,32,13118,1,2
304,48,13451,1,0
160,40,13785,6,2,B|144:200|320:256,1,280,2|0
168,224,14785,1,0
264,120,15118,2,0,B|456:0,1,210
448,80,15785,1,2
464,216,16118,1,0
328,208,16451,6,2,B|168:184|48:312,1,280,2|0
112,152,17451,2,0,B|216:272,2,140
240,88,18451,1,2
376,112,18785,1,0
496,48,19118,1,2
256,192,19285,12,0,21451
256,288,21785,5,0
216,232,21951,1,0
264,176,22118,1,8
328,200,22285,1,0
376,152,22451,2,0,B|456:192|520:120,1,140,0|8
456,88,22951,1,0
400,48,23118,2,0,B|248:48,1,140,0|8
192,48,23618,1,0
120,48,23785,2,0,B|64:128,1,70,2|2
56,168,24118,6,0,B|128:208|112:304,1,140,8|0
184,296,24618,1,0
248,272,24785,1,8
256,200,24951,1,0
216,144,25118,2,0,B|296:104|368:152|360:152,1,140,0|8
400,200,25618,1,0
464,176,25785,1,2
480,104,25951,1,2
456,40,26118,2,2,B|384:80|304:24,1,140,10|2
240,48,26618,2,0,B|200:-32|208:-32,2,70,0|8|0
208,112,27118,5,0
160,160,27285,1,0
184,224,27451,1,8
256,224,27618,1,0
304,176,27785,2,0,B|392:288,1,140,0|8
424,224,28285,1,2
472,176,28451,2,2,B|472:328,1,140,0|10
400,304,28951,1,0
336,288,29118,2,0,B|240:288,1,70,8|0
208,248,29451,5,8
136,232,29618,1,0
72,208,29785,2,2,B|152:168|160:96,1,140
200,48,30285,1,0
248,104,30451,2,2,B|280:176|360:192,1,140
400,136,30951,1,0
448,184,31118,1,0
408,320,31451,1,8
288,248,31785,1,0
232,208,31951,5,0
168,240,32118,1,0
128,296,32285,1,0
64,272,32451,2,0,B|8:128,1,140,4|8
32,72,32951,1,0
88,120,33118,1,0
152,152,33285,1,0
152,80,33451,2,0,B|240:96|240:192,1,140,8|0
280,232,33951,1,0
280,232,34118,5,2
224,272,34285,1,0
160,248,34451,1,2
96,264,34618,1,0
40,224,34785,1,2
64,160,34951,1,0
128,128,35118,6,0,B|192:192|280:160,1,140,4|8
328,160,35618,1,0
368,216,35785,1,0
408,272,35951,1,0
336,288,36118,2,0,B|176:320,1,140,8|0
128,304,36618,1,0
128,304,36785,5,2
72,264,36951,1,0
96,200,37118,1,2
64,136,37285,1,0
120,96,37451,1,2
160,152,37618,1,0
224,128,37785,6,0,B|304:144|336:240,1,140
312,280,38285,1,0
248,296,38451,2,0,B|96:336,1,140,8|0
56,288,38951,1,0
88,224,39118,6,0,B|168:200|200:128,1,140
248,88,39618,1,0
296,40,39785,2,0,B|408:128,1,140,8|0
440,184,40285,1,0
384,224,40451,6,8,B|296:224|256:280,1,140
192,296,40951,2,0,B|192:136,1,140
120,120,41451,1,4
192,88,41618,2,0,B|272:120|336:72,1,140
392,72,42118,2,0,B|472:208|472:200,1,140
328,168,42785,1,4
184,256,43118,5,2
136,328,43285,1,2
72,280,43451,1,2
144,240,43618,1,2
88,176,43785,1,2
136,104,43951,1,2
144,192,44118,1,2
208,144,44285,1,2
280,104,44451,6,0,B|408:176,1,140,4|8
448,240,44951,1,0
376,288,45118,1,0
296,256,45285,1,0
264,336,45451,1,8
200,280,45618,1,0
136,336,45785,2,2,B|56:320|32:224,1,140,2|8
56,160,46285,1,2
136,192,46451,1,0
184,120,46618,1,0
184,120,46785,6,0,B|264:128|320:192,1,140,8|0
328,264,47285,1,0
368,336,47451,1,8
456,336,47618,1,0
488,256,47785,1,0
488,168,47951,1,0
488,168,48118,2,0,B|408:120|408:24,1,140,10|0
352,112,48618,1,2
272,136,48785,1,8
192,104,48951,1,2
152,32,49118,2,0,B|72:8|8:80,1,140,0|8
72,136,49618,5,0
136,184,49785,1,4
208,224,49951,1,0
152,288,50118,2,0,B|64:312|40:384,1,140,8|0
216,352,50785,1,0
216,352,51118,2,2,B|264:400|376:368,1,140,2|8
352,288,51618,1,2
288,136,51951,1,0
288,136,52118,2,2,B|216:88|128:112,1,140,2|8
96,168,52618,5,0
136,240,52785,1,2
208,280,52951,1,2
288,304,53118,2,8,B|376:296|432:360|416:360,1,140,8|0
440,272,53618,1,0
448,192,53785,1,2
280,200,54118,1,4
200,48,54451,1,4
200,48,54785,1,4
152,112,54951,1,0
112,184,55118,6,0,B|152:256|248:232,1,140,4|8
312,208,55618,1,0
376,152,55785,1,0
320,88,55951,1,0
240,72,56118,2,2,B|144:72|128:-8,1,140,2|8
88,72,56618,1,0
56,152,56785,2,0,B|32:304,1,140,2|8
120,272,57285,1,0
192,312,57451,5,0
264,272,57618,1,0
264,272,57785,2,0,B|336:224|416:280,1,140,4|0
464,216,58285,1,0
408,152,58451,2,0,B|264:112,1,140,8|0
192,104,58951,1,0
112,128,59118,2,0,B|48:192|64:272,1,140,0|8
112,320,59618,1,0
192,296,59785,1,2
272,320,59951,5,2
352,296,60118,1,8
424,248,60285,1,0
376,176,60451,1,0
432,112,60618,1,0
384,48,60785,1,8
328,112,60951,1,0
256,72,61118,1,0
176,40,61285,1,0
176,40,61451,2,0,B|88:72|72:160,1,140,8|4
232,192,62118,5,0
344,320,62451,1,4
456,192,62785,1,0
456,192,62951,1,0
368,192,63118,1,4
256,192,63201,12,0,65118
240,192,68451,6,0,B|240:104|144:80,1,140
56,168,69118,2,0,B|56:256|152:280,1,140
288,200,69785,6,0,B|288:288|384:312,1,140
464,232,70452,2,0,B|464:144|368:120,1,140
232,56,71118,6,0,B|256:208,1,140
128,256,71785,2,0,B|96:96,1,140
264,360,72451,6,0,B|240:208,1,140
368,160,73118,2,0,B|400:320,1,140
288,176,73785,5,0
224,144,73951,1,0
88,184,74285,1,0
80,256,74451,1,0
200,320,74785,1,0
336,336,75118,1,0
384,288,75285,1,0
352,224,75451,6,0,B|288:160|352:80,1,140
216,152,76118,2,0,B|280:88|216:8,1,140
168,56,76618,1,0
112,184,76951,1,0
152,240,77118,1,0
288,272,77451,1,0
280,128,77785,5,0
352,112,77951,1,0
384,176,78118,2,0,B|416:248|496:256,1,140
352,256,78785,1,0
224,208,79118,6,0,B|136:224|112:288,1,140,4|8
168,328,79618,1,0
240,312,79785,1,0
304,336,79951,1,0
368,312,80118,2,0,B|400:376,2,70,8|0|0
392,248,80618,1,0
392,248,80785,2,0,B|472:224|464:120,1,140,0|8
424,88,81285,1,2
368,40,81451,5,2
296,56,81618,1,0
232,32,81785,2,0,B|176:80|96:88,1,140,8|0
56,136,82285,1,0
56,136,82451,2,0,B|96:232|64:296|64:288,1,140,8|0
128,312,82951,1,0
192,288,83118,1,8
256,304,83285,1,0
312,256,83451,2,2,B|400:240|456:304,1,140,2|10
480,232,83951,5,0
424,192,84118,1,0
384,136,84285,1,0
352,72,84451,2,0,B|272:120|192:104,1,140,8|0
152,96,84951,1,0
152,96,85118,2,0,B|152:248,1,140,8|0
176,304,85618,1,0
240,272,85785,1,2
296,312,85951,1,2
312,240,86118,2,2,B|352:320|448:336,1,140,10|2
424,256,86618,5,0
456,192,86785,1,8
424,128,86951,1,0
352,136,87118,2,2,B|264:160|192:112,1,140
144,136,87618,1,0
128,208,87785,2,2,B|208:256|208:336,1,140
336,272,88451,1,4
472,296,88785,1,4
464,160,89118,1,4
392,144,89285,5,0
328,112,89452,1,0
288,56,89619,1,0
224,80,89785,2,0,B|168:224,1,140,4|8
192,280,90285,1,0
248,232,90452,1,0
312,200,90619,1,0
312,272,90785,2,0,B|400:256|400:160,1,140,8|0
384,112,91285,1,0
312,128,91452,5,2
248,96,91619,1,0
184,120,91785,1,2
112,120,91952,1,0
48,152,92119,1,2
64,224,92285,1,0
128,256,92452,6,0,B|192:192|280:224,1,140,4|8
328,224,92952,1,0
368,168,93119,1,0
408,112,93285,1,0
336,96,93452,2,0,B|176:64,1,140,8|0
128,80,93952,1,0
128,80,94119,5,2
72,120,94285,1,0
96,184,94452,1,2
64,248,94619,1,0
120,288,94785,1,2
160,232,94952,1,0
224,256,95119,6,0,B|304:240|336:144,1,140
312,104,95619,1,0
248,88,95785,2,0,B|96:48,1,140,8|0
56,96,96285,1,0
88,160,96452,6,0,B|168:184|200:256,1,140
240,296,96952,1,0
296,344,97119,2,0,B|408:256,1,140,8|0
440,200,97619,1,0
384,160,97785,6,8,B|296:160|256:104,1,140
192,88,98285,2,0,B|192:248,1,140
120,264,98785,1,4
192,296,98952,2,0,B|272:264|336:312,1,140
392,312,99452,2,0,B|472:176|472:184,1,140
328,216,100119,1,4
392,96,100451,5,2
320,112,100618,1,2
248,112,100785,1,2
192,160,100951,1,2
208,88,101118,5,0
248,160,101285,1,0
256,240,101451,1,0
224,320,101618,1,0
160,264,101785,5,2
248,216,101951,1,2
344,240,102118,1,2
432,192,102285,1,2
328,152,102451,5,0
360,216,102618,1,0
400,272,102785,1,0
464,304,102951,1,0
480,224,103118,5,4
448,144,103285,1,0
360,112,103452,1,8
288,152,103619,1,0
208,152,103785,2,0,B|128:192|64:120,1,140,0|8
32,64,104285,1,0
120,64,104452,2,0,B|272:64,1,140,0|8
344,64,104952,1,0
344,64,105118,2,0,B|448:64|456:160,1,140,0|8
400,200,105618,5,0
456,264,105785,1,0
400,328,105951,1,0
312,328,106118,2,0,B|168:328|160:328,1,140,8|0
120,264,106618,1,0
64,200,106785,1,8
64,200,106951,1,0
64,200,107118,2,0,B|208:200,1,140,0|8
288,200,107618,1,0
376,200,107785,1,0
432,136,107951,5,0
376,72,108118,1,0
288,72,108285,1,0
208,72,108451,2,0,B|128:72|96:160,1,140,4|8
32,192,108951,1,0
80,264,109118,1,0
128,336,109285,1,0
176,264,109451,1,8
216,192,109618,1,0
304,192,109785,2,0,B|304:264|368:336,1,140,4|8
424,368,110285,1,0
424,368,110451,2,0,B|472:320|488:224,1,140,0|8
424,184,110951,5,0
344,160,111118,1,4
360,80,111285,1,0
280,56,111451,1,8
264,136,111618,1,0
184,104,111785,1,0
104,128,111951,1,0
104,128,112118,2,0,B|24:176|32:256|40:248,1,140,4|8
112,272,112618,5,0
184,312,112785,1,8
264,344,112951,1,0
344,312,113118,1,8
416,272,113285,1,0
416,192,113451,6,0,B|416:48,1,140,0|4
344,96,113951,1,0
272,56,114118,1,8
200,96,114285,1,0
200,176,114451,2,0,B|200:320|200:328,1,140,0|8
128,280,114951,1,0
64,232,115118,2,0,B|64:80,1,140,0|8
64,92,115618,1,0
64,92,115785,1,0
136,128,115951,5,0
208,88,116118,1,8
264,152,116285,1,0
320,216,116451,1,4
376,152,116618,1,0
432,88,116785,2,0,B|488:224,1,140,8|0
408,248,117285,5,0
360,320,117451,1,8
280,288,117618,1,0
200,312,117785,1,4
120,336,117951,1,0
40,360,118118,2,0,B|40:192,1,140,8|0
40,136,118618,5,0
104,192,118785,1,8
160,128,118952,1,0
208,64,119118,1,0
264,128,119285,1,0
320,192,119452,1,8
392,144,119618,1,0
456,88,119785,1,0
464,168,119952,1,0
464,168,120118,2,0,B|464:312,1,140,8|4
320,224,120785,5,0
208,344,121118,1,4
88,224,121452,1,0
88,224,121618,1,0
176,224,121785,1,4
256,192,121868,12,0,123785
256,200,124451,6,0,B|336:200|384:128|376:120,1,140,4|0
304,80,124951,1,0
224,72,125118,2,0,B|72:72,1,140,4|0
96,152,125618,1,0
168,192,125785,2,0,B|200:272|152:344,1,140,4|0
240,296,126285,1,0
312,256,126451,1,0
384,296,126618,1,0
456,344,126785,2,0,B|456:184,1,140,0|4
