osu file format v8

[General]
AudioFilename: Spiral.mp3
AudioLeadIn: 1996
PreviewTime: 103118
Countdown: 0
SampleSet: Normal
StackLeniency: 0.7
Mode: 0
LetterboxInBreaks: 1

[Editor]
DistanceSpacing: 0.8
BeatDivisor: 4
GridSize: 8

[Metadata]
Title:Spiral
Artist:MK feat. YURiE
Creator:Haruhi-boy
Version:Easy
Source:
Tags:

[Difficulty]
HPDrainRate:3
CircleSize:3
OverallDifficulty:4
ApproachRate:3
SliderMultiplier:1
SliderTickRate:1

[Events]
//Background and Video events
0,0,"bg2.jpg"
//Break Periods
2,65318,77678
//Storyboard Layer 0 (Background)
//Storyboard Layer 1 (Fail)
//Storyboard Layer 2 (Pass)
//Storyboard Layer 3 (Foreground)
//Storyboard Sound Samples
//Background Colour Transformations
3,100,163,162,255

[TimingPoints]
452,333.333333333333,4,2,0,100,1,0
21701,-100,4,1,0,90,0,0
44451,-100,4,1,0,100,0,1
44463,-100,4,1,0,100,0,1
63118,-100,4,1,0,100,0,0
63368,-100,4,1,0,80,0,0
79035,-100,4,1,0,100,0,0
103118,-100,4,1,0,100,0,1
121785,-100,4,1,0,100,0,0

[Colours]
Combo1 : 255,117,117
Combo2 : 81,81,162
Combo3 : 136,136,255

[HitObjects]
56,192,452,1,0
456,192,1785,1,0
256,352,3118,1,0
248,32,4451,1,0
32,368,5785,5,0
248,32,7118,1,0
472,368,8451,1,0
256,32,9785,1,0
256,192,11118,5,0
256,192,11451,12,0,13785
256,192,15118,5,0
40,192,16451,1,2
360,192,17785,1,2
80,344,19118,1,0
400,344,20451,1,0
176,120,21785,6,0,B|120:328,1,200,4|0
272,264,23118,2,2,B|312:56,1,200
160,120,24451,6,0,B|360:176,1,200
224,272,25785,2,2,B|416:336,1,200
384,176,27118,6,0,B|440:384,1,200,4|0
288,312,28451,2,2,B|248:104,1,200
408,152,29784,6,0,B|208:208,1,200
360,264,31118,2,2,B|168:328,1,200
48,232,32451,5,4
120,88,33118,1,0
280,88,33785,1,0
360,224,34451,1,0
488,128,35118,5,4
416,272,35785,1,0
256,272,36452,1,0
176,136,37118,1,0
320,64,37785,6,0,B|424:248,1,200
264,272,39118,2,0,B|168:96,1,200
256,192,40451,12,0,43118
256,192,44451,5,4
96,184,45118,2,2,B|160:80|320:56|400:128|432:184|440:208,1,400
272,208,47118,5,4
112,216,47785,2,2,B|176:320|336:344|416:272|448:216|456:192,1,400
352,80,49785,6,0,B|208:136|320:288|152:296,2,300
192,80,52451,1,4
352,88,53118,1,4
464,208,53785,1,4
144,192,55118,5,4
112,352,55785,2,2,B|-32:312|-64:120|16:48|64:40,1,400
176,152,57785,5,4
280,32,58451,2,2,B|424:72|456:264|376:336|328:344,1,400
256,200,60451,5,0
96,200,61118,1,0
168,56,61785,1,0
256,192,62785,12,0,65118
336,264,79118,6,0,B|392:56,1,200,4|0
240,120,80451,2,2,B|200:328,1,200
352,264,81784,6,0,B|152:208,1,200
288,112,83118,2,2,B|96:48,1,200
128,208,84451,6,0,B|72:0,1,200,4|0
224,72,85784,2,2,B|264:280,1,200
104,232,87117,6,0,B|304:176,1,200
152,120,88451,2,2,B|344:56,1,200
464,152,89784,5,4
392,296,90451,1,0
232,296,91118,1,0
152,160,91784,1,0
24,256,92451,5,4
96,112,93118,1,0
256,112,93785,1,0
336,248,94451,1,0
192,320,95118,6,0,B|88:136,1,200
248,112,96451,2,0,B|344:288,1,200
256,192,97784,12,0,100451
256,192,101784,5,4
416,200,102451,2,2,B|352:304|192:328|112:256|80:200|72:176,1,400
240,176,104451,5,4
400,168,105118,2,2,B|336:64|176:40|96:112|64:168|56:192,1,400
160,304,107118,1,4
160,304,107785,1,0
160,304,108451,6,0,B|304:248|192:96|360:88,2,300
320,304,111117,1,4
160,304,111784,1,4
48,184,112451,1,4
208,184,113117,5,4
272,40,113785,2,2,B|416:80|448:272|368:344|320:352,1,400
232,224,115785,5,4
184,376,116451,2,2,B|40:336|8:144|88:72|136:64,1,400
256,168,118451,5,0
416,168,119118,1,0
344,312,119785,1,0
256,192,120451,12,0,123785
256,192,125785,5,4
256,192,127118,1,4
