osu file format v12

[General]
AudioFilename: MJQ Ft. Hatsune Miku - Cutie Cute Kitty Cat.mp3
AudioLeadIn: 0
PreviewTime: 5508
Countdown: 0
SampleSet: Normal
StackLeniency: 0.7
Mode: 0
LetterboxInBreaks: 1
EpilepsyWarning: 1
WidescreenStoryboard: 0

[Editor]
DistanceSpacing: 0.9
BeatDivisor: 4
GridSize: 8
TimelineZoom: 1

[Metadata]
Title:Cutie Cute Kitty Cat
TitleUnicode:Cutie Cute Kitty Cat
Artist:MJQ Ft. Hatsune Miku
ArtistUnicode:MJQ Ft. Hatsune Miku
Creator:BuBBLe1q
Version:Easy
Source:
Tags:vocaloid cute
BeatmapID:434482
BeatmapSetID:180873

[Difficulty]
HPDrainRate:2
CircleSize:3
OverallDifficulty:2
ApproachRate:2
SliderMultiplier:1
SliderTickRate:1

[Events]
//Background and Video events
Video,-356,"MJQ_Ft_Hatsune_Miku_-_Cutie_Cute_Kitty_Cat[www.MP3Fiber.com].flv"
0,0,"Снимок экрана (15).jpg",0,0
//Break Periods
//Storyboard Layer 0 (Background)
//Storyboard Layer 1 (Fail)
//Storyboard Layer 2 (Pass)
//Storyboard Layer 3 (Foreground)
//Storyboard Sound Samples
//Background Colour Transformations
3,100,163,162,255

[TimingPoints]
5681.32905860031,344.827586206897,4,1,0,100,1,0
22233,-100,4,1,0,100,0,1
22405,-100,4,1,0,100,0,0
27750,-100,4,1,0,100,0,1
27922,-100,4,1,0,100,0,0
38784,-100,4,1,0,100,0,1
43957,-100,4,1,0,100,0,0
49819,-100,4,1,0,100,0,1
60853,-100,4,1,0,100,0,0
61198,-100,4,1,0,100,0,1
71888,-100,4,1,0,100,0,0

[HitObjects]
256,192,4302,12,8,5336,0:0:0:0:
80,240,5681,6,0,P|128:184|168:176,1,100,0|8,0:0|0:0,0:0:0:0:
214,240,6370,2,0,P|237:205|234:141,1,100,0|8,0:0|0:0,0:0:0:0:
187,73,7060,2,0,P|243:57|291:81,1,100,0|8,0:0|0:0,0:0:0:0:
343,135,7750,1,0,0:0:0:0:
383,215,8095,1,8,0:0:0:0:
367,303,8439,1,0,0:0:0:0:
276,303,8784,6,0,P|260:247|212:215,1,100,8|0,0:0|0:0,0:0:0:0:
165,285,9474,2,0,P|141:245|149:181,1,100,8|0,0:0|0:0,0:0:0:0:
79,129,10164,2,0,P|116:101|182:108,1,100,8|0,0:0|0:0,0:0:0:0:
257,101,10853,1,8,0:0:0:0:
331,146,11198,1,0,0:0:0:0:
419,138,11543,6,0,P|411:194|363:226,1,100,8|0,0:0|0:0,0:0:0:0:
288,232,12233,2,0,P|308:285|350:309,1,100,8|0,0:0|0:0,0:0:0:0:
423,348,12922,2,0,P|463:308|471:252,1,100,8|0,0:0|0:0,0:0:0:0:
408,203,13612,1,8,0:0:0:0:
361,123,13957,1,0,0:0:0:0:
281,83,14302,1,8,0:0:0:0:
191,83,14646,6,0,P|199:131|259:168,1,100,0|8,0:0|0:0,0:0:0:0:
300,227,15336,2,0,P|262:258|192:259,1,100,0|8,0:0|0:0,0:0:0:0:
148,200,16026,2,0,P|122:269|132:304,1,100,0|8,0:0|0:0,0:0:0:0:
188,343,16715,1,4,0:0:0:0:
256,192,20508,12,0,21888,0:0:0:0:
256,192,22233,6,0,B|280:216|280:216|296:264|336:272,1,100,0|8,0:0|0:0,0:0:0:0:
368,192,22922,1,0,0:0:0:0:
312,120,23267,1,8,0:0:0:0:
224,104,23612,2,0,B|217:121|217:121|180:147|176:192,1,100,0|8,0:0|0:0,0:0:0:0:
88,208,24302,2,0,P|104:248|168:280,1,100,0|8,0:0|0:0,0:0:0:0:
214,341,24991,5,0,0:0:0:0:
280,280,25336,1,8,0:0:0:0:
368,272,25681,1,0,0:0:0:0:
440,216,26026,2,0,P|388:182|352:184,1,100,8|0,0:0|0:0,0:0:0:0:
262,183,26715,2,0,P|208:184|160:224,1,100,8|0,0:0|0:0,0:0:0:0:
88,232,27405,6,0,P|112:272|176:296,1,100,8|0,0:0|0:0,0:0:0:0:
168,208,28095,1,8,0:0:0:0:
104,144,28439,2,0,P|175:121|199:127,1,100,0|8,0:0|0:0,0:0:0:0:
261,62,29129,2,0,P|282:98|282:160,1,100,0|8,0:0|0:0,0:0:0:0:
325,235,29819,1,0,0:0:0:0:
452,107,30508,6,2,P|388:99|348:115,1,100
265,110,31198,2,2,P|239:99|151:123,1,100
112,176,31888,2,0,P|166:199|214:183,3,100,2|2|2|0,0:0|0:0|0:0|0:0,0:0:0:0:
237,272,33267,6,0,P|202:298|133:304,1,100,0|8,0:0|0:0,0:0:0:0:
64,280,33957,2,0,P|80:248|139:214,1,100,0|8,0:0|0:0,0:0:0:0:
196,151,34646,1,0,0:0:0:0:
259,87,34991,1,8,0:0:0:0:
349,87,35336,1,0,0:0:0:0:
328,176,35681,6,0,P|377:175|430:131,1,100,8|0,0:0|0:0,0:0:0:0:
436,59,36370,1,8,0:0:0:0:
350,87,36715,2,0,P|305:88|254:119,1,100,0|8,0:0|0:0,0:0:0:0:
167,114,37405,1,0,0:0:0:0:
103,50,37750,1,8,0:0:0:0:
52,124,38095,2,0,P|62:169|106:207,1,100,0|8,0:0|0:0,0:0:0:0:
80,288,38784,6,0,P|144:280|176:248,1,100,0|8,0:0|0:0,0:0:0:0:
224,192,39474,2,0,P|253:231|247:292,1,100,0|8,0:0|0:0,0:0:0:0:
315,344,40164,2,0,P|340:301|341:252,1,100,0|8,0:0|0:0,0:0:0:0:
277,188,40853,1,0,0:0:0:0:
277,97,41198,1,8,0:0:0:0:
357,57,41543,6,2,P|365:81|349:153,1,100,0|8,0:0|0:0,0:0:0:0:
349,242,42233,2,2,P|365:289|353:344,1,100,0|8,0:0|0:0,0:0:0:0:
275,296,42922,2,0,P|263:278|267:184,3,100,2|2|2|0,0:0|0:0|0:0|0:0,0:0:0:0:
256,192,48439,12,8,49474,0:0:0:0:
256,192,49819,6,0,P|280:176|304:104,1,100,0|8,0:0|0:0,0:0:0:0:
216,112,50508,1,0,0:0:0:0:
128,112,50853,2,0,P|144:56|176:32,1,100,8|0,0:0|0:0,0:0:0:0:
266,32,51543,1,8,0:0:0:0:
352,56,51888,1,0,0:0:0:0:
304,136,52233,2,0,B|328:160|328:160|368:160|408:144,1,100,8|0,0:0|0:0,0:0:0:0:
475,185,52922,6,0,P|443:222|387:241,1,100,8|0,0:0|0:0,0:0:0:0:
308,259,53612,1,8,0:0:0:0:
244,322,53957,2,0,B|252:306|252:306|220:266|244:218,1,100,0|8,0:0|0:0,0:0:0:0:
208,144,54646,1,0,0:0:0:0:
144,80,54991,1,8,0:0:0:0:
80,143,55336,6,0,B|96:159|96:159|144:167|160:223,1,100,0|8,0:0|0:0,0:0:0:0:
72,248,56026,1,0,0:0:0:0:
125,319,56370,2,0,P|156:281|160:232,1,100,8|0,0:0|0:0,0:0:0:0:
232,280,57060,2,0,P|288:288|330:271,1,100,8|0,0:0|0:0,0:0:0:0:
400,224,57750,1,8,0:0:0:0:
432,144,58095,1,0,0:0:0:0:
400,56,58439,6,0,P|359:83|336:136,1,100,8|0,0:0|0:0,0:0:0:0:
296,208,59129,1,8,0:0:0:0:
216,248,59474,1,0,0:0:0:0:
136,280,59819,2,0,P|88:256|64:200,1,100,8|0,0:0|0:0,0:0:0:0:
152,192,60508,2,0,P|136:152|82:120,1,100,8|0,0:0|0:0,0:0:0:0:
40,48,61198,6,0,L|40:152,1,100,8|0,0:0|0:0,0:0:0:0:
120,104,61888,2,0,P|161:108|209:148,1,100,8|0,0:0|0:0,0:0:0:0:
216,232,62577,2,0,P|160:216|132:186,1,100,8|0,0:0|0:0,0:0:0:0:
208,144,63267,1,8,0:0:0:0:
120,120,63612,1,0,0:0:0:0:
48,64,63957,6,0,P|83:39|139:39,1,100,8|0,0:0|0:0,0:0:0:0:
228,38,64646,2,0,P|291:39|331:63,1,100,8|0,0:0|0:0,0:0:0:0:
386,119,65336,2,0,P|395:167|363:215,3,100,8|0|8|0,0:0|0:0|0:0|0:0,0:0:0:0:
335,298,66715,5,8,0:0:0:0:
271,234,67060,1,0,0:0:0:0:
207,297,67405,1,8,0:0:0:0:
143,233,67750,1,0,0:0:0:0:
79,296,68095,2,0,P|56:248|224:197,1,300,8|0,0:0|0:0,0:0:0:0:
253,107,69474,5,8,0:0:0:0:
253,107,69819,1,0,0:0:0:0:
253,197,70164,1,8,0:0:0:0:
253,197,70508,1,0,0:0:0:0:
253,287,70853,1,8,0:0:0:0:
336,248,71198,2,0,P|304:128|240:96,1,200
171,196,72233,6,0,P|96:144|80:144,1,100
91,53,72922,1,0,0:0:0:0:
181,53,73267,1,0,0:0:0:0:
271,53,73612,2,0,P|292:106|330:128,1,100
391,191,74302,1,0,0:0:0:0:
312,232,74646,1,0,0:0:0:0:
304,320,74991,6,0,P|249:296|225:256,1,100
163,200,75681,1,0,0:0:0:0:
99,263,76026,1,0,0:0:0:0:
168,320,76370,2,0,P|208:336|264:328,1,100
224,248,77060,1,0,0:0:0:0:
224,157,77405,5,0,0:0:0:0:
224,66,77750,2,0,P|280:88|326:57,1,100
391,119,78439,1,0,0:0:0:0:
391,209,78784,1,0,0:0:0:0:
312,248,79129,2,0,P|304:208|328:144,1,100
257,88,79819,1,0,0:0:0:0:
180,135,80164,5,0,0:0:0:0:
90,135,80508,2,0,P|96:176|144:216,1,100
201,277,81198,1,0,0:0:0:0:
264,213,81543,1,0,0:0:0:0:
327,276,81888,1,0,0:0:0:0:
390,212,82233,1,0,0:0:0:0:
453,275,82577,1,0,0:0:0:0:
256,192,82922,12,0,85681,0:0:0:0:
