osu file format v14

[General]
AudioFilename: Nameless missionary.mp3
AudioLeadIn: 0
PreviewTime: 12269
Countdown: 0
SampleSet: Soft
StackLeniency: 0.7
Mode: 3
LetterboxInBreaks: 0
SpecialStyle: 0
WidescreenStoryboard: 0

[Editor]
Bookmarks: 2422,12269,22423,31961,41807,61499,81192,91038,102115
DistanceSpacing: 1
BeatDivisor: 4
GridSize: 8
TimelineZoom: 1.1

[Metadata]
Title:Nameless Missionary
TitleUnicode:名無しの宣教師
Artist:MIssionary
ArtistUnicode:オリジナル
Creator:Valentrixe
Version:Normal
Source:Dynamix
Tags:c4cat mimiproduction huwatcoolhensem
BeatmapID:721003
BeatmapSetID:323544

[Difficulty]
HPDrainRate:7
CircleSize:4
OverallDifficulty:7
ApproachRate:5
SliderMultiplier:1.4
SliderTickRate:1

[Events]
//Background and Video events
0,0,"14.jpg",0,0
//Break Periods
//Storyboard Layer 0 (Background)
//Storyboard Layer 1 (Fail)
//Storyboard Layer 2 (Pass)
//Storyboard Layer 3 (Foreground)
//Storyboard Sound Samples

[TimingPoints]
2423,307.692307692308,4,1,1,15,1,0
12269,-100,4,2,1,15,0,0
61499,-100,4,1,1,15,0,0
81192,-100,4,1,1,15,0,0
91038,-100,4,2,1,30,0,0
101499,-100,4,1,1,30,0,0
101807,-100,4,2,1,30,0,0
107038,-100,4,2,1,30,0,1
121807,-100,4,2,1,30,0,0

[HitObjects]
64,192,2422,5,0,0:0:0:0:
320,192,2422,1,0,0:0:0:0:
448,192,3653,1,0,0:0:0:0:
192,192,3653,1,0,0:0:0:0:
320,192,4884,1,0,0:0:0:0:
64,192,4884,1,0,0:0:0:0:
192,192,6115,1,0,0:0:0:0:
320,192,6115,1,0,0:0:0:0:
64,192,6730,1,0,0:0:0:0:
448,192,6730,1,0,0:0:0:0:
192,192,7346,1,0,0:0:0:0:
448,192,7346,1,0,0:0:0:0:
320,192,8576,1,0,0:0:0:0:
64,192,8576,1,0,0:0:0:0:
448,192,9807,1,0,0:0:0:0:
192,192,9807,1,0,0:0:0:0:
64,192,11038,1,0,0:0:0:0:
320,192,11038,1,0,0:0:0:0:
192,192,11653,1,0,0:0:0:0:
448,192,11730,1,0,0:0:0:0:
64,192,12269,1,6,0:0:0:0:
192,192,12269,1,0,0:0:0:0:
320,192,12730,1,6,0:0:0:0:
448,192,12730,1,6,0:0:0:0:
448,192,13499,1,0,0:0:0:0:
320,192,13653,1,0,0:0:0:0:
64,192,13807,1,8,0:0:0:0:
192,192,13961,1,0,0:0:0:0:
448,192,14115,1,0,0:0:0:0:
320,192,14269,1,0,0:0:0:0:
192,188,14423,1,8,0:0:0:0:
64,188,14576,1,0,0:0:0:0:
320,192,14730,1,6,0:0:0:0:
448,192,14730,1,0,0:0:0:0:
192,192,14884,1,0,0:0:0:0:
64,192,15038,1,8,0:0:0:0:
448,192,15192,1,6,0:0:0:0:
320,192,15192,1,0,0:0:0:0:
192,192,15346,1,0,0:0:0:0:
64,192,15499,1,0,0:0:0:0:
448,192,15653,1,6,0:0:0:0:
320,192,15653,1,0,0:0:0:0:
192,192,15807,1,0,0:0:0:0:
320,192,15961,1,0,0:0:0:0:
192,192,16115,1,6,0:0:0:0:
64,192,16115,1,6,0:0:0:0:
320,192,16269,1,0,0:0:0:0:
448,192,16423,1,0,0:0:0:0:
192,192,16576,1,6,0:0:0:0:
64,192,16576,1,0,0:0:0:0:
320,192,16730,1,0,0:0:0:0:
448,192,16884,128,2,17192:0:0:0:0:
64,192,17192,1,6,0:0:0:0:
192,192,17192,1,0,0:0:0:0:
320,192,17346,1,0,0:0:0:0:
448,192,17499,1,8,0:0:0:0:
192,192,17653,1,6,0:0:0:0:
64,192,17653,1,0,0:0:0:0:
320,192,17807,1,0,0:0:0:0:
448,192,17961,1,0,0:0:0:0:
64,192,18115,1,8,0:0:0:0:
192,192,18269,1,0,0:0:0:0:
448,192,18423,1,0,0:0:0:0:
320,192,18576,1,0,0:0:0:0:
192,192,18730,1,8,0:0:0:0:
64,192,18884,1,0,0:0:0:0:
64,192,19192,1,0,0:0:0:0:
192,192,19346,1,8,0:0:0:0:
448,192,19499,1,0,0:0:0:0:
320,192,19576,1,0,0:0:0:0:
192,192,19653,1,6,0:0:0:0:
64,192,19653,1,0,0:0:0:0:
192,192,20115,1,6,0:0:0:0:
320,192,20115,1,0,0:0:0:0:
320,192,20576,1,6,0:0:0:0:
448,192,20576,1,6,0:0:0:0:
64,192,20884,128,2,22115:0:0:0:0:
448,192,21499,128,2,22115:0:0:0:0:
448,192,22423,1,12,0:0:0:0:
64,192,22423,1,12,0:0:0:0:
192,192,22730,1,2,0:0:0:0:
320,192,23038,1,8,0:0:0:0:
64,192,23038,1,0,0:0:0:0:
448,192,23346,1,2,0:0:0:0:
192,192,23653,1,8,0:0:0:0:
64,192,23653,1,0,0:0:0:0:
448,192,23961,1,2,0:0:0:0:
320,192,24269,1,8,0:0:0:0:
64,192,24269,1,0,0:0:0:0:
192,192,24576,1,2,0:0:0:0:
320,192,24884,1,8,0:0:0:0:
448,192,24884,1,8,0:0:0:0:
64,192,25192,1,2,0:0:0:0:
448,192,25499,1,8,0:0:0:0:
192,192,25499,1,8,0:0:0:0:
320,192,25807,1,2,0:0:0:0:
192,192,26115,1,8,0:0:0:0:
64,192,26115,1,0,0:0:0:0:
448,192,26423,1,2,0:0:0:0:
64,192,26730,1,8,0:0:0:0:
320,192,26730,1,8,0:0:0:0:
192,192,27038,1,2,0:0:0:0:
320,192,27346,1,8,0:0:0:0:
448,192,27346,1,8,0:0:0:0:
192,192,27653,1,2,0:0:0:0:
320,192,27961,1,8,0:0:0:0:
64,192,27961,1,8,0:0:0:0:
448,192,28269,1,2,0:0:0:0:
192,192,28576,1,8,0:0:0:0:
64,192,28576,1,0,0:0:0:0:
448,192,28884,1,2,0:0:0:0:
320,192,29192,1,8,0:0:0:0:
64,192,29192,1,0,0:0:0:0:
192,192,29499,1,2,0:0:0:0:
320,192,29807,1,8,0:0:0:0:
448,192,29807,1,0,0:0:0:0:
192,192,30115,1,2,0:0:0:0:
448,192,30423,1,8,0:0:0:0:
64,192,30423,1,0,0:0:0:0:
320,192,30730,1,2,0:0:0:0:
192,192,31038,1,8,0:0:0:0:
64,192,31038,1,0,0:0:0:0:
320,192,31346,1,2,0:0:0:0:
448,192,31653,128,2,31961:0:0:0:0:
64,192,31961,128,6,34423:0:0:0:0:
192,192,31961,1,0,0:0:0:0:
320,192,32269,1,8,0:0:0:0:
448,192,32269,1,0,0:0:0:0:
192,192,32576,1,2,0:0:0:0:
192,192,32884,1,8,0:0:0:0:
448,192,32884,1,0,0:0:0:0:
320,192,33192,1,2,0:0:0:0:
448,192,33499,1,8,0:0:0:0:
320,192,33499,1,8,0:0:0:0:
192,192,33807,1,2,0:0:0:0:
320,192,34115,1,8,0:0:0:0:
192,192,34115,1,8,0:0:0:0:
448,192,34423,128,2,36884:0:0:0:0:
192,192,34730,1,8,0:0:0:0:
64,192,34730,1,8,0:0:0:0:
320,192,35038,1,2,0:0:0:0:
64,192,35346,1,8,0:0:0:0:
320,192,35346,1,0,0:0:0:0:
64,192,35653,1,2,0:0:0:0:
192,192,35961,1,8,0:0:0:0:
320,192,35961,1,8,0:0:0:0:
64,192,36269,1,2,0:0:0:0:
64,192,36576,1,8,0:0:0:0:
192,192,36576,1,0,0:0:0:0:
320,192,36884,1,2,0:0:0:0:
64,192,37038,1,0,0:0:0:0:
448,192,37192,1,8,0:0:0:0:
192,192,37346,1,0,0:0:0:0:
448,192,37499,1,2,0:0:0:0:
64,192,37653,1,0,0:0:0:0:
320,192,37807,1,8,0:0:0:0:
64,192,37961,1,0,0:0:0:0:
320,192,38115,128,2,39346:0:0:0:0:
192,192,38423,1,8,0:0:0:0:
448,192,38423,1,0,0:0:0:0:
64,192,38730,1,2,0:0:0:0:
64,192,39038,1,8,0:0:0:0:
448,192,39038,1,8,0:0:0:0:
192,192,39346,1,2,0:0:0:0:
448,192,39499,1,0,0:0:0:0:
64,192,39653,1,8,0:0:0:0:
320,192,39807,1,0,0:0:0:0:
64,192,39961,1,2,0:0:0:0:
448,192,40115,1,0,0:0:0:0:
320,192,40269,1,8,0:0:0:0:
192,192,40423,1,0,0:0:0:0:
64,192,40576,128,2,41499:0:0:0:0:
320,192,40884,1,8,0:0:0:0:
448,192,40884,1,0,0:0:0:0:
192,192,41192,1,2,0:0:0:0:
448,192,41499,128,2,41807:0:0:0:0:
192,192,41807,128,6,42730:0:0:0:0:
448,192,42730,1,8,0:0:0:0:
320,192,42884,1,0,0:0:0:0:
192,192,43038,128,2,43653:0:0:0:0:
320,192,43653,128,2,44269:0:0:0:0:
448,192,44269,128,2,44730:0:0:0:0:
64,192,44730,128,0,45115:0:0:0:0:
192,192,45269,128,0,46423:0:0:0:0:
448,192,46423,1,8,0:0:0:0:
320,192,46576,1,0,0:0:0:0:
192,192,46730,128,2,47653:0:0:0:0:
448,192,47653,1,8,0:0:0:0:
320,192,47807,1,0,0:0:0:0:
64,192,47961,128,2,48576:0:0:0:0:
448,192,48576,128,2,49192:0:0:0:0:
192,192,49192,128,2,50423:0:0:0:0:
64,192,50423,128,2,51653:0:0:0:0:
448,192,51346,128,2,51653:0:0:0:0:
320,192,51653,128,6,52576:0:0:0:0:
64,192,52576,1,8,0:0:0:0:
192,192,52730,1,0,0:0:0:0:
320,192,52884,128,2,53384:0:0:0:0:
192,192,53384,128,0,53807:0:0:0:0:
64,192,53807,128,8,54115:0:0:0:0:
320,192,54115,128,2,54423:0:0:0:0:
64,192,54423,1,8,0:0:0:0:
192,192,54576,128,0,55346:0:0:0:0:
320,192,55346,128,2,55653:0:0:0:0:
448,192,55653,128,8,55961:0:0:0:0:
192,192,55961,128,2,56269:0:0:0:0:
320,192,56269,128,8,56576:0:0:0:0:
64,192,56576,128,2,56884:0:0:0:0:
192,192,56884,128,8,57499:0:0:0:0:
448,192,57499,128,8,57807:0:0:0:0:
320,192,57807,128,2,58115:0:0:0:0:
64,192,58115,128,8,58423:0:0:0:0:
192,192,58423,128,2,58730:0:0:0:0:
320,192,58730,128,8,59038:0:0:0:0:
448,192,59038,128,2,59499:0:0:0:0:
64,192,59499,128,2,61499:0:0:0:0:
320,192,60269,128,2,61499:0:0:0:0:
448,192,61499,5,4,0:0:0:0:
448,192,61961,1,0,0:0:0:0:
448,192,62423,128,0,66423:0:0:0:0:
192,192,66423,1,0,0:0:0:0:
192,192,66884,1,0,0:0:0:0:
192,192,67346,128,0,71346:0:0:0:0:
320,192,71346,1,0,0:0:0:0:
320,192,71807,1,0,0:0:0:0:
320,192,72269,128,0,76269:0:0:0:0:
64,192,76269,1,0,0:0:0:0:
64,192,76730,1,0,0:0:0:0:
64,192,77192,128,0,81192:0:0:0:0:
192,192,81192,1,0,0:0:0:0:
320,192,81346,1,0,0:0:0:0:
64,192,81499,1,0,0:0:0:0:
192,192,81653,1,0,0:0:0:0:
320,192,81807,1,0,0:0:0:0:
448,192,81961,1,0,0:0:0:0:
320,192,82115,1,0,0:0:0:0:
192,192,82269,1,0,0:0:0:0:
448,192,82423,1,0,0:0:0:0:
192,192,82576,1,0,0:0:0:0:
448,192,82730,1,0,0:0:0:0:
192,192,82884,1,0,0:0:0:0:
448,192,83038,1,0,0:0:0:0:
320,192,83192,1,0,0:0:0:0:
64,192,83346,1,0,0:0:0:0:
192,192,83499,1,0,0:0:0:0:
448,192,83653,1,0,0:0:0:0:
320,192,83807,1,0,0:0:0:0:
192,192,83961,1,0,0:0:0:0:
320,192,84115,1,0,0:0:0:0:
192,192,84269,1,0,0:0:0:0:
64,192,84423,1,0,0:0:0:0:
448,192,84576,1,0,0:0:0:0:
320,192,84730,1,0,0:0:0:0:
192,192,84884,1,0,0:0:0:0:
64,192,85038,1,0,0:0:0:0:
192,192,85192,1,0,0:0:0:0:
320,192,85346,1,0,0:0:0:0:
64,192,85499,1,0,0:0:0:0:
192,192,85653,1,0,0:0:0:0:
448,192,85807,1,0,0:0:0:0:
320,192,85961,1,0,0:0:0:0:
64,192,86115,1,0,0:0:0:0:
192,192,86269,1,0,0:0:0:0:
320,192,86423,1,0,0:0:0:0:
64,192,86576,1,0,0:0:0:0:
192,192,86730,1,0,0:0:0:0:
320,192,86884,1,0,0:0:0:0:
448,192,87038,1,0,0:0:0:0:
192,192,87192,1,0,0:0:0:0:
448,192,87346,1,0,0:0:0:0:
64,192,87499,1,0,0:0:0:0:
320,192,87653,1,0,0:0:0:0:
64,192,87807,1,0,0:0:0:0:
448,192,88115,1,0,0:0:0:0:
192,192,88269,1,0,0:0:0:0:
64,192,88346,1,0,0:0:0:0:
448,192,88423,1,0,0:0:0:0:
320,192,88499,1,0,0:0:0:0:
64,192,88576,1,0,0:0:0:0:
192,192,88807,1,0,0:0:0:0:
320,192,89038,128,0,89807:0:0:0:0:
64,192,89807,128,0,90038:0:0:0:0:
448,192,90038,128,0,90269:0:0:0:0:
64,192,90269,128,0,90499:0:0:0:0:
320,192,90499,128,0,90730:0:0:0:0:
64,192,90730,1,0,0:0:0:0:
192,192,90884,1,0,0:0:0:0:
448,192,91038,1,6,0:0:0:0:
320,192,91038,1,0,0:0:0:0:
192,192,91499,1,6,0:0:0:0:
64,192,91499,1,6,0:0:0:0:
320,192,93499,1,6,0:0:0:0:
448,192,93499,1,0,0:0:0:0:
64,192,93961,1,6,0:0:0:0:
192,192,93961,1,6,0:0:0:0:
192,192,94423,1,6,0:0:0:0:
448,192,94423,1,6,0:0:0:0:
320,192,94884,1,6,0:0:0:0:
448,192,94884,1,0,0:0:0:0:
448,192,95346,1,6,0:0:0:0:
192,192,95346,1,0,0:0:0:0:
64,192,95653,128,2,95961:0:0:0:0:
320,192,95961,1,6,0:0:0:0:
448,192,95961,1,0,0:0:0:0:
64,192,96423,1,6,0:0:0:0:
448,192,96423,1,0,0:0:0:0:
192,192,98423,1,6,0:0:0:0:
448,192,98423,1,0,0:0:0:0:
448,192,98884,1,6,0:0:0:0:
64,192,98884,1,0,0:0:0:0:
320,192,99346,1,6,0:0:0:0:
64,192,99346,1,0,0:0:0:0:
448,192,99653,1,2,0:0:0:0:
320,192,99884,1,2,0:0:0:0:
192,192,100115,1,2,0:0:0:0:
64,192,100346,1,2,0:0:0:0:
192,192,100576,1,2,0:0:0:0:
320,192,100730,1,6,0:0:0:0:
448,192,101653,128,2,101807:2:0:0:0:
320,192,101807,1,8,0:0:0:0:
64,192,101807,1,0,0:0:0:0:
64,192,102115,128,6,102423:0:0:0:0:
320,192,102423,1,2,0:0:0:0:
320,192,102576,1,2,0:0:0:0:
192,192,102884,1,2,0:0:0:0:
64,192,103192,128,2,103807:0:0:0:0:
320,192,103807,128,2,104115:0:0:0:0:
64,192,104115,1,2,0:0:0:0:
192,192,104269,1,2,0:0:0:0:
320,192,104423,1,2,0:0:0:0:
448,192,104576,1,2,0:0:0:0:
320,192,104884,1,2,0:0:0:0:
192,192,105038,1,2,0:0:0:0:
448,192,105346,1,2,0:0:0:0:
320,192,105653,1,2,0:0:0:0:
192,192,105961,1,2,0:0:0:0:
448,192,106269,1,2,0:0:0:0:
192,192,106576,1,2,0:0:0:0:
320,192,106884,1,2,0:0:0:0:
192,192,107038,1,2,0:0:0:0:
64,192,107346,1,8,0:0:0:0:
320,192,107346,1,0,0:0:0:0:
192,192,107653,1,2,0:0:0:0:
64,192,107961,1,8,0:0:0:0:
448,192,107961,1,0,0:0:0:0:
320,192,108269,1,2,0:0:0:0:
448,192,108576,1,8,0:0:0:0:
192,192,108576,1,0,0:0:0:0:
320,192,108884,1,2,0:0:0:0:
448,192,109192,1,8,0:0:0:0:
64,192,109192,1,0,0:0:0:0:
192,192,109499,1,2,0:0:0:0:
448,192,109653,1,2,0:0:0:0:
192,192,109807,1,2,0:0:0:0:
448,192,109961,1,2,0:0:0:0:
64,192,110115,1,2,0:0:0:0:
320,192,110269,1,2,0:0:0:0:
64,192,110423,1,2,0:0:0:0:
320,192,110576,1,2,0:0:0:0:
64,192,110730,1,6,0:0:0:0:
192,192,110730,1,0,0:0:0:0:
448,192,110884,1,2,0:0:0:0:
192,192,111038,1,2,0:0:0:0:
448,192,111192,1,2,0:0:0:0:
192,192,111346,1,6,0:0:0:0:
64,192,111346,1,6,0:0:0:0:
448,192,111499,1,2,0:0:0:0:
192,192,111653,128,6,111961:0:0:0:0:
448,192,111961,1,6,0:0:0:0:
320,192,111961,1,0,0:0:0:0:
320,192,112269,1,2,0:0:0:0:
192,192,112423,1,2,0:0:0:0:
64,192,112423,1,0,0:0:0:0:
320,192,112730,1,2,0:0:0:0:
448,192,113038,128,2,113653:0:0:0:0:
192,192,113653,128,6,113961:0:0:0:0:
448,192,113961,1,2,0:0:0:0:
320,192,114115,1,2,0:0:0:0:
192,192,114269,1,2,0:0:0:0:
64,192,114423,1,6,0:0:0:0:
320,192,114730,1,2,0:0:0:0:
192,192,114884,1,2,0:0:0:0:
64,192,115192,1,2,0:0:0:0:
192,192,115499,1,2,0:0:0:0:
320,192,115807,1,2,0:0:0:0:
448,192,116115,1,2,0:0:0:0:
320,192,116423,1,2,0:0:0:0:
192,192,116730,1,2,0:0:0:0:
320,192,116884,1,6,0:0:0:0:
192,192,117192,1,8,0:0:0:0:
448,192,117192,1,8,0:0:0:0:
320,192,117499,1,2,0:0:0:0:
64,192,117807,1,8,0:0:0:0:
448,192,117807,1,0,0:0:0:0:
192,192,118115,1,2,0:0:0:0:
320,192,118423,1,8,0:0:0:0:
64,192,118423,1,0,0:0:0:0:
192,192,118730,1,2,0:0:0:0:
448,192,119038,1,8,0:0:0:0:
64,192,119038,1,0,0:0:0:0:
320,192,119346,1,2,0:0:0:0:
64,192,119499,1,2,0:0:0:0:
320,192,119653,1,2,0:0:0:0:
64,192,119807,1,2,0:0:0:0:
448,192,119961,1,2,0:0:0:0:
192,192,120115,1,2,0:0:0:0:
448,192,120269,1,2,0:0:0:0:
192,192,120423,1,2,0:0:0:0:
448,192,120576,1,6,0:0:0:0:
320,192,120576,128,0,120884:0:0:0:0:
192,192,120884,1,4,0:0:0:0:
64,192,120884,128,0,121192:0:0:0:0:
448,192,121192,1,4,0:0:0:0:
320,192,121192,128,6,121499:0:0:0:0:
192,192,121499,1,4,0:0:0:0:
64,192,121499,128,0,121807:0:0:0:0:
320,192,121807,1,6,0:0:0:0:
448,192,121807,1,4,0:0:0:0:
