osu file format v14

[General]
AudioFilename: Nameless missionary.mp3
AudioLeadIn: 0
PreviewTime: 12269
Countdown: 0
SampleSet: Soft
StackLeniency: 0.7
Mode: 3
LetterboxInBreaks: 0
SpecialStyle: 0
WidescreenStoryboard: 0

[Editor]
DistanceSpacing: 1
BeatDivisor: 4
GridSize: 8
TimelineZoom: 1.7

[Metadata]
Title:Nameless Missionary
TitleUnicode:名無しの宣教師
Artist:MIssionary
ArtistUnicode:オリジナル
Creator:Valentrixe
Version:Insane
Source:Dynamix
Tags:c4cat mimiproduction huwatcoolhensem
BeatmapID:719087
BeatmapSetID:323544

[Difficulty]
HPDrainRate:8
CircleSize:4
OverallDifficulty:8
ApproachRate:5
SliderMultiplier:1.4
SliderTickRate:1

[Events]
//Background and Video events
0,0,"14.jpg",0,0
//Break Periods
//Storyboard Layer 0 (Background)
//Storyboard Layer 1 (Fail)
//Storyboard Layer 2 (Pass)
//Storyboard Layer 3 (Foreground)
//Storyboard Sound Samples

[TimingPoints]
2423,307.692307692308,4,1,1,15,1,0
12269,-100,4,2,1,30,0,0
22115,-50,4,2,1,30,0,0
22269,-133.333333333333,4,2,1,30,0,0
22346,-200,4,2,1,30,0,0
22423,-100,4,2,1,30,0,0
61499,-100,4,1,1,15,0,0
81192,-100,4,1,1,15,0,0
91038,-100,4,2,1,30,0,0
100730,-1000,4,2,1,30,0,0
101499,-90.9090909090909,4,1,1,30,0,0
101807,-500,4,2,1,30,0,0
101884,-100,4,2,1,30,0,0
107038,-100,4,2,1,30,0,1
115192,-83.3333333333333,4,2,1,30,0,1
115346,-166.666666666667,4,2,1,30,0,1
115499,-83.3333333333333,4,2,1,30,0,1
115653,-166.666666666667,4,2,1,30,0,1
115807,-83.3333333333333,4,2,1,30,0,1
115961,-166.666666666667,4,2,1,30,0,1
116115,-83.3333333333333,4,2,1,30,0,1
116269,-166.666666666667,4,2,1,30,0,1
116423,-83.3333333333333,4,2,1,30,0,1
116576,-166.666666666667,4,2,1,30,0,1
116730,-100,4,2,1,30,0,1
121807,-100,4,2,1,30,0,0

[HitObjects]
192,192,2422,5,0,0:0:0:0:
448,192,2422,1,0,0:0:0:0:
64,192,2576,1,0,0:0:0:0:
448,192,2730,1,0,0:0:0:0:
320,192,2884,1,0,0:0:0:0:
192,192,3038,1,0,0:0:0:0:
448,192,3192,1,0,0:0:0:0:
320,192,3346,1,0,0:0:0:0:
192,192,3499,1,0,0:0:0:0:
320,192,3653,1,0,0:0:0:0:
448,192,3653,1,0,0:0:0:0:
64,192,3807,1,0,0:0:0:0:
192,192,3961,1,0,0:0:0:0:
448,192,4115,1,0,0:0:0:0:
64,192,4269,1,0,0:0:0:0:
192,192,4423,1,0,0:0:0:0:
320,192,4576,1,0,0:0:0:0:
448,192,4730,1,0,0:0:0:0:
192,192,4884,1,0,0:0:0:0:
64,192,4884,1,0,0:0:0:0:
320,192,5038,1,0,0:0:0:0:
448,192,5192,1,0,0:0:0:0:
192,192,5346,1,0,0:0:0:0:
320,192,5499,1,0,0:0:0:0:
448,192,5653,1,0,0:0:0:0:
192,192,5807,1,0,0:0:0:0:
320,192,5961,1,0,0:0:0:0:
448,192,6115,1,0,0:0:0:0:
64,192,6115,1,0,0:0:0:0:
192,192,6269,1,0,0:0:0:0:
320,192,6423,1,0,0:0:0:0:
192,192,6576,1,0,0:0:0:0:
64,192,6730,1,0,0:0:0:0:
448,192,6730,1,0,0:0:0:0:
320,192,6884,1,0,0:0:0:0:
192,192,7038,1,0,0:0:0:0:
320,192,7192,1,0,0:0:0:0:
448,192,7346,1,0,0:0:0:0:
64,192,7346,1,0,0:0:0:0:
320,192,7499,1,0,0:0:0:0:
192,192,7653,1,0,0:0:0:0:
448,192,7807,1,0,0:0:0:0:
320,192,7961,1,0,0:0:0:0:
192,192,8115,1,0,0:0:0:0:
64,192,8269,1,0,0:0:0:0:
320,192,8423,1,0,0:0:0:0:
192,192,8576,1,0,0:0:0:0:
64,192,8576,1,0,0:0:0:0:
448,192,8730,1,0,0:0:0:0:
320,192,8884,1,0,0:0:0:0:
192,192,9038,1,0,0:0:0:0:
320,192,9346,1,0,0:0:0:0:
448,192,9499,1,0,0:0:0:0:
320,192,9576,1,0,0:0:0:0:
64,192,9653,1,0,0:0:0:0:
192,192,9730,1,0,0:0:0:0:
320,192,9807,1,0,0:0:0:0:
448,192,9807,1,0,0:0:0:0:
192,192,10038,1,0,0:0:0:0:
448,192,10269,1,0,0:0:0:0:
64,192,11038,1,0,0:0:0:0:
448,192,11038,1,0,0:0:0:0:
448,192,11269,1,0,0:0:0:0:
320,192,11499,1,0,0:0:0:0:
64,192,11653,1,0,0:0:0:0:
192,192,11653,1,0,0:0:0:0:
448,192,11730,1,0,0:0:0:0:
192,192,11961,1,0,0:0:0:0:
64,192,12115,1,0,0:0:0:0:
448,192,12269,1,6,0:0:0:0:
192,192,12269,128,0,12423:0:0:0:0:
320,192,12269,1,0,0:0:0:0:
64,192,12423,128,0,12576:0:0:0:0:
448,192,12576,128,0,12730:0:0:0:0:
192,192,12576,1,8,0:0:0:0:
320,192,12730,128,0,12884:0:0:0:0:
192,192,12730,1,6,0:0:0:0:
64,192,12730,1,0,0:0:0:0:
192,192,12884,128,0,13038:0:0:0:0:
448,192,13038,128,0,13192:0:0:0:0:
320,192,13192,128,0,13346:0:0:0:0:
64,192,13192,1,8,0:0:0:0:
192,192,13346,128,0,13499:0:0:0:0:
448,192,13499,1,0,0:0:0:0:
320,192,13653,1,0,0:0:0:0:
64,192,13807,1,8,0:0:0:0:
192,192,13961,1,0,0:0:0:0:
448,192,14115,128,0,14269:0:0:0:0:
320,192,14269,128,0,14423:0:0:0:0:
192,192,14423,128,8,14576:0:0:0:0:
64,192,14576,128,0,14730:0:0:0:0:
448,192,14730,1,6,0:0:0:0:
320,192,14730,1,0,0:0:0:0:
192,192,14730,128,0,14884:0:0:0:0:
320,192,14884,128,0,15038:0:0:0:0:
448,192,15038,128,8,15192:0:0:0:0:
64,192,15192,1,6,0:0:0:0:
320,192,15192,128,0,15346:0:0:0:0:
192,192,15192,1,6,0:0:0:0:
192,192,15346,128,0,15499:0:0:0:0:
64,192,15499,128,0,15653:0:0:0:0:
448,192,15653,1,6,0:0:0:0:
192,192,15653,128,0,15807:0:0:0:0:
320,192,15653,1,0,0:0:0:0:
320,192,15807,128,0,15961:0:0:0:0:
448,192,15961,128,0,16115:0:0:0:0:
320,192,16115,128,0,16269:0:0:0:0:
64,192,16115,1,6,0:0:0:0:
192,192,16115,1,0,0:0:0:0:
192,192,16269,128,0,16423:0:0:0:0:
64,192,16423,128,0,16576:0:0:0:0:
192,192,16576,1,0,0:0:0:0:
448,192,16576,128,0,16730:0:0:0:0:
320,192,16576,1,6,0:0:0:0:
320,192,16730,128,0,16884:0:0:0:0:
64,192,16884,128,0,17038:0:0:0:0:
448,192,16884,1,2,0:0:0:0:
320,192,16961,1,2,0:0:0:0:
192,192,17038,128,0,17192:0:0:0:0:
448,192,17038,1,2,0:0:0:0:
320,192,17115,1,2,0:0:0:0:
64,192,17192,1,6,0:0:0:0:
448,192,17192,128,0,17346:0:0:0:0:
320,192,17346,128,0,17499:0:0:0:0:
64,192,17499,128,8,17653:0:0:0:0:
320,192,17653,1,0,0:0:0:0:
448,192,17653,128,0,17807:0:0:0:0:
192,192,17653,1,6,0:0:0:0:
320,192,17807,128,0,17961:0:0:0:0:
192,192,17961,128,0,18115:0:0:0:0:
64,192,18115,128,8,18269:0:0:0:0:
320,192,18269,128,0,18423:0:0:0:0:
64,192,18423,128,0,18576:0:0:0:0:
192,192,18576,128,0,18730:0:0:0:0:
320,192,18730,128,8,18884:0:0:0:0:
448,192,18884,128,0,19038:0:0:0:0:
192,192,19192,128,0,19346:0:0:0:0:
448,192,19346,1,8,0:0:0:0:
320,192,19423,1,0,0:0:0:0:
192,192,19499,1,0,0:0:0:0:
64,192,19576,1,0,0:0:0:0:
320,192,19653,1,6,0:0:0:0:
448,192,19653,128,0,19884:0:0:0:0:
192,192,19653,1,0,0:0:0:0:
192,192,19884,128,0,20115:0:0:0:0:
320,188,20115,1,6,0:0:0:0:
448,192,20115,1,0,0:0:0:0:
64,192,20115,128,0,20884:0:0:0:0:
192,192,20576,1,0,0:0:0:0:
320,192,20576,1,6,0:0:0:0:
192,192,20884,128,0,21115:0:0:0:0:
448,192,20884,1,2,0:0:0:0:
320,192,20961,1,2,0:0:0:0:
448,192,21038,1,2,0:0:0:0:
64,192,21115,128,0,21346:0:0:0:0:
320,192,21115,1,2,0:0:0:0:
448,192,21192,1,2,0:0:0:0:
320,192,21269,1,2,0:0:0:0:
192,192,21346,128,0,21576:0:0:0:0:
448,192,21346,1,2,0:0:0:0:
320,192,21423,1,2,0:0:0:0:
448,192,21499,1,2,0:0:0:0:
64,192,21576,128,0,21807:0:0:0:0:
320,192,21576,1,2,0:0:0:0:
448,192,21653,1,2,0:0:0:0:
320,192,21730,1,2,0:0:0:0:
192,192,21807,128,0,21961:0:0:0:0:
448,192,21807,1,2,0:0:0:0:
320,192,21884,1,2,0:0:0:0:
64,192,21961,128,0,22115:0:0:0:0:
448,192,21961,1,2,0:0:0:0:
320,192,22038,1,2,0:0:0:0:
448,192,22115,1,2,0:0:0:0:
64,192,22423,1,0,0:0:0:0:
192,192,22423,1,12,0:0:0:0:
448,192,22423,1,0,0:0:0:0:
320,192,22499,1,0,0:0:0:0:
192,192,22576,1,0,0:0:0:0:
64,192,22653,1,0,0:0:0:0:
320,192,22730,1,2,0:0:0:0:
448,192,22807,1,0,0:0:0:0:
64,192,22884,1,0,0:0:0:0:
192,192,22961,1,0,0:0:0:0:
320,192,23038,1,8,0:0:0:0:
448,193,23038,1,0,0:0:0:0:
64,192,23115,1,0,0:0:0:0:
192,192,23192,1,0,0:0:0:0:
320,192,23269,1,0,0:0:0:0:
64,192,23346,1,2,0:0:0:0:
192,192,23423,1,0,0:0:0:0:
448,192,23499,1,0,0:0:0:0:
320,192,23576,1,0,0:0:0:0:
192,192,23653,1,8,0:0:0:0:
64,192,23653,1,0,0:0:0:0:
448,192,23730,1,0,0:0:0:0:
320,192,23807,1,0,0:0:0:0:
192,192,23884,1,0,0:0:0:0:
448,192,23961,1,2,0:0:0:0:
320,192,24038,1,0,0:0:0:0:
64,192,24115,1,0,0:0:0:0:
192,192,24192,1,0,0:0:0:0:
448,192,24269,1,8,0:0:0:0:
320,192,24269,1,0,0:0:0:0:
64,192,24346,1,0,0:0:0:0:
192,192,24423,1,0,0:0:0:0:
320,192,24499,1,0,0:0:0:0:
448,192,24576,1,2,0:0:0:0:
64,192,24576,1,0,0:0:0:0:
320,192,24653,1,0,0:0:0:0:
192,192,24730,1,0,0:0:0:0:
64,192,24807,1,0,0:0:0:0:
320,192,24884,1,0,0:0:0:0:
448,192,24884,1,8,0:0:0:0:
192,192,24961,1,0,0:0:0:0:
64,192,25038,1,0,0:0:0:0:
320,192,25115,1,0,0:0:0:0:
448,192,25192,1,2,0:0:0:0:
192,192,25269,1,0,0:0:0:0:
320,192,25346,1,0,0:0:0:0:
448,192,25423,1,0,0:0:0:0:
64,192,25499,1,0,0:0:0:0:
192,192,25499,1,8,0:0:0:0:
320,192,25576,1,0,0:0:0:0:
448,192,25653,1,0,0:0:0:0:
192,192,25730,1,0,0:0:0:0:
64,192,25807,1,2,0:0:0:0:
320,192,25884,1,0,0:0:0:0:
192,192,25961,1,0,0:0:0:0:
64,192,26038,1,0,0:0:0:0:
320,192,26115,1,8,0:0:0:0:
448,192,26115,1,0,0:0:0:0:
192,192,26192,1,0,0:0:0:0:
64,192,26269,1,0,0:0:0:0:
320,192,26346,1,0,0:0:0:0:
448,192,26423,1,2,0:0:0:0:
192,192,26499,1,0,0:0:0:0:
320,192,26576,1,0,0:0:0:0:
448,192,26653,1,0,0:0:0:0:
192,192,26730,1,0,0:0:0:0:
64,192,26730,1,8,0:0:0:0:
448,192,26807,1,0,0:0:0:0:
320,192,26884,1,0,0:0:0:0:
192,192,26961,1,0,0:0:0:0:
64,192,27038,1,2,0:0:0:0:
448,192,27038,1,0,0:0:0:0:
192,192,27115,1,0,0:0:0:0:
320,192,27192,1,0,0:0:0:0:
448,192,27269,1,0,0:0:0:0:
64,192,27346,1,0,0:0:0:0:
192,192,27346,1,8,0:0:0:0:
448,192,27423,1,0,0:0:0:0:
320,192,27499,1,0,0:0:0:0:
192,192,27576,1,0,0:0:0:0:
448,192,27653,1,2,0:0:0:0:
320,192,27730,1,0,0:0:0:0:
64,192,27807,1,0,0:0:0:0:
192,192,27884,1,0,0:0:0:0:
448,192,27961,1,0,0:0:0:0:
320,192,27961,1,8,0:0:0:0:
64,192,28038,1,0,0:0:0:0:
192,192,28115,1,0,0:0:0:0:
320,192,28192,1,0,0:0:0:0:
64,192,28269,1,2,0:0:0:0:
192,192,28346,1,0,0:0:0:0:
448,192,28423,1,0,0:0:0:0:
320,192,28499,1,0,0:0:0:0:
192,192,28576,1,8,0:0:0:0:
64,192,28576,1,0,0:0:0:0:
448,192,28653,1,0,0:0:0:0:
320,192,28730,1,0,0:0:0:0:
192,192,28807,1,0,0:0:0:0:
448,192,28884,1,2,0:0:0:0:
320,192,28961,1,0,0:0:0:0:
64,192,29038,1,0,0:0:0:0:
192,192,29115,1,0,0:0:0:0:
320,192,29192,1,8,0:0:0:0:
448,192,29192,1,0,0:0:0:0:
64,192,29269,1,0,0:0:0:0:
192,192,29346,1,0,0:0:0:0:
320,192,29423,1,0,0:0:0:0:
64,192,29499,1,2,0:0:0:0:
448,192,29499,1,0,0:0:0:0:
320,192,29576,1,0,0:0:0:0:
192,192,29653,1,0,0:0:0:0:
64,192,29730,1,0,0:0:0:0:
320,192,29807,1,8,0:0:0:0:
448,192,29807,1,0,0:0:0:0:
192,192,29884,1,0,0:0:0:0:
64,192,29961,1,0,0:0:0:0:
320,192,30038,1,0,0:0:0:0:
448,192,30115,1,2,0:0:0:0:
192,192,30192,1,0,0:0:0:0:
320,192,30269,1,0,0:0:0:0:
448,192,30346,1,0,0:0:0:0:
192,192,30423,1,8,0:0:0:0:
64,192,30423,1,0,0:0:0:0:
320,192,30499,1,0,0:0:0:0:
448,192,30576,1,0,0:0:0:0:
192,192,30653,1,0,0:0:0:0:
64,192,30730,1,2,0:0:0:0:
320,192,30807,1,0,0:0:0:0:
192,192,30884,1,0,0:0:0:0:
448,192,30961,1,0,0:0:0:0:
192,192,31038,1,8,0:0:0:0:
320,192,31038,1,0,0:0:0:0:
64,192,31115,1,0,0:0:0:0:
448,192,31192,1,0,0:0:0:0:
320,192,31269,1,0,0:0:0:0:
192,192,31346,1,2,0:0:0:0:
64,192,31423,1,0,0:0:0:0:
448,192,31499,1,0,0:0:0:0:
320,192,31576,1,0,0:0:0:0:
64,192,31653,1,0,0:0:0:0:
192,192,31653,1,2,0:0:0:0:
448,192,31730,1,0,0:0:0:0:
320,192,31730,1,2,0:0:0:0:
192,192,31807,1,2,0:0:0:0:
64,192,31807,1,0,0:0:0:0:
320,192,31884,1,2,0:0:0:0:
448,192,31884,1,0,0:0:0:0:
64,192,31961,1,6,0:0:0:0:
192,192,31961,128,0,32115:0:0:0:0:
64,192,32115,128,0,32269:0:0:0:0:
192,192,32269,1,8,0:0:0:0:
320,192,32269,128,0,32423:0:0:0:0:
448,192,32423,128,0,32576:0:0:0:0:
320,192,32576,1,2,0:0:0:0:
192,192,32576,128,0,32730:0:0:0:0:
64,192,32730,128,0,32884:0:0:0:0:
448,192,32884,1,8,0:0:0:0:
320,192,32884,128,0,33038:0:0:0:0:
192,192,33038,128,0,33192:0:0:0:0:
64,192,33192,128,0,34115:0:0:0:0:
448,192,33192,1,2,0:0:0:0:
320,192,33346,1,0,0:0:0:0:
448,192,33499,1,0,0:0:0:0:
192,192,33499,1,8,0:0:0:0:
448,192,33653,1,0,0:0:0:0:
320,192,33807,1,2,0:0:0:0:
192,192,33807,1,0,0:0:0:0:
192,192,33961,1,0,0:0:0:0:
320,192,34115,1,0,0:0:0:0:
448,192,34115,1,8,0:0:0:0:
64,192,34423,1,0,0:0:0:0:
448,192,34423,1,2,0:0:0:0:
192,192,34499,1,0,0:0:0:0:
448,192,34576,1,0,0:0:0:0:
320,192,34576,1,0,0:0:0:0:
64,192,34730,128,0,34884:0:0:0:0:
192,192,34730,1,8,0:0:0:0:
320,192,34884,128,0,35038:0:0:0:0:
192,192,35038,128,0,35192:0:0:0:0:
64,192,35038,1,2,0:0:0:0:
448,192,35192,128,0,35346:0:0:0:0:
64,192,35346,1,8,0:0:0:0:
192,192,35346,128,0,35499:0:0:0:0:
320,192,35499,128,0,35653:0:0:0:0:
64,192,35653,1,2,0:0:0:0:
448,192,35653,128,0,36576:0:0:0:0:
64,192,35807,1,0,0:0:0:0:
192,192,35961,1,0,0:0:0:0:
320,192,35961,1,8,0:0:0:0:
320,192,36115,1,0,0:0:0:0:
192,192,36269,1,2,0:0:0:0:
64,192,36269,1,0,0:0:0:0:
64,192,36423,1,0,0:0:0:0:
320,192,36576,1,8,0:0:0:0:
192,192,36576,1,0,0:0:0:0:
64,192,36884,1,0,0:0:0:0:
448,192,36884,1,2,0:0:0:0:
320,192,36961,1,0,0:0:0:0:
192,192,37038,1,0,0:0:0:0:
64,192,37038,1,0,0:0:0:0:
320,192,37192,1,8,0:0:0:0:
448,192,37192,128,0,37346:0:0:0:0:
192,192,37346,128,0,37499:0:0:0:0:
320,192,37499,128,0,37653:0:0:0:0:
448,192,37499,1,2,0:0:0:0:
64,192,37653,128,0,37807:0:0:0:0:
448,192,37807,1,8,0:0:0:0:
320,192,37807,128,0,37961:0:0:0:0:
192,192,37961,128,0,38115:0:0:0:0:
64,192,38115,128,0,39038:0:0:0:0:
320,192,38115,1,2,0:0:0:0:
448,192,38269,1,0,0:0:0:0:
320,192,38423,1,8,0:0:0:0:
192,192,38423,1,0,0:0:0:0:
192,192,38576,1,0,0:0:0:0:
320,192,38730,1,2,0:0:0:0:
448,192,38730,1,0,0:0:0:0:
448,192,38884,1,0,0:0:0:0:
192,192,39038,1,0,0:0:0:0:
320,192,39038,1,8,0:0:0:0:
64,192,39346,1,2,0:0:0:0:
448,192,39346,1,0,0:0:0:0:
192,192,39423,1,0,0:0:0:0:
320,192,39499,1,0,0:0:0:0:
448,192,39499,1,0,0:0:0:0:
192,192,39653,1,8,0:0:0:0:
64,192,39653,128,0,39807:0:0:0:0:
192,192,39807,128,0,39961:0:0:0:0:
448,192,39961,1,2,0:0:0:0:
320,192,39961,128,0,40115:0:0:0:0:
448,192,40115,128,0,40269:0:0:0:0:
64,192,40269,1,8,0:0:0:0:
192,192,40269,128,0,40423:0:0:0:0:
320,192,40423,128,0,40576:0:0:0:0:
448,192,40576,128,0,41499:0:0:0:0:
192,192,40576,1,2,0:0:0:0:
320,192,40730,1,0,0:0:0:0:
64,192,40884,1,8,0:0:0:0:
192,192,40884,1,0,0:0:0:0:
64,192,41038,1,0,0:0:0:0:
192,192,41192,1,2,0:0:0:0:
320,192,41192,1,0,0:0:0:0:
320,192,41346,1,0,0:0:0:0:
192,192,41499,1,2,0:0:0:0:
64,192,41499,1,0,0:0:0:0:
320,192,41576,1,2,0:0:0:0:
448,192,41576,1,0,0:0:0:0:
192,192,41653,1,2,0:0:0:0:
64,192,41653,1,0,0:0:0:0:
320,192,41730,1,2,0:0:0:0:
448,192,41730,1,0,0:0:0:0:
192,192,41807,1,6,0:0:0:0:
64,192,41807,128,0,42730:0:0:0:0:
192,192,42115,1,0,0:0:0:0:
448,192,42115,1,8,0:0:0:0:
320,192,42423,1,2,0:0:0:0:
448,192,42730,128,0,42807:0:0:0:0:
320,192,42730,1,0,0:0:0:0:
192,192,42730,1,8,0:0:0:0:
320,193,42884,128,0,42961:0:0:0:0:
192,192,43038,128,0,43653:0:0:0:0:
448,192,43038,1,2,0:0:0:0:
64,192,43346,1,0,0:0:0:0:
448,192,43346,1,8,0:0:0:0:
448,192,43653,1,2,0:0:0:0:
320,192,43653,128,0,44269:0:0:0:0:
64,192,43961,1,8,0:0:0:0:
448,192,43961,1,0,0:0:0:0:
64,192,44269,1,2,0:0:0:0:
448,192,44269,128,0,44730:0:0:0:0:
64,192,44576,1,0,0:0:0:0:
320,192,44576,1,8,0:0:0:0:
192,199,44730,128,0,45115:0:0:0:0:
64,192,44884,1,2,0:0:0:0:
64,192,45192,1,0,0:0:0:0:
448,192,45192,1,8,0:0:0:0:
192,199,45269,128,0,46423:0:0:0:0:
320,192,45499,1,2,0:0:0:0:
448,192,45807,1,8,0:0:0:0:
64,192,45807,1,0,0:0:0:0:
320,192,46115,1,2,0:0:0:0:
448,192,46423,128,0,46499:0:0:0:0:
320,192,46423,1,8,0:0:0:0:
64,192,46423,1,0,0:0:0:0:
320,192,46576,128,0,46653:0:0:0:0:
192,192,46730,128,0,47653:0:0:0:0:
448,192,46730,1,2,0:0:0:0:
448,192,47038,1,8,0:0:0:0:
64,192,47038,1,0,0:0:0:0:
320,192,47346,1,2,0:0:0:0:
448,192,47653,128,0,47730:0:0:0:0:
320,192,47653,1,8,0:0:0:0:
320,192,47807,128,0,47884:0:0:0:0:
64,192,47961,128,0,48576:0:0:0:0:
192,192,47961,1,2,0:0:0:0:
448,192,48269,1,0,0:0:0:0:
320,192,48269,1,8,0:0:0:0:
320,192,48576,128,0,49192:0:0:0:0:
192,192,48576,1,2,0:0:0:0:
192,192,48884,1,8,0:0:0:0:
64,192,48884,1,0,0:0:0:0:
192,192,49192,128,0,50423:0:0:0:0:
64,192,49192,1,2,0:0:0:0:
64,192,49499,1,0,0:0:0:0:
448,192,49499,1,8,0:0:0:0:
320,192,49807,1,2,0:0:0:0:
448,192,50115,1,8,0:0:0:0:
320,192,50115,1,0,0:0:0:0:
64,192,50423,128,0,51653:0:0:0:0:
448,192,50423,1,2,0:0:0:0:
448,192,50730,1,0,0:0:0:0:
192,192,50730,1,8,0:0:0:0:
320,192,51038,1,2,0:0:0:0:
192,192,51038,1,0,0:0:0:0:
448,192,51346,1,2,0:0:0:0:
192,192,51346,1,0,0:0:0:0:
320,192,51423,1,2,0:0:0:0:
448,192,51499,1,2,0:0:0:0:
320,192,51576,1,2,0:0:0:0:
192,192,51653,1,6,0:0:0:0:
448,192,51653,128,0,52576:0:0:0:0:
320,192,51961,1,8,0:0:0:0:
64,192,51961,1,0,0:0:0:0:
192,192,52269,1,2,0:0:0:0:
64,192,52576,1,8,0:0:0:0:
320,192,52576,128,0,52653:0:0:0:0:
192,192,52730,128,0,52807:0:0:0:0:
64,194,52884,128,0,53384:0:0:0:0:
320,192,52884,1,2,0:0:0:0:
192,192,53192,1,0,0:0:0:0:
448,192,53192,1,8,0:0:0:0:
192,192,53384,128,0,53807:0:0:0:0:
320,192,53499,1,2,0:0:0:0:
320,192,53807,128,0,54115:0:0:0:0:
64,192,53807,1,0,0:0:0:0:
448,192,53807,1,8,0:0:0:0:
64,192,54115,128,0,54423:0:0:0:0:
192,192,54115,1,2,0:0:0:0:
192,192,54423,128,0,54576:0:0:0:0:
448,192,54423,1,0,0:0:0:0:
320,192,54423,1,8,0:0:0:0:
320,192,54576,128,0,55346:0:0:0:0:
64,192,54730,1,2,0:0:0:0:
192,192,55038,1,8,0:0:0:0:
64,192,55038,1,0,0:0:0:0:
192,192,55346,128,0,55653:0:0:0:0:
64,192,55346,1,2,0:0:0:0:
64,192,55653,128,0,55961:0:0:0:0:
320,192,55653,1,0,0:0:0:0:
448,192,55653,1,8,0:0:0:0:
320,192,55961,128,0,56269:0:0:0:0:
192,192,55961,1,2,0:0:0:0:
192,192,56269,128,0,56576:0:0:0:0:
64,192,56269,1,8,0:0:0:0:
448,192,56269,1,0,0:0:0:0:
448,192,56576,128,0,56884:0:0:0:0:
320,192,56576,1,2,0:0:0:0:
320,192,56884,128,0,57499:0:0:0:0:
64,192,56884,1,8,0:0:0:0:
192,192,56884,1,0,0:0:0:0:
192,192,57192,1,2,0:0:0:0:
64,192,57499,128,0,57807:0:0:0:0:
448,192,57499,1,8,0:0:0:0:
192,192,57499,1,0,0:0:0:0:
192,192,57807,128,0,58115:0:0:0:0:
448,192,57807,1,2,0:0:0:0:
448,192,58115,128,0,58423:0:0:0:0:
320,192,58115,1,8,0:0:0:0:
64,192,58115,1,0,0:0:0:0:
320,192,58423,128,0,58730:0:0:0:0:
192,192,58423,1,2,0:0:0:0:
192,192,58730,128,0,59038:0:0:0:0:
64,192,58730,1,0,0:0:0:0:
448,192,58730,1,8,0:0:0:0:
448,192,59038,1,2,0:0:0:0:
64,192,59038,1,0,0:0:0:0:
448,192,59192,1,2,0:0:0:0:
192,192,59192,1,0,0:0:0:0:
64,192,59346,1,2,0:0:0:0:
320,192,59346,1,0,0:0:0:0:
64,192,59499,1,2,0:0:0:0:
448,192,59499,1,0,0:0:0:0:
192,192,59653,1,0,0:0:0:0:
448,192,59653,1,2,0:0:0:0:
320,192,59807,1,2,0:0:0:0:
64,192,59807,1,0,0:0:0:0:
64,192,59961,1,0,0:0:0:0:
448,192,59961,1,2,0:0:0:0:
192,192,60115,1,0,0:0:0:0:
448,192,60115,1,2,0:0:0:0:
320,192,60269,1,2,0:0:0:0:
64,192,60269,1,0,0:0:0:0:
448,192,60346,1,2,0:0:0:0:
192,192,60423,1,2,0:0:0:0:
448,192,60499,1,2,0:0:0:0:
192,192,60576,1,2,0:0:0:0:
64,192,60576,1,0,0:0:0:0:
448,192,60653,1,2,0:0:0:0:
192,192,60730,1,2,0:0:0:0:
448,192,60807,1,2,0:0:0:0:
64,192,60884,1,0,0:0:0:0:
192,192,60884,1,2,0:0:0:0:
448,192,60961,1,2,0:0:0:0:
192,192,61038,1,2,0:0:0:0:
448,192,61115,1,2,0:0:0:0:
192,192,61192,1,2,0:0:0:0:
64,192,61192,1,0,0:0:0:0:
448,192,61269,1,2,0:0:0:0:
192,192,61346,1,2,0:0:0:0:
448,192,61423,1,2,0:0:0:0:
64,192,61499,1,0,0:0:0:0:
192,192,61499,1,2,2:0:0:0:
320,192,61499,1,4,0:0:0:0:
192,192,61961,1,0,0:0:0:0:
448,192,61961,1,0,0:0:0:0:
64,192,62423,128,0,66423:0:0:0:0:
448,192,62423,1,0,0:0:0:0:
320,192,62730,1,0,0:0:0:0:
320,192,63038,1,0,0:0:0:0:
320,192,63192,1,0,0:0:0:0:
448,192,63653,1,0,0:0:0:0:
448,192,63807,1,0,0:0:0:0:
192,192,64115,1,0,0:0:0:0:
192,192,64269,1,0,0:0:0:0:
448,192,64576,1,0,0:0:0:0:
448,192,64730,1,0,0:0:0:0:
192,192,66423,1,0,0:0:0:0:
448,192,66423,1,0,0:0:0:0:
192,192,66884,1,0,0:0:0:0:
448,192,66884,1,0,0:0:0:0:
64,192,67346,1,0,0:0:0:0:
448,192,67346,128,0,71346:0:0:0:0:
64,192,67653,1,0,0:0:0:0:
64,192,67961,1,0,0:0:0:0:
64,192,68115,1,0,0:0:0:0:
192,192,68423,1,0,0:0:0:0:
192,192,68576,1,0,0:0:0:0:
320,192,68884,1,0,0:0:0:0:
320,192,69038,1,0,0:0:0:0:
64,192,69346,1,0,0:0:0:0:
192,192,69807,1,0,0:0:0:0:
192,192,69961,1,0,0:0:0:0:
64,192,71346,1,0,0:0:0:0:
320,192,71346,1,0,0:0:0:0:
64,192,71807,1,0,0:0:0:0:
320,192,71807,1,0,0:0:0:0:
64,192,72269,128,0,76269:0:0:0:0:
448,192,72269,1,0,0:0:0:0:
320,192,72576,1,0,0:0:0:0:
320,192,72884,1,0,0:0:0:0:
320,192,73038,1,0,0:0:0:0:
320,192,73499,1,0,0:0:0:0:
320,192,73653,1,0,0:0:0:0:
192,192,73961,1,0,0:0:0:0:
192,192,74115,1,0,0:0:0:0:
448,192,74423,1,0,0:0:0:0:
448,192,74576,1,0,0:0:0:0:
192,192,76269,1,0,0:0:0:0:
448,192,76269,1,0,0:0:0:0:
192,192,76730,1,0,0:0:0:0:
448,192,76730,1,0,0:0:0:0:
448,192,77192,128,0,81192:0:0:0:0:
64,192,77192,1,0,0:0:0:0:
64,192,77499,1,0,0:0:0:0:
192,192,77807,1,0,0:0:0:0:
192,192,77961,1,0,0:0:0:0:
192,192,78269,1,0,0:0:0:0:
192,192,78423,1,0,0:0:0:0:
192,192,78730,1,0,0:0:0:0:
192,192,78884,1,0,0:0:0:0:
320,192,79192,1,0,0:0:0:0:
192,192,79653,1,0,0:0:0:0:
192,192,79807,1,0,0:0:0:0:
320,192,81192,1,0,0:0:0:0:
192,192,81192,1,0,0:0:0:0:
64,192,81346,1,0,0:0:0:0:
448,192,81499,1,0,0:0:0:0:
320,192,81653,1,0,0:0:0:0:
192,192,81807,1,0,0:0:0:0:
448,192,81961,1,0,0:0:0:0:
320,192,82115,1,0,0:0:0:0:
192,192,82269,1,0,0:0:0:0:
448,192,82423,1,0,0:0:0:0:
64,192,82423,1,0,0:0:0:0:
192,192,82576,1,0,0:0:0:0:
448,192,82730,1,0,0:0:0:0:
320,192,82884,1,0,0:0:0:0:
64,192,83038,1,0,0:0:0:0:
192,192,83192,1,0,0:0:0:0:
320,192,83346,1,0,0:0:0:0:
448,192,83499,1,0,0:0:0:0:
320,192,83653,1,0,0:0:0:0:
64,192,83653,1,0,0:0:0:0:
192,192,83807,1,0,0:0:0:0:
64,192,83961,1,0,0:0:0:0:
448,192,84115,1,0,0:0:0:0:
320,192,84269,1,0,0:0:0:0:
192,192,84423,1,0,0:0:0:0:
448,192,84576,1,0,0:0:0:0:
320,192,84730,1,0,0:0:0:0:
192,192,84884,1,0,0:0:0:0:
64,192,84884,1,0,0:0:0:0:
320,192,85038,1,0,0:0:0:0:
448,192,85192,1,0,0:0:0:0:
192,192,85346,1,0,0:0:0:0:
64,192,85499,1,0,0:0:0:0:
448,192,85499,1,0,0:0:0:0:
192,192,85653,1,0,0:0:0:0:
320,192,85807,1,0,0:0:0:0:
192,192,85961,1,0,0:0:0:0:
64,192,86115,1,0,0:0:0:0:
448,192,86115,1,0,0:0:0:0:
192,192,86269,1,0,0:0:0:0:
320,192,86423,1,0,0:0:0:0:
448,192,86576,1,0,0:0:0:0:
64,192,86730,1,0,0:0:0:0:
448,192,86884,1,0,0:0:0:0:
320,192,87038,1,0,0:0:0:0:
192,192,87192,1,0,0:0:0:0:
64,192,87346,1,0,0:0:0:0:
448,192,87346,1,0,0:0:0:0:
192,192,87499,1,0,0:0:0:0:
320,192,87653,1,0,0:0:0:0:
448,192,87807,1,0,0:0:0:0:
192,192,88115,1,0,0:0:0:0:
320,192,88269,1,0,0:0:0:0:
448,192,88346,1,0,0:0:0:0:
64,192,88423,1,0,0:0:0:0:
192,192,88499,1,0,0:0:0:0:
320,192,88576,1,0,0:0:0:0:
448,192,88576,1,0,0:0:0:0:
192,192,88807,1,0,0:0:0:0:
320,192,89038,1,0,0:0:0:0:
448,192,89807,1,0,0:0:0:0:
64,192,89807,1,0,0:0:0:0:
64,192,90038,1,0,0:0:0:0:
192,192,90269,1,0,0:0:0:0:
320,192,90423,1,0,0:0:0:0:
448,192,90423,1,0,0:0:0:0:
64,192,90499,1,0,0:0:0:0:
320,192,90730,1,0,0:0:0:0:
192,192,90884,1,0,0:0:0:0:
64,192,91038,1,0,0:0:0:0:
448,192,91038,1,0,0:0:0:0:
320,192,91038,1,6,0:0:0:0:
192,192,91192,1,0,0:0:0:0:
320,192,91346,1,8,0:0:0:0:
448,192,91499,1,0,0:0:0:0:
64,192,91499,1,6,0:0:0:0:
192,192,91499,1,0,0:0:0:0:
320,192,91653,1,0,0:0:0:0:
192,192,91807,1,0,0:0:0:0:
64,192,91961,1,8,0:0:0:0:
448,192,91961,1,0,0:0:0:0:
192,192,92115,1,0,0:0:0:0:
320,192,92269,128,0,92423:0:0:0:0:
448,192,92423,128,0,92576:0:0:0:0:
192,192,92576,128,8,92730:0:0:0:0:
64,192,92730,128,0,92884:0:0:0:0:
448,192,92884,128,0,93038:0:0:0:0:
320,192,93038,128,0,93192:0:0:0:0:
192,192,93192,128,8,93346:0:0:0:0:
64,192,93346,128,0,93499:0:0:0:0:
320,192,93499,1,6,0:0:0:0:
448,192,93499,1,0,0:0:0:0:
192,192,93499,1,0,0:0:0:0:
64,192,93653,1,0,0:0:0:0:
192,192,93807,1,8,0:0:0:0:
64,192,93961,1,0,0:0:0:0:
320,192,93961,1,6,0:0:0:0:
448,192,93961,1,0,0:0:0:0:
192,192,94115,1,0,0:0:0:0:
320,192,94269,1,0,0:0:0:0:
64,192,94423,1,0,0:0:0:0:
192,192,94423,1,6,0:0:0:0:
448,192,94423,1,0,0:0:0:0:
320,192,94576,1,0,0:0:0:0:
192,192,94730,1,0,0:0:0:0:
320,192,94884,1,6,0:0:0:0:
448,192,94884,1,0,0:0:0:0:
64,192,94884,1,0,0:0:0:0:
192,192,95038,1,8,0:0:0:0:
320,192,95192,1,0,0:0:0:0:
64,192,95346,1,0,0:0:0:0:
448,192,95346,1,0,0:0:0:0:
192,192,95346,1,6,0:0:0:0:
320,192,95499,1,0,0:0:0:0:
192,192,95653,1,2,0:0:0:0:
64,192,95653,1,0,0:0:0:0:
320,192,95730,1,2,0:0:0:0:
448,192,95730,1,0,0:0:0:0:
192,192,95807,1,2,0:0:0:0:
64,192,95807,1,0,0:0:0:0:
320,192,95884,1,2,0:0:0:0:
448,192,95884,1,0,0:0:0:0:
192,192,95961,1,6,0:0:0:0:
64,192,95961,1,0,0:0:0:0:
320,192,95961,1,0,0:0:0:0:
448,192,96115,1,0,0:0:0:0:
320,192,96269,1,8,0:0:0:0:
192,192,96423,1,6,0:0:0:0:
64,192,96423,1,0,0:0:0:0:
448,192,96423,1,0,0:0:0:0:
320,192,96576,1,0,0:0:0:0:
192,192,96730,1,0,0:0:0:0:
64,192,96884,1,8,0:0:0:0:
192,192,97038,1,0,0:0:0:0:
320,192,97192,128,0,97346:0:0:0:0:
64,192,97346,128,0,97499:0:0:0:0:
448,192,97499,128,8,97653:0:0:0:0:
192,192,97653,128,0,97807:0:0:0:0:
448,192,97961,1,0,0:0:0:0:
192,192,98115,1,8,0:0:0:0:
64,192,98192,1,0,0:0:0:0:
448,192,98269,1,0,0:0:0:0:
320,192,98346,1,0,0:0:0:0:
64,192,98423,1,6,0:0:0:0:
448,192,98423,1,0,0:0:0:0:
192,192,98423,128,0,98653:0:0:0:0:
448,192,98653,128,0,98884:0:0:0:0:
192,192,98884,1,6,0:0:0:0:
320,192,98884,1,0,0:0:0:0:
64,192,98884,128,0,99653:0:0:0:0:
448,192,99346,1,0,0:0:0:0:
192,192,99346,1,0,0:0:0:0:
320,192,99346,1,6,0:0:0:0:
448,192,99653,1,0,0:0:0:0:
320,192,99653,1,2,0:0:0:0:
192,192,99884,1,2,0:0:0:0:
448,192,99884,1,0,0:0:0:0:
320,192,100115,1,0,0:0:0:0:
64,192,100115,1,2,0:0:0:0:
192,192,100346,1,2,0:0:0:0:
448,192,100346,1,0,0:0:0:0:
448,192,100576,1,0,0:0:0:0:
320,192,100576,1,2,0:0:0:0:
64,192,100730,1,0,0:0:0:0:
448,192,100730,1,0,0:0:0:0:
192,192,100730,1,6,0:0:0:0:
320,192,101653,1,2,2:0:0:0:
192,192,101730,1,2,2:0:0:0:
320,192,101807,1,8,0:0:0:0:
448,192,101807,1,0,0:0:0:0:
192,192,102115,1,0,0:0:0:0:
320,192,102115,1,6,0:0:0:0:
448,192,102115,128,0,102423:0:0:0:0:
64,192,102115,1,0,0:0:0:0:
64,192,102423,1,0,0:0:0:0:
192,192,102423,1,2,0:0:0:0:
320,192,102576,1,2,0:0:0:0:
64,192,102576,128,0,102730:0:0:0:0:
448,192,102576,1,0,0:0:0:0:
192,192,102884,1,2,0:0:0:0:
448,192,102884,1,0,0:0:0:0:
64,192,102884,1,0,0:0:0:0:
320,192,103192,1,2,0:0:0:0:
64,192,103192,128,0,103807:0:0:0:0:
448,192,103192,128,0,104115:0:0:0:0:
192,192,103807,1,2,0:0:0:0:
320,192,103807,128,0,104115:0:0:0:0:
64,192,104115,1,2,0:0:0:0:
192,192,104115,1,0,0:0:0:0:
192,192,104269,1,2,0:0:0:0:
320,192,104269,1,0,0:0:0:0:
448,192,104269,1,0,0:0:0:0:
64,192,104423,1,2,0:0:0:0:
448,192,104423,1,0,0:0:0:0:
192,192,104423,1,0,0:0:0:0:
192,192,104576,128,0,104730:0:0:0:0:
448,192,104576,128,0,104730:0:0:0:0:
64,192,104576,1,2,0:0:0:0:
192,192,104884,1,2,0:0:0:0:
448,192,104884,1,0,0:0:0:0:
192,192,105038,128,2,105192:0:0:0:0:
448,192,105038,128,0,105192:0:0:0:0:
448,192,105346,128,0,105499:0:0:0:0:
64,192,105346,128,2,105499:0:0:0:0:
64,192,105653,128,2,105807:0:0:0:0:
320,192,105653,128,0,105807:0:0:0:0:
192,192,105961,128,2,106115:0:0:0:0:
448,192,105961,128,0,106115:0:0:0:0:
320,192,106269,128,2,106423:0:0:0:0:
448,192,106269,128,0,106423:0:0:0:0:
64,192,106576,128,2,106730:0:0:0:0:
448,192,106576,128,0,106730:0:0:0:0:
64,192,106884,1,2,0:0:0:0:
320,192,106884,1,0,0:0:0:0:
448,192,107038,1,0,0:0:0:0:
192,192,107038,1,2,0:0:0:0:
320,192,107192,1,0,0:0:0:0:
448,192,107346,1,0,0:0:0:0:
64,192,107346,1,8,0:0:0:0:
320,192,107499,1,0,0:0:0:0:
192,192,107653,1,0,0:0:0:0:
64,192,107653,1,2,0:0:0:0:
320,192,107807,1,0,0:0:0:0:
192,192,107961,1,8,0:0:0:0:
448,192,107961,1,0,0:0:0:0:
320,192,108115,1,0,0:0:0:0:
448,192,108269,1,0,0:0:0:0:
64,192,108269,1,2,0:0:0:0:
192,192,108423,1,0,0:0:0:0:
320,192,108576,1,8,0:0:0:0:
448,192,108576,1,0,0:0:0:0:
448,192,108730,1,0,0:0:0:0:
320,192,108807,1,0,0:0:0:0:
192,192,108884,1,0,0:0:0:0:
64,192,108884,1,2,0:0:0:0:
320,192,109038,1,0,0:0:0:0:
64,192,109192,1,8,0:0:0:0:
448,192,109192,1,0,0:0:0:0:
192,192,109346,1,0,0:0:0:0:
320,192,109499,1,0,0:0:0:0:
448,192,109499,1,0,0:0:0:0:
64,192,109499,1,2,0:0:0:0:
192,192,109653,1,2,0:0:0:0:
448,192,109653,1,0,0:0:0:0:
320,192,109807,1,0,0:0:0:0:
64,192,109807,1,2,0:0:0:0:
192,192,109961,1,0,0:0:0:0:
64,192,109961,1,2,0:0:0:0:
448,192,110115,1,0,0:0:0:0:
320,192,110115,1,2,0:0:0:0:
320,192,110269,1,2,0:0:0:0:
64,192,110269,1,0,0:0:0:0:
192,192,110423,1,2,0:0:0:0:
448,192,110423,1,0,0:0:0:0:
320,192,110576,1,2,0:0:0:0:
448,192,110576,1,0,0:0:0:0:
192,192,110730,1,6,0:0:0:0:
64,192,110730,1,0,0:0:0:0:
448,192,110730,1,0,0:0:0:0:
192,192,110884,1,2,0:0:0:0:
448,192,110884,1,0,0:0:0:0:
192,192,111038,1,2,0:0:0:0:
320,192,111038,1,0,0:0:0:0:
64,192,111192,1,0,0:0:0:0:
320,192,111192,1,2,0:0:0:0:
448,192,111346,1,0,0:0:0:0:
192,192,111346,1,6,0:0:0:0:
64,192,111346,1,0,0:0:0:0:
64,192,111499,1,2,0:0:0:0:
448,192,111499,1,0,0:0:0:0:
320,192,111653,1,6,0:0:0:0:
64,192,111653,1,0,0:0:0:0:
448,192,111653,1,0,0:0:0:0:
192,192,111730,1,2,0:0:0:0:
64,192,111730,1,0,0:0:0:0:
320,192,111807,1,2,0:0:0:0:
448,192,111807,1,0,0:0:0:0:
192,192,111884,1,2,0:0:0:0:
64,192,111884,1,0,0:0:0:0:
320,192,111961,1,6,0:0:0:0:
448,192,111961,1,0,0:0:0:0:
192,192,111961,1,0,0:0:0:0:
448,192,112269,1,0,0:0:0:0:
320,192,112269,1,2,0:0:0:0:
192,192,112269,1,0,0:0:0:0:
448,192,112423,1,0,0:0:0:0:
192,192,112423,1,0,0:0:0:0:
320,192,112423,1,2,0:0:0:0:
64,192,112730,1,0,0:0:0:0:
192,192,112730,1,2,0:0:0:0:
448,192,112730,1,0,0:0:0:0:
192,192,113038,1,2,0:0:0:0:
448,192,113038,128,0,113653:0:0:0:0:
64,192,113038,128,0,113961:0:0:0:0:
192,192,113653,128,0,113961:0:0:0:0:
320,192,113653,1,6,0:0:0:0:
320,192,113961,1,2,0:0:0:0:
448,192,113961,1,0,0:0:0:0:
448,192,114115,1,0,0:0:0:0:
320,192,114115,1,2,0:0:0:0:
64,192,114269,1,0,0:0:0:0:
320,192,114269,1,2,0:0:0:0:
448,192,114423,1,0,0:0:0:0:
64,192,114423,1,0,0:0:0:0:
192,192,114423,1,6,0:0:0:0:
64,192,114730,1,0,0:0:0:0:
320,192,114730,1,2,0:0:0:0:
448,192,114730,1,0,0:0:0:0:
64,192,114884,1,0,0:0:0:0:
320,192,114884,1,2,0:0:0:0:
448,192,114884,1,0,0:0:0:0:
192,192,115192,1,2,0:0:0:0:
64,192,115192,1,0,0:0:0:0:
448,192,115192,1,0,0:0:0:0:
64,192,115499,1,0,0:0:0:0:
192,192,115499,1,2,0:0:0:0:
320,192,115499,1,0,0:0:0:0:
64,192,115807,1,0,0:0:0:0:
448,192,115807,1,0,0:0:0:0:
192,192,115807,1,2,0:0:0:0:
192,192,116115,1,2,0:0:0:0:
64,192,116115,1,0,0:0:0:0:
320,192,116115,1,0,0:0:0:0:
320,192,116423,1,0,0:0:0:0:
192,192,116423,1,2,0:0:0:0:
448,192,116423,1,0,0:0:0:0:
192,192,116730,1,2,0:0:0:0:
448,192,116730,1,0,0:0:0:0:
320,192,116730,1,0,0:0:0:0:
64,192,116884,1,0,0:0:0:0:
448,192,116884,1,0,0:0:0:0:
192,192,116884,1,6,0:0:0:0:
320,192,117038,1,0,0:0:0:0:
448,192,117192,1,0,0:0:0:0:
64,192,117192,1,8,0:0:0:0:
192,192,117346,1,0,0:0:0:0:
320,192,117499,1,2,0:0:0:0:
448,192,117499,1,0,0:0:0:0:
64,192,117653,1,0,0:0:0:0:
192,192,117807,1,8,0:0:0:0:
448,192,117807,1,0,0:0:0:0:
320,192,117961,1,0,0:0:0:0:
64,192,118115,1,2,0:0:0:0:
448,192,118115,1,0,0:0:0:0:
320,192,118269,1,0,0:0:0:0:
192,192,118423,1,8,0:0:0:0:
64,192,118423,1,0,0:0:0:0:
448,192,118576,1,0,0:0:0:0:
320,192,118653,1,0,0:0:0:0:
192,192,118730,1,2,0:0:0:0:
64,192,118730,128,0,118884:0:0:0:0:
192,192,118884,128,0,119038:0:0:0:0:
320,192,119038,1,8,0:0:0:0:
448,192,119038,128,0,119192:0:0:0:0:
320,192,119192,128,0,119346:0:0:0:0:
64,192,119346,128,0,119499:0:0:0:0:
192,192,119346,1,2,0:0:0:0:
448,192,119346,1,0,0:0:0:0:
192,192,119499,1,2,0:0:0:0:
448,192,119499,128,0,119653:0:0:0:0:
64,192,119653,1,2,0:0:0:0:
320,192,119653,128,0,119807:0:0:0:0:
448,192,119807,1,2,0:0:0:0:
64,192,119807,128,0,119961:0:0:0:0:
192,192,119961,128,0,120115:0:0:0:0:
320,192,119961,1,2,0:0:0:0:
320,192,120115,128,0,120269:0:0:0:0:
448,192,120115,1,2,0:0:0:0:
448,192,120269,128,0,120423:0:0:0:0:
64,192,120269,1,2,0:0:0:0:
64,192,120423,128,0,120576:0:0:0:0:
320,192,120423,1,2,0:0:0:0:
320,192,120576,1,0,0:0:0:0:
448,192,120576,1,0,0:0:0:0:
192,192,120576,1,6,0:0:0:0:
64,192,120653,1,2,0:0:0:0:
192,192,120730,1,2,0:0:0:0:
64,192,120807,1,2,0:0:0:0:
192,192,120884,1,12,0:0:0:0:
448,192,120884,1,0,0:0:0:0:
320,192,120884,1,0,0:0:0:0:
64,192,120961,1,2,0:0:0:0:
192,192,121038,1,2,0:0:0:0:
64,192,121115,1,2,0:0:0:0:
448,192,121192,1,0,0:0:0:0:
192,192,121192,1,6,0:0:0:0:
320,192,121192,1,0,0:0:0:0:
64,192,121269,1,2,0:0:0:0:
192,192,121346,1,2,0:0:0:0:
64,192,121423,1,2,0:0:0:0:
448,192,121499,1,0,0:0:0:0:
320,192,121499,1,0,0:0:0:0:
192,192,121499,1,6,0:0:0:0:
192,192,121576,1,0,0:0:0:0:
64,192,121576,1,2,0:0:0:0:
320,192,121653,1,2,0:0:0:0:
448,192,121653,1,0,0:0:0:0:
64,192,121730,1,2,0:0:0:0:
192,192,121730,1,0,0:0:0:0:
448,192,121807,1,0,0:0:0:0:
320,192,121807,1,6,0:0:0:0:
64,192,121807,1,0,0:0:0:0:
