osu file format v7

[General]
AudioFilename: MOONLIGHT SHADOW (New Vocal Version).mp3
AudioLeadIn: 1985
PreviewTime: 72428
Countdown: 0
SampleSet: Soft
StackLeniency: 0.4
Mode: 0
LetterboxInBreaks: 0

[Editor]
DistanceSpacing: 1
BeatDivisor: 2
GridSize: 8

[Metadata]
Title:MOONLIGHT SHADOW (New Vocal Version)
Artist:MISSING HEART
Creator:simplistiC
Version:Light
Source:Dance Dance Revolution 5th Mix
Tags:ddr konami

[Difficulty]
HPDrainRate:4
CircleSize:3
OverallDifficulty:4
SliderMultiplier:1.2
SliderTickRate:2

[Events]
//Background and Video events
0,0,"MOONLIGHT SHADOW (New Vocal Version)-bg.png"
//Break Periods
2,52036,56944
//Storyboard Layer 0 (Background)
//Storyboard Layer 1 (Fail)
//Storyboard Layer 2 (Pass)
//Storyboard Layer 3 (Foreground)
//Storyboard Sound Samples
//Background Colour Transformations
3,100,163,162,255

[TimingPoints]
-21,428.571428571429,4,2,1,100,1,0
7050,-100,4,2,1,20,0,0
7693,-100,4,2,1,30,0,0
8121,-100,4,2,1,40,0,0
8550,-100,4,2,1,50,0,0
8979,-100,4,2,1,60,0,0
9407,-100,4,2,1,70,0,0
9836,-100,4,2,1,80,0,0
10157,-100,4,1,1,80,0,0
38121,-100,4,1,1,79,0,1
51407,-100,4,1,1,80,0,0
72407,-100,4,1,1,79,0,1
84193,-100,4,1,1,80,0,0
84621,-100,4,2,1,100,0,0
85264,-100,4,2,1,80,0,0
85586,-100,4,2,1,40,0,0
86014,-100,4,2,1,60,0,0
86443,-100,4,2,1,40,0,0
86871,-100,4,2,1,30,0,0
87300,-100,4,2,1,20,0,0
87729,-100,4,2,1,10,0,0
88264,-100,4,2,1,0,0,0

[HitObjects]
272,312,1050,2,0,L|336:312|384:280,2,120
208,312,2121,2,0,L|128:312|48:224,1,180
432,64,3836,6,0,L|368:64|320:112,1,120
288,152,4479,1,0
112,152,5121,2,0,L|48:152|0:104,1,120
40,312,6407,5,0
96,312,6621,2,0,B|168:312,2,60
256,192,7264,12,4,10264
136,280,10693,5,8
256,280,11121,1,0
376,280,11550,2,0,B|400:224|376:160,1,120,8|0
296,80,12407,2,0,B|240:104|176:80,3,120,8|0|8|4
256,224,14121,6,0,B|256:304|344:304,2,120,0|8|0
120,224,15407,2,0,B|96:168|120:104,1,120,8|0
232,48,16264,2,0,B|256:104|232:168,2,120,8|0|8
120,112,17550,6,0,B|88:168|128:168|120:232,1,120,0|8
256,232,18407,2,0,B|208:280|248:344,2,120,0|8|0
376,296,19693,1,8
376,296,19907,2,0,B|376:144,1,120
256,344,20978,6,0,B|168:344,1,60,8|0
136,344,21407,2,0,B|72:344,1,60,8|0
112,168,22264,6,0,B|136:112|112:48,1,120,8|0
216,120,23121,2,0,B|192:64|216:0,2,120,8|0|8
320,72,24407,6,0,L|384:80|408:136,1,120,0|8
304,192,25264,2,0,L|256:232|208:192,1,120,0|8
106,131,26121,2,0,L|128:80|192:72,2,120
296,232,27836,6,0,L|368:288|464:208,1,180,8|0
384,208,28693,2,0,L|288:128,2,120,8|0|8
256,336,30193,1,4
256,152,30836,6,0,L|224:152|208:120,2,60,8|0|0
168,64,31693,2,0,B|104:32|48:64,1,120,8|0
80,176,32550,2,0,B|40:144|64:112,2,60,8|0|0
144,176,33193,2,0,B|144:224|112:248,2,60,0|8|0
256,312,34264,6,0,B|312:360|384:312,2,120,8|0|8
312,208,35550,2,0,B|256:160|168:224,2,120,0|8|0
256,312,36836,2,0,B|200:360|128:312,2,120,8|0|8
240,152,38121,6,0,B|152:152|152:56,1,120,8|0
272,88,38979,2,0,B|360:88|360:184,1,120,8|0
256,224,39836,2,0,B|256:336|384:336,2,180,8|0|8
144,192,41550,6,0,B|0:192,1,120,8|0
112,112,42407,1,8
112,112,42836,2,0,B|256:112,1,120,0|8
352,112,43693,2,0,B|352:192|272:192,2,120,0|8|0
272,232,44979,6,0,B|360:232|360:328,1,120,8|0
240,296,45836,2,0,B|152:296|152:200,1,120,8|0
256,160,46693,2,0,B|256:48|128:48,2,180,8|0|8
368,192,48407,6,0,B|512:192,1,120,0|8
400,272,49264,1,0
400,272,49693,2,0,B|256:272,1,120,8|0
160,272,50550,2,0,B|160:192|240:192,2,120,8|0|8
256,344,51836,5,4
256,32,58264,6,0,B|256:176,1,120,8|0
256,272,59121,2,0,B|360:272|360:176,1,120,8|0
368,96,59979,2,0,B|416:80|440:104,2,60,8|0|0
368,152,60621,2,0,B|328:184|296:152,2,60,0|8|0
192,192,61693,6,0,B|128:192|128:104,1,120,8|0
232,56,62550,2,0,B|304:56|304:176,2,120,8|0|8
256,192,63836,12,4,65550
200,232,65979,6,0,B|200:376,1,120,4|0
312,352,66836,2,0,B|312:208,1,120,4|0
200,152,67693,6,0,B|200:8,1,120,4|0
312,32,68550,2,0,B|312:176,1,120,4|0
256,264,69407,2,0,B|256:112,1,120,4|0
256,192,70264,12,4,71979
120,208,72407,6,0,B|176:248|248:200,1,120,8|0
256,88,73264,1,8
312,64,73479,1,0
360,104,73693,2,0,B|384:136|376:176,1,60
368,216,74121,2,0,B|288:280|160:208,1,180,8|0
144,56,75836,6,0,B|104:120|144:192,2,120,8|0|8
224,144,77121,1,0
328,88,77550,1,8
392,192,77979,2,0,B|328:256|256:248,1,120,0|8
400,304,78836,1,0
392,192,79264,6,0,B|336:232|264:184,1,120,8|0
256,88,80121,1,0
200,64,80336,1,0
152,104,80550,2,0,B|128:136|136:176,1,60,8|0
144,216,80979,2,0,B|224:280|352:208,1,180
368,56,82693,6,0,B|408:120|368:192,2,120,8|0|8
288,144,83979,1,0
184,88,84407,1,8
120,192,84836,2,0,B|184:256|256:248,1,120,0|8
256,192,85693,12,0,89121
