osu file format v14

[General]
AudioFilename: Necro Fantasia.mp3
AudioLeadIn: 0
PreviewTime: 44175
Countdown: 0
SampleSet: Soft
StackLeniency: 0.3
Mode: 0
LetterboxInBreaks: 1
WidescreenStoryboard: 0

[Editor]
DistanceSpacing: 1
BeatDivisor: 4
GridSize: 4
TimelineZoom: 2

[Metadata]
Title:Necro Fantasia
TitleUnicode:Necro Fantasia
Artist:MISATO
ArtistUnicode:美里
Creator:Aka
Version:Normal
Source:東方Project
Tags:Masayoshi Minoshima ネクロファンタジア Yukari Yakumo 東方妖々夢 Perfect Cherry Blossom Alstroemeria Records Haruka EXSERENSES Necrofantasia Touhou
BeatmapID:582409
BeatmapSetID:230367

[Difficulty]
HPDrainRate:4
CircleSize:3.3
OverallDifficulty:4
ApproachRate:5.5
SliderMultiplier:1.1
SliderTickRate:2

[Events]
//Background and Video events
0,0,"gbhnjkmlbuhnjkm.jpg",0,0
//Break Periods
2,67689,75717
//Storyboard Layer 0 (Background)
//Storyboard Layer 1 (Fail)
//Storyboard Layer 2 (Pass)
//Storyboard Layer 3 (Foreground)
//Storyboard Sound Samples

[TimingPoints]
23604,342.857142857143,4,2,0,80,1,0
23604,-100,4,2,0,50,0,0
34575,-100,4,2,0,70,0,0
116861,-100,4,2,0,75,0,1
116946,-100,4,2,0,75,0,0
119604,-100,4,2,0,80,0,1
119689,-100,4,2,0,80,0,0
122346,-100,4,2,0,80,0,1
122432,-100,4,2,0,80,0,0
133318,-100,4,2,0,80,0,1
133404,-100,4,2,0,80,0,0
144289,-100,4,2,0,85,0,1
144375,-100,4,2,0,80,0,0
166318,-100,4,2,0,60,0,0
167604,-100,4,2,0,55,0,0
168975,-100,4,2,0,50,0,0

[Colours]
Combo1 : 114,235,220
Combo2 : 228,139,126
Combo3 : 189,131,218
Combo4 : 172,220,101

[HitObjects]
18,156,23604,6,0,P|99:151|142:159,1,110,2|0,0:0|0:0,0:0:0:0:
175,141,24118,2,0,P|187:77|182:11,1,110,2|2,0:0|0:0,0:0:0:0:
260,283,26346,6,0,P|304:278|375:292,1,110,2|0,0:0|0:0,0:0:0:0:
412,313,26861,2,0,P|411:258|419:203,1,110,2|2,0:0|0:0,0:0:0:0:
316,74,27718,2,0,P|315:128|323:183,1,110,2|0,0:0|0:0,0:0:0:0:
295,223,28232,2,0,P|248:220|179:226,1,110,2|2,0:0|0:0,0:0:0:0:
57,329,29089,6,0,L|49:387,2,55,2|2|0,0:0|0:0|0:0,0:0:0:0:
87,289,29603,2,0,P|92:234|82:180,1,110,2|2,0:0|0:0,0:0:0:0:
159,60,31832,6,0,P|254:51|276:53,1,110,2|2,0:0|0:0,0:0:0:0:
303,87,32346,2,0,P|356:103|421:90,1,110,2|0,0:0|0:0,0:0:0:0:
461,251,33203,2,0,P|443:290|396:346,1,110,2|2,0:0|0:0,0:0:0:0:
351,340,33718,2,0,P|300:325|238:332,1,110,2|0,0:0|0:0,0:0:0:0:
81,299,34575,6,0,P|77:260|87:185,1,110,4|0,0:0|1:0,0:0:0:0:
140,94,35261,1,0,0:0:0:0:
235,147,35603,1,0,1:0:0:0:
327,87,35946,2,0,P|326:59|312:18,2,55,2|0|0,0:0|0:0|1:0,0:0:0:0:
366,119,36461,2,0,P|387:169|391:223,1,110,0|2,0:0|0:0,0:0:0:0:
372,269,36975,1,0,1:0:0:0:
265,241,37318,6,0,L|146:249,1,110,2|0,0:0|1:0,0:0:0:0:
61,190,38003,2,0,L|68:135,1,55,0|2,0:0|0:0,0:0:0:0:
57,87,38346,1,0,1:0:0:0:
154,35,38689,2,0,P|217:20|281:35,1,110,2|0,0:0|1:0,0:0:0:0:
353,87,39375,2,0,P|405:99|425:96,2,55,0|2|0,0:0|0:0|1:0,0:0:0:0:
297,182,40061,6,0,P|289:257|291:315,1,110,2|0,0:0|1:0,0:0:0:0:
188,335,40746,2,0,P|187:280|183:261,1,55,0|2,0:0|0:0,0:0:0:0:
173,233,41089,1,0,1:0:0:0:
65,210,41432,2,0,L|76:96,1,110,2|0,0:0|1:0,0:0:0:0:
118,125,41946,2,0,P|129:100|134:16,1,110,0|2,0:0|0:0,0:0:0:0:
183,26,42461,1,0,1:0:0:0:
272,89,42803,6,0,L|342:82,2,55,2|0|0,0:0|0:0|1:0,0:0:0:0:
239,124,43318,2,0,P|226:151|218:233,1,110,0|2,0:0|0:0,0:0:0:0:
236,276,43832,1,0,1:0:0:0:
341,244,44175,1,2,0:0:0:0:
344,250,44861,2,0,L|348:134,1,110
301,40,45546,6,0,P|253:67|190:64,1,110,4|0,0:1|1:0,0:0:0:0:
96,26,46232,1,0,0:0:0:0:
32,117,46575,2,0,L|25:189,1,55,0|0,1:0|0:0,0:0:0:0:
39,220,46918,2,0,L|41:335,1,110,2|0,0:0|1:0,0:0:0:0:
147,358,47603,1,0,0:0:0:0:
243,304,47946,1,0,1:0:0:0:
346,342,48289,6,0,P|405:331|445:285,1,110,2|0,0:0|1:0,0:0:0:0:
460,252,48803,2,0,P|447:207|447:138,1,110,0|2,0:0|0:0,0:0:0:0:
453,95,49318,2,0,L|377:85,1,55,0|0,1:0|0:0,0:0:0:0:
352,103,49661,1,2,0:0:0:0:
248,66,50003,1,0,1:0:0:0:
159,130,50346,2,0,L|104:137,1,55,0|2,0:0|0:0,0:0:0:0:
58,122,50689,1,0,1:0:0:0:
86,228,51032,6,0,P|138:233|206:202,1,110,2|0,0:0|1:0,0:0:0:0:
278,280,51718,2,0,P|329:299|383:294,1,110,0|0,0:0|1:0,0:0:0:0:
429,278,52232,1,0,0:0:0:0:
463,241,52403,2,0,P|458:150|453:118,1,110,2|0,0:0|1:0,0:0:0:0:
379,50,53089,1,0,0:0:0:0:
298,124,53432,1,0,1:0:0:0:
202,69,53775,6,0,P|144:63|92:73,1,110,2|0,0:0|1:0,0:0:0:0:
56,105,54289,2,0,P|61:169|61:234,1,110,0|2,0:0|0:0,0:0:0:0:
46,261,54803,1,0,1:0:0:0:
130,331,55146,2,0,P|165:340|249:324,1,110,2|0,0:0|1:0,0:0:0:0:
286,340,55661,1,0,1:0:0:0:
334,324,55832,2,0,P|368:322|403:323,2,55,0|2|0,0:0|0:0|1:0,0:0:0:0:
284,225,56518,6,0,P|280:181|292:95,1,110,2|0,0:0|1:0,0:0:0:0:
394,92,57203,2,0,P|400:146|396:201,1,110,0|0,0:0|1:0,0:0:0:0:
366,242,57718,1,0,0:0:0:0:
332,279,57889,2,0,P|277:288|212:313,1,110,2|0,0:0|1:0,0:0:0:0:
136,370,58575,1,0,0:0:0:0:
50,300,58918,1,0,1:0:0:0:
21,191,59261,6,0,P|17:134|27:68,1,110,2|0,0:0|1:0,0:0:0:0:
67,93,59775,2,0,P|106:96|181:86,1,110,0|2,0:0|0:0,0:0:0:0:
224,75,60289,2,0,P|263:72|286:75,1,55,0|0,1:0|0:0,0:0:0:0:
327,91,60632,1,2,0:0:0:0:
293,195,60975,1,0,1:0:0:0:
383,257,61318,2,0,P|431:259|448:255,1,55,0|2,0:0|0:0,0:0:0:0:
484,240,61661,1,0,1:0:0:0:
479,349,62003,6,0,P|418:360|351:351,1,110,2|0,0:0|1:0,0:0:0:0:
270,310,62689,2,0,P|217:293|163:290,1,110,0|0,0:0|1:0,0:0:0:0:
115,301,63203,1,0,0:0:0:0:
70,324,63375,2,0,P|81:262|78:208,1,110,2|0,0:0|1:0,0:0:0:0:
189,210,64061,1,0,0:0:0:0:
271,138,64403,1,0,1:0:0:0:
340,223,64746,6,0,P|396:238|459:232,1,110,2|0,0:0|1:0,0:0:0:0:
492,210,65261,2,0,P|481:176|481:97,1,110,0|2,0:0|0:0,0:0:0:0:
488,54,65775,1,0,1:0:0:0:
382,22,66118,2,0,P|323:23|264:27,1,110,2|0,0:0|1:0,0:0:0:0:
229,47,66632,1,0,1:0:0:0:
200,88,66803,2,0,P|192:140|192:149,1,55,2|2,0:0|0:0,0:0:0:0:
211,188,67146,2,0,P|219:240|219:249,1,55,0|2,1:0|0:0,0:0:0:0:
201,290,67489,5,4,0:1:0:0:
498,315,77776,6,0,P|487:263|453:203,1,110
357,249,78462,5,6,0:0:0:0:
267,186,78804,1,0,1:0:0:0:
173,244,79147,2,0,P|120:246|58:200,1,110,0|0,0:0|1:0,0:0:0:0:
63,108,79833,2,0,P|76:79|81:49,1,55,2|0,0:0|0:0,0:0:0:0:
126,37,80176,2,0,P|162:36|200:45,1,55,0|0,1:0|0:0,0:0:0:0:
224,64,80519,1,0,0:0:0:0:
330,35,80862,1,0,1:0:0:0:
369,137,81204,6,0,P|320:146|251:142,1,110,2|0,0:0|1:0,0:0:0:0:
219,171,81719,2,0,P|165:183|111:176,1,110,0|2,0:0|0:0,0:0:0:0:
69,150,82233,1,0,1:0:0:0:
75,259,82576,2,0,P|109:302|181:320,1,110,2|0,0:0|1:0,0:0:0:0:
210,317,83089,1,0,1:0:0:0:
258,301,83261,2,0,P|292:299|327:300,2,55,0|2|0,0:0|0:0|1:0,0:0:0:0:
313,205,83946,6,0,P|335:177|351:93,1,110,2|0,0:0|1:0,0:0:0:0:
242,121,84633,1,0,0:0:0:0:
156,51,84976,1,0,1:0:0:0:
68,118,85319,2,0,P|29:121|9:119,2,55,2|0|0,0:0|0:0|1:0,0:0:0:0:
110,145,85833,1,0,0:0:0:0:
134,188,86004,2,0,P|139:230|115:295,1,110,0|0,0:0|1:0,0:0:0:0:
198,366,86690,6,0,P|265:357|320:368,1,110,2|0,0:0|1:0,0:0:0:0:
356,375,87204,2,0,P|399:380|476:369,1,110,0|2,0:0|0:0,0:0:0:0:
504,340,87719,2,0,P|498:311|503:276,1,55,0|0,1:0|0:0,0:0:0:0:
511,238,88062,1,2,0:0:0:0:
418,179,88404,1,0,1:0:0:0:
461,77,88747,2,0,P|449:53|430:31,1,55,2|2,0:0|0:0,0:0:0:0:
382,19,89090,2,0,P|354:17|325:17,1,55,0|2,1:0|0:0,0:0:0:0:
289,48,89433,6,0,P|262:78|175:85,1,110,4|0,0:1|1:0,0:0:0:0:
95,47,90119,1,0,0:0:0:0:
55,149,90462,1,0,1:0:0:0:
135,222,90804,2,0,P|169:227|198:223,1,55,2|0,0:0|0:0,0:0:0:0:
236,209,91147,1,0,1:0:0:0:
313,285,91490,2,0,P|347:280|376:284,1,55,0|2,0:0|0:0,0:0:0:0:
414,298,91833,1,0,1:0:0:0:
340,379,92176,6,0,P|292:378|227:351,1,110,2|0,0:0|1:0,0:0:0:0:
199,321,92690,2,0,P|167:334|92:330,1,110,0|2,0:0|0:0,0:0:0:0:
58,295,93204,2,0,P|52:266|52:237,1,55,0|0,1:0|0:0,0:0:0:0:
68,194,93547,1,2,0:0:0:0:
152,123,93890,1,0,1:0:0:0:
47,88,94233,2,0,P|59:61|77:38,1,55,0|0,0:0|0:0,0:0:0:0:
113,22,94576,1,0,1:0:0:0:
217,57,94919,6,0,P|262:62|343:33,1,110,2|0,0:0|1:0,0:0:0:0:
322,155,95604,1,0,0:0:0:0:
409,221,95947,1,0,1:0:0:0:
343,309,96290,2,0,P|308:300|221:302,1,110,2|0,0:0|1:0,0:0:0:0:
190,325,96805,1,0,0:0:0:0:
142,341,96976,2,0,P|108:343|73:342,2,55,0|0|0,0:0|0:0|1:0,0:0:0:0:
187,240,97662,6,0,P|242:227|297:235,1,110,2|0,0:0|0:0,0:0:0:0:
333,265,98176,2,0,P|323:220|333:147,1,110,0|2,0:0|0:0,0:0:0:0:
353,112,98690,1,0,1:0:0:0:
449,165,99033,1,2,0:0:0:0:
444,55,99376,1,0,1:0:0:0:
353,112,99719,2,0,P|311:114|284:108,1,55,2|0,0:0|0:0,0:0:0:0:
256,85,100062,2,0,P|228:82|201:84,1,55,0|0,1:0|0:0,0:0:0:0:
156,106,100404,6,0,P|125:155|72:182,1,110,4|0,0:1|1:0,0:0:0:0:
36,203,100919,2,0,P|70:224|116:304,1,110,0|2,0:0|0:0,0:0:0:0:
120,330,101433,1,0,1:0:0:0:
220,374,101776,2,0,P|224:342|235:308,1,55,2|0,0:0|0:0,0:0:0:0:
256,277,102119,1,0,0:0:0:0:
300,176,102462,2,0,P|296:144|285:110,1,55,0|2,0:0|0:0,0:0:0:0:
264,79,102805,1,0,0:0:0:0:
373,75,103147,6,0,P|428:69|471:32,1,110,2|0,0:0|1:0,0:0:0:0:
491,80,103662,2,0,P|493:139|487:209,1,110,0|2,0:0|0:0,0:0:0:0:
472,236,104176,1,0,1:0:0:0:
379,312,104519,2,0,P|324:317|261:307,1,110,2|0,0:0|1:0,0:0:0:0:
224,292,105032,1,0,1:0:0:0:
176,278,105204,2,0,P|149:282|123:290,2,55,0|0|0,0:0|0:0|1:0,0:0:0:0:
222,178,105889,6,0,P|196:156|170:76,1,110,2|0,0:0|1:0,0:0:0:0:
176,39,106404,2,0,P|232:46|291:37,1,110,0|2,0:0|0:0,0:0:0:0:
328,15,106918,1,0,1:0:0:0:
412,85,107261,2,0,P|417:124|417:146,1,55,2|0,0:0|0:0,0:0:0:0:
409,188,107604,1,0,1:0:0:0:
353,282,107946,2,0,P|312:300|279:300,1,55,0|2,0:0|0:0,0:0:0:0:
254,293,108289,2,0,P|212:293|185:298,1,55,0|0,1:0|0:0,0:0:0:0:
151,306,108632,6,0,P|132:278|119:199,1,110,2|0,0:0|1:0,0:0:0:0:
133,157,109146,2,0,P|117:129|105:45,1,110,0|2,0:0|0:0,0:0:0:0:
139,17,109661,1,0,1:0:0:0:
244,48,110004,2,0,P|297:53|372:49,1,110,2|0,0:0|1:0,0:0:0:0:
428,131,110689,2,0,P|406:148|390:171,1,55,2|2,0:0|0:0,0:0:0:0:
376,217,111032,2,0,P|368:243|368:271,1,55,0|2,1:0|0:0,0:0:0:0:
389,316,111375,6,0,P|323:302|259:307,1,110,4|0,0:1|1:0,0:0:0:0:
234,316,111889,2,0,P|177:324|99:316,1,110,0|2,0:0|0:0,0:0:0:0:
78,303,112404,1,0,1:0:0:0:
28,204,112746,2,0,P|25:170|29:143,1,55,2|0,0:0|0:0,0:0:0:0:
46,104,113089,1,0,1:0:0:0:
150,68,113432,2,0,P|152:40|149:13,2,55,0|2|0,0:0|0:0|1:0,0:0:0:0:
219,153,114118,6,0,P|264:148|316:97,1,110,2|0,0:0|1:0,0:0:0:0:
347,73,114632,2,0,P|380:66|452:83,1,110,0|2,0:0|0:0,0:0:0:0:
476,126,115146,1,0,1:0:0:0:
448,232,115489,2,0,P|454:279|463:295,2,55,0|0|0,0:0|0:0|1:0,0:0:0:0:
346,276,116175,1,0,0:0:0:0:
243,236,116518,1,0,1:0:0:0:
145,287,116861,6,0,P|107:288|17:201,2,165,4|0|0,1:0|1:0|1:0,0:0:0:0:
124,180,118232,2,0,P|126:128|182:33,2,165,0|0|0,1:0|1:0|1:0,0:0:0:0:
233,166,119604,2,0,P|267:137|339:126,1,110,0|0,1:0|1:0,0:0:0:0:
398,210,120289,2,0,P|442:217|497:264,1,110,0|0,1:0|1:0,0:0:0:0:
406,330,120975,6,0,B|274:275|214:408|80:327,1,330,0|0,1:0|1:0,0:0:0:0:
86,331,122346,6,0,P|97:289|91:198,1,110,4|0,0:1|1:0,0:0:0:0:
89,112,123032,2,0,P|124:85|200:72,1,110,0|0,0:0|1:0,0:0:0:0:
291,109,123718,2,0,P|339:114|368:106,1,55,2|0,0:0|0:0,0:0:0:0:
392,96,124061,1,0,1:0:0:0:
441,194,124404,2,0,P|451:245|449:303,1,110,0|0,0:0|1:0,0:0:0:0:
357,363,125089,5,2,0:0:0:0:
256,319,125432,1,0,1:0:0:0:
153,359,125775,2,0,P|109:360|79:358,1,55,0|2,0:0|0:0,0:0:0:0:
52,339,126118,1,0,1:0:0:0:
112,246,126461,2,0,P|124:212|114:129,1,110,2|0,0:0|1:0,0:0:0:0:
96,93,126975,1,0,1:0:0:0:
55,65,127146,2,0,P|24:52|-6:51,2,55,0|2|0,0:0|0:0|1:0,0:0:0:0:
164,55,127832,6,0,P|223:57|290:44,1,110,2|0,0:0|1:0,0:0:0:0:
352,125,128518,2,0,P|386:131|411:131,1,55,0|2,0:0|0:0,0:0:0:0:
456,122,128861,1,0,1:0:0:0:
485,228,129204,1,2,0:0:0:0:
375,234,129546,1,0,1:0:0:0:
282,290,129889,2,0,P|239:302|216:302,1,55,0|2,0:0|0:0,0:0:0:0:
180,295,130232,1,0,1:0:0:0:
79,249,130575,6,0,P|106:222|124:146,1,110,2|0,0:0|1:0,0:0:0:0:
214,90,131261,2,0,P|220:133|228:153,2,55,0|2|0,0:0|0:0|1:0,0:0:0:0:
323,93,131946,1,2,0:0:0:0:
417,37,132289,1,0,1:0:0:0:
474,131,132632,2,0,P|473:168|459:203,1,55,2|2,0:0|0:0,0:0:0:0:
435,224,132975,2,0,P|404:244|367:254,1,55,0|2,1:0|0:0,0:0:0:0:
337,247,133318,6,0,P|300:248|228:289,1,110,4|0,0:1|1:0,0:0:0:0:
126,292,134004,2,0,P|106:255|103:179,1,110,0|0,0:0|1:0,0:0:0:0:
175,106,134689,2,0,P|208:112|234:113,1,55,0|0,0:0|0:0,0:0:0:0:
278,105,135032,1,0,1:0:0:0:
387,115,135375,2,0,P|411:127|432:145,2,55,0|2|0,0:0|0:0|1:0,0:0:0:0:
346,217,136061,6,0,P|302:210|222:230,1,110,2|0,0:0|1:0,0:0:0:0:
197,252,136575,2,0,P|160:278|118:348,1,110,0|2,0:0|0:0,0:0:0:0:
120,380,137089,1,0,1:0:0:0:
226,353,137432,2,0,P|267:344|289:345,1,55,2|0,0:0|0:0,0:0:0:0:
327,358,137775,1,0,1:0:0:0:
436,343,138118,2,0,P|464:318|475:296,1,55,0|2,0:0|0:0,0:0:0:0:
484,256,138461,2,0,P|485:224|477:184,1,55,0|0,1:0|0:0,0:0:0:0:
465,156,138804,6,0,P|445:127|361:104,1,110,2|0,0:0|1:0,0:0:0:0:
331,116,139318,1,0,0:0:0:0:
230,161,139661,2,0,P|197:166|150:164,1,55,2|0,0:0|1:0,0:0:0:0:
72,204,140175,2,0,P|48:244|45:319,1,110,2|0,0:0|1:0,0:0:0:0:
67,349,140689,2,0,P|124:368|190:365,1,110,0|2,0:0|0:0,0:0:0:0:
221,353,141204,1,0,1:0:0:0:
300,277,141546,6,0,P|286:223|290:169,1,110,2|0,0:0|1:0,0:0:0:0:
308,123,142061,1,0,0:0:0:0:
386,45,142404,2,0,P|413:40|440:41,1,55,2|0,0:0|1:0,0:0:0:0:
503,131,142918,2,0,P|510:166|513:192,2,55,2|0|0,0:0|0:0|1:0,0:0:0:0:
409,190,143604,2,0,P|401:236|408:309,1,110,0|0,0:0|1:0,0:0:0:0:
310,354,144289,6,0,P|263:333|187:347,1,110,4|0,0:1|1:0,0:0:0:0:
97,361,144975,1,0,0:0:0:0:
41,265,145318,2,0,P|42:226|50:204,1,55,0|0,1:0|0:0,0:0:0:0:
88,185,145661,2,0,P|149:153|173:108,1,110,2|0,0:0|1:0,0:0:0:0:
262,60,146346,2,0,P|298:51|336:54,2,55,0|2|0,0:0|0:0|1:0,0:0:0:0:
308,160,147032,5,2,0:0:0:0:
411,122,147375,1,0,1:0:0:0:
466,216,147718,2,0,P|479:257|481:324,1,110,0|0,0:0|1:0,0:0:0:0:
376,360,148404,2,0,P|345:367|321:367,1,55,2|2,0:0|0:0,0:0:0:0:
275,349,148746,2,0,P|248:343|220:343,1,55,0|0,1:0|1:0,0:0:0:0:
173,357,149089,2,0,P|129:358|108:354,2,55,0|0|0,0:0|0:0|1:0,0:0:0:0:
225,260,149775,5,4,0:1:0:0:
140,189,150118,1,0,1:0:0:0:
187,89,150461,2,0,P|194:56|192:29,2,55,0|2|0,0:0|0:0|1:0,0:0:0:0:
80,115,151146,2,0,P|53:173|59:238,1,110,2|0,0:0|1:0,0:0:0:0:
112,310,151832,2,0,P|147:328|182:335,1,55,0|2,0:0|0:0,0:0:0:0:
212,335,152175,1,0,1:0:0:0:
290,257,152518,6,0,P|263:230|245:154,1,110,2|0,0:0|1:0,0:0:0:0:
304,69,153204,2,0,P|311:42|313:15,2,55,0|2|0,0:0|0:0|1:0,0:0:0:0:
351,168,153889,1,2,0:0:0:0:
442,106,154232,1,0,1:0:0:0:
477,210,154575,2,0,P|481:246|480:284,1,55,2|2,0:0|0:0,0:0:0:0:
458,310,154918,2,0,P|450:336|438:364,1,55,0|2,1:0|0:0,0:0:0:0:
392,373,155261,6,0,P|358:357|275:360,1,110,4|0,0:1|1:0,0:0:0:0:
177,369,155946,2,0,P|122:372|71:353,1,110,0|0,0:0|1:0,0:0:0:0:
45,311,156461,2,0,P|48:271|40:193,1,110,0|0,0:0|0:0,0:0:0:0:
81,171,156975,1,0,1:0:0:0:
183,130,157318,2,0,L|244:126,2,55,0|2|0,0:0|0:0|1:0,0:0:0:0:
251,216,158004,6,0,P|306:191|329:141,1,110,2|0,0:0|1:0,0:0:0:0:
348,104,158518,2,0,P|370:135|441:164,1,110,0|2,0:0|0:0,0:0:0:0:
483,156,159032,1,0,1:0:0:0:
460,263,159375,1,2,0:0:0:0:
431,369,159718,1,0,1:0:0:0:
349,295,160061,2,0,P|297:291|283:293,1,55,0|2,0:0|0:0,0:0:0:0:
246,305,160404,1,0,1:0:0:0:
140,335,160746,6,0,P|99:338|71:336,2,55,2|0|0,0:0|0:0|1:0,0:0:0:0:
157,288,161261,2,0,P|144:241|148:167,1,110,0|2,0:0|0:0,0:0:0:0:
166,135,161775,1,0,1:0:0:0:
254,69,162118,6,0,P|282:70|311:67,1,55,2|0,0:0|0:0,0:0:0:0:
355,53,162461,2,0,P|382:50|409:51,1,55,0|0,1:0|0:0,0:0:0:0:
456,71,162804,2,0,P|488:116|501:185,1,110,0|0,0:0|1:0,0:0:0:0:
449,265,163489,6,0,P|404:268|387:273,1,55,2|0,0:0|0:0,0:0:0:0:
352,296,163832,1,0,1:0:0:0:
313,328,164004,2,0,P|277:337|191:329,1,110,0|2,0:0|0:0,0:0:0:0:
161,312,164518,1,0,1:0:0:0:
87,230,164861,6,0,P|80:204|79:172,2,55,2|0|0,0:0|0:0|1:0,0:0:0:0:
181,159,165546,2,0,P|188:129|199:106,1,55,0|2,0:0|0:0,0:0:0:0:
238,78,165889,2,0,P|273:57|310:47,1,55,0|0,1:0|0:0,0:0:0:0:
335,45,166232,5,4,0:1:0:0:
256,192,166318,12,4,171718,0:1:0:0:
