osu file format v14

[General]
AudioFilename: Necro Fantasia.mp3
AudioLeadIn: 0
PreviewTime: 44175
Countdown: 0
SampleSet: Soft
StackLeniency: 0.3
Mode: 0
LetterboxInBreaks: 1
WidescreenStoryboard: 0

[Editor]
DistanceSpacing: 1
BeatDivisor: 4
GridSize: 4
TimelineZoom: 2

[Metadata]
Title:Necro Fantasia
TitleUnicode:Necro Fantasia
Artist:MISATO
ArtistUnicode:美里
Creator:Aka
Version:Lunatic
Source:東方Project
Tags:Masayoshi Minoshima ネクロファンタジア Yukari Yakumo 東方妖々夢 Perfect Cherry Blossom Alstroemeria Records Haruka EXSERENSES Necrofantasia Touhou
BeatmapID:535808
BeatmapSetID:230367

[Difficulty]
HPDrainRate:7
CircleSize:3.8
OverallDifficulty:8
ApproachRate:9
SliderMultiplier:1.6
SliderTickRate:2

[Events]
//Background and Video events
0,0,"gbhnjkmlbuhnjkm.jpg",0,0
//Break Periods
2,67689,75717
//Storyboard Layer 0 (Background)
//Storyboard Layer 1 (Fail)
//Storyboard Layer 2 (Pass)
//Storyboard Layer 3 (Foreground)
//Storyboard Sound Samples

[TimingPoints]
23604,342.857142857143,4,2,0,80,1,0
23604,-100,4,2,0,50,0,0
34575,-100,4,2,0,70,0,0
116861,-100,4,2,0,75,0,1
116946,-100,4,2,0,75,0,0
119604,-100,4,2,0,80,0,1
119689,-100,4,2,0,80,0,0
122346,-90.9090909090909,4,2,0,80,0,1
122432,-90.9090909090909,4,2,0,80,0,0
133318,-90.9090909090909,4,2,0,80,0,1
133404,-90.9090909090909,4,2,0,80,0,0
144289,-90.9090909090909,4,2,0,85,0,1
144375,-90.9090909090909,4,2,0,80,0,0
166318,-90.9090909090909,4,2,0,60,0,0
167604,-90.9090909090909,4,2,0,55,0,0
168975,-90.9090909090909,4,2,0,50,0,0

[Colours]
Combo1 : 114,235,220
Combo2 : 228,139,126
Combo3 : 189,131,218
Combo4 : 172,220,101

[HitObjects]
327,191,23604,6,0,P|323:147|311:95,1,80,2|2,0:0|0:0,0:0:0:0:
314,280,23946,1,0,0:0:0:0:
233,346,24118,1,2,0:0:0:0:
57,359,24461,1,2,0:0:0:0:
57,359,26346,6,0,L|52:260,1,80,2|0,0:0|0:0,0:0:0:0:
46,100,26689,1,0,0:0:0:0:
50,188,26861,1,2,0:0:0:0:
40,12,27204,1,2,0:0:0:0:
211,170,27718,6,0,L|131:179,1,80,2|0,0:0|0:0,0:0:0:0:
294,159,28061,1,0,0:0:0:0:
381,147,28232,1,2,0:0:0:0:
131,179,28575,1,2,0:0:0:0:
129,258,29089,6,0,P|125:218|131:178,1,80,2|2,0:0|0:0,0:0:0:0:
178,329,29432,1,0,0:0:0:0:
276,362,29604,1,2,0:0:0:0:
451,343,29946,1,2,0:0:0:0:
451,343,31832,5,2,0:0:0:0:
420,260,32004,1,0,0:0:0:0:
454,179,32175,1,2,0:0:0:0:
434,92,32346,1,2,0:0:0:0:
350,313,32689,1,0,0:0:0:0:
350,313,33204,5,2,0:0:0:0:
269,276,33375,1,0,0:0:0:0:
173,322,33546,1,2,0:0:0:0:
350,313,33718,1,2,0:0:0:0:
232,109,34061,1,0,0:0:0:0:
232,109,34575,6,0,P|249:174|242:214,1,80,4|0,0:0|0:0,0:0:0:0:
211,274,34918,1,0,1:0:0:0:
131,220,35089,1,0,0:0:0:0:
344,212,35261,2,0,L|449:208,1,80,0|2,0:0|0:0,0:0:0:0:
325,349,35604,2,0,P|354:316|391:296,1,80,0|0,1:0|0:0,0:0:0:0:
237,375,35946,5,2,0:0:0:0:
217,280,36118,1,0,0:0:0:0:
259,194,36289,1,0,1:0:0:0:
246,98,36461,1,0,0:0:0:0:
133,177,36632,2,0,P|131:221|138:266,1,80,0|2,0:0|0:0,0:0:0:0:
337,133,36975,2,0,P|344:78|342:42,1,80,0|0,1:0|0:0,0:0:0:0:
262,178,37318,5,2,0:0:0:0:
172,212,37489,1,0,0:0:0:0:
159,47,37661,1,0,1:0:0:0:
250,74,37832,1,0,0:0:0:0:
104,132,38004,2,0,P|66:136|11:125,1,80,0|2,0:0|0:0,0:0:0:0:
160,232,38346,2,0,P|199:225|239:229,1,80,0|0,1:0|0:0,0:0:0:0:
288,342,38689,5,2,0:0:0:0:
191,346,38861,1,0,0:0:0:0:
352,267,39032,1,0,1:0:0:0:
448,256,39204,1,0,0:0:0:0:
264,222,39375,2,0,P|255:181|258:136,1,80,0|2,0:0|0:0,0:0:0:0:
400,125,39718,2,0,P|408:84|405:39,1,80,0|0,1:0|0:0,0:0:0:0:
342,192,40061,5,2,0:0:0:0:
256,143,40232,1,0,0:0:0:0:
166,176,40404,1,0,1:0:0:0:
131,266,40575,1,0,0:0:0:0:
252,376,40746,2,0,P|294:369|335:344,1,80,0|2,0:0|0:0,0:0:0:0:
279,230,41090,2,0,P|239:236|204:254,1,80,0|0,1:0|0:0,0:0:0:0:
421,355,41432,5,2,0:0:0:0:
441,260,41604,1,0,0:0:0:0:
399,174,41775,1,0,1:0:0:0:
412,78,41946,1,0,0:0:0:0:
329,244,42118,2,0,P|287:259|239:258,1,80,0|2,0:0|0:0,0:0:0:0:
144,318,42461,2,0,P|104:316|66:301,1,80,0|0,1:0|0:0,0:0:0:0:
69,136,42804,5,2,0:0:0:0:
164,116,42975,1,0,0:0:0:0:
250,158,43146,1,0,1:0:0:0:
346,145,43318,1,0,0:0:0:0:
461,35,43489,1,0,0:0:0:0:
365,26,43661,1,2,0:0:0:0:
283,76,43832,1,0,1:0:0:0:
187,73,44004,1,0,0:0:0:0:
116,8,44175,5,2,0:0:0:0:
145,21,44861,1,0,0:0:0:0:
159,28,45204,1,0,0:0:0:0:
172,35,45546,6,0,L|163:132,1,80,4|0,0:1|0:0,0:0:0:0:
149,331,45889,1,0,1:0:0:0:
156,227,46061,1,0,0:0:0:0:
240,124,46232,2,0,P|271:107|322:98,1,80,0|2,0:0|0:0,0:0:0:0:
375,269,46575,2,0,P|335:261|300:243,1,80,0|0,1:0|0:0,0:0:0:0:
434,103,46918,5,2,0:0:0:0:
464,202,47089,1,0,0:0:0:0:
364,372,47261,1,0,1:0:0:0:
375,269,47432,1,0,0:0:0:0:
344,169,47603,2,0,P|299:132|258:124,1,80,0|2,0:0|0:0,0:0:0:0:
180,158,47946,2,0,P|124:141|83:149,1,80,0|0,1:0|0:0,0:0:0:0:
68,300,48289,5,2,0:0:0:0:
228,351,48460,1,0,0:0:0:0:
129,215,48631,1,0,1:0:0:0:
129,384,48804,1,0,0:0:0:0:
228,247,48975,2,0,P|241:178|235:135,1,80,0|2,0:0|0:0,0:0:0:0:
349,146,49318,2,0,P|336:77|342:34,1,80,0|0,1:0|0:0,0:0:0:0:
403,229,49661,5,2,0:0:0:0:
308,272,49832,1,0,0:0:0:0:
206,252,50003,1,0,1:0:0:0:
109,212,50175,1,0,0:0:0:0:
130,313,50346,1,0,0:0:0:0:
206,252,50518,1,2,0:0:0:0:
201,148,50689,1,0,1:0:0:0:
107,100,50861,1,0,0:0:0:0:
32,285,51032,6,0,P|52:348|71:370,1,80,2|0,0:0|0:0,0:0:0:0:
161,379,51375,1,0,1:0:0:0:
261,353,51546,1,0,0:0:0:0:
444,366,51718,2,0,P|398:366|350:346,1,80,0|2,0:0|0:0,0:0:0:0:
435,215,52061,2,0,P|473:203|512:204,1,80,0|0,1:0|0:0,0:0:0:0:
323,262,52403,5,2,0:0:0:0:
259,178,52575,1,0,0:0:0:0:
361,42,52746,1,0,1:0:0:0:
355,145,52918,1,0,0:0:0:0:
191,102,53089,2,0,P|178:60|179:18,1,80,0|2,0:0|0:0,0:0:0:0:
63,183,53432,2,0,P|69:143|86:107,1,80,0|0,1:0|0:0,0:0:0:0:
154,233,53775,5,2,0:0:0:0:
215,317,53946,1,0,0:0:0:0:
314,284,54118,1,0,1:0:0:0:
314,180,54289,1,0,0:0:0:0:
215,148,54461,2,0,P|157:151|121:164,1,80,0|2,0:0|0:0,0:0:0:0:
58,225,54803,1,0,1:0:0:0:
41,328,54975,1,0,0:0:0:0:
215,317,55146,6,0,L|297:310,1,80,2|2,0:0|0:0,0:0:0:0:
137,245,55489,1,0,1:0:0:0:
129,246,55661,1,0,1:0:0:0:
312,198,55832,1,0,0:0:0:0:
203,112,56003,1,2,0:0:0:0:
257,8,56175,1,0,1:0:0:0:
257,8,56518,6,0,P|266:68|284:97,1,80,2|0,0:0|0:0,0:0:0:0:
371,123,56861,1,0,1:0:0:0:
469,89,57032,1,0,0:0:0:0:
274,84,57204,2,0,L|170:79,1,80,0|2,0:0|0:0,0:0:0:0:
160,164,57546,2,0,L|55:158,1,80,0|0,1:0|0:0,0:0:0:0:
100,262,57889,5,2,0:0:0:0:
200,290,58061,1,0,0:0:0:0:
298,256,58232,1,0,1:0:0:0:
398,281,58403,1,0,0:0:0:0:
295,298,58575,1,0,0:0:0:0:
200,255,58746,1,2,0:0:0:0:
148,164,58918,1,0,1:0:0:0:
159,60,59089,1,0,0:0:0:0:
304,128,59261,6,0,P|306:183|296:221,1,80,2|0,0:0|0:0,0:0:0:0:
400,95,59603,2,0,P|393:55|396:15,1,80,0|0,1:0|0:0,0:0:0:0:
473,184,59946,1,0,0:0:0:0:
418,273,60118,1,2,0:0:0:0:
371,180,60289,1,0,1:0:0:0:
512,286,60461,1,0,0:0:0:0:
345,337,60632,6,0,P|297:326|261:292,1,80,2|0,0:0|0:0,0:0:0:0:
221,217,60975,1,0,1:0:0:0:
216,113,61146,1,0,0:0:0:0:
308,162,61318,1,0,0:0:0:0:
133,169,61489,1,2,0:0:0:0:
205,16,61661,1,0,1:0:0:0:
300,56,61832,1,0,0:0:0:0:
205,16,62003,6,0,L|94:27,1,80,2|0,0:0|0:0,0:0:0:0:
38,145,62346,1,0,1:0:0:0:
131,190,62518,1,0,0:0:0:0:
233,175,62689,2,0,P|290:148|312:118,1,80,0|2,0:0|0:0,0:0:0:0:
371,315,63032,2,0,P|352:279|349:240,1,80,0|0,1:0|0:0,0:0:0:0:
425,90,63375,5,2,0:0:0:0:
498,163,63546,1,0,0:0:0:0:
450,256,63718,1,0,1:0:0:0:
349,240,63889,1,0,0:0:0:0:
332,137,64061,2,0,P|334:82|354:31,1,80,0|2,0:0|0:0,0:0:0:0:
251,214,64403,2,0,P|212:223|172:222,1,80,0|0,1:0|0:0,0:0:0:0:
87,161,64746,5,2,0:0:0:0:
69,58,64918,1,0,0:0:0:0:
184,119,65089,1,0,1:0:0:0:
173,223,65261,1,0,0:0:0:0:
43,246,65432,2,0,L|51:153,1,80,0|2,0:0|0:0,0:0:0:0:
177,18,65775,2,0,L|169:111,1,80,0|0,1:0|0:0,0:0:0:0:
157,248,66118,5,2,0:0:0:0:
148,359,66289,1,0,0:0:0:0:
265,320,66461,1,0,1:0:0:0:
272,321,66632,1,0,1:0:0:0:
157,248,66803,1,2,0:0:0:0:
187,148,66975,1,2,0:0:0:0:
289,192,67146,1,0,1:0:0:0:
406,146,67318,1,2,0:0:0:0:
439,11,67489,5,4,0:1:0:0:
361,300,77775,5,0,0:0:0:0:
369,310,78118,1,0,0:0:0:0:
377,320,78461,6,0,L|391:230,1,80,6|0,0:0|0:0,0:0:0:0:
403,138,78803,1,0,1:0:0:0:
295,204,78975,1,0,0:0:0:0:
287,100,79146,2,0,P|256:69|217:48,1,80,0|2,0:0|0:0,0:0:0:0:
59,54,79489,2,8,P|21:74|-7:105,1,80,0|0,1:0|0:0,0:0:0:0:
159,259,79832,5,2,0:0:0:0:
220,175,80003,1,0,0:0:0:0:
135,113,80175,1,0,1:0:0:0:
78,200,80346,1,0,0:0:0:0:
254,277,80518,2,0,P|315:275|345:265,1,80,0|2,0:0|0:0,0:0:0:0:
413,120,80861,2,0,P|374:111|334:112,1,80,0|0,1:0|0:0,0:0:0:0:
170,224,81204,6,0,L|182:319,1,80,2|0,0:0|0:0,0:0:0:0:
156,131,81546,1,0,1:0:0:0:
76,284,81718,2,0,L|88:379,1,80
63,192,82061,1,2,0:0:0:0:
192,308,82232,2,0,P|254:339|275:337,1,80,0|0,1:0|0:0,0:0:0:0:
361,308,82575,5,2,0:0:0:0:
388,207,82746,1,2,0:0:0:0:
233,128,82918,1,0,1:0:0:0:
240,232,83089,1,0,1:0:0:0:
351,114,83261,1,0,0:0:0:0:
347,10,83432,1,2,0:0:0:0:
356,224,83603,1,0,1:0:0:0:
356,224,83946,6,0,P|323:203|273:197,1,80,2|0,0:0|0:0,0:0:0:0:
178,196,84289,1,0,1:0:0:0:
86,245,84461,1,0,0:0:0:0:
193,352,84632,2,0,P|199:312|198:273,1,80,0|2,0:0|0:0,0:0:0:0:
65,312,84975,2,0,P|59:272|60:233,1,80,0|0,1:0|0:0,0:0:0:0:
200,360,85318,5,2,0:0:0:0:
301,379,85489,1,0,0:0:0:0:
401,351,85661,1,0,1:0:0:0:
448,258,85832,1,0,0:0:0:0:
282,134,86003,2,0,P|214:161|199:173,1,80,0|2,0:0|0:0,0:0:0:0:
265,268,86346,2,0,P|333:241|348:229,1,80,0|0,1:0|0:0,0:0:0:0:
393,99,86689,6,0,L|378:8,1,80,2|0,0:0|0:0,0:0:0:0:
408,198,87032,1,0,1:0:0:0:
284,106,87203,2,0,P|227:97|188:107,1,80
79,228,87546,1,2,0:0:0:0:
163,288,87718,2,0,P|201:297|241:293,1,80,0|0,1:0|0:0,0:0:0:0:
336,191,88061,5,2,0:0:0:0:
232,182,88232,1,0,0:0:0:0:
128,170,88403,1,0,1:0:0:0:
166,266,88575,1,0,0:0:0:0:
336,191,88746,1,2,0:0:0:0:
355,194,88832,1,0,1:0:0:0:
374,197,88918,1,2,0:0:0:0:
128,170,89089,1,0,1:0:0:0:
194,89,89261,1,2,0:0:0:0:
301,276,89432,6,0,P|306:315|302:355,1,80,4|0,0:1|0:0,0:0:0:0:
156,279,89775,2,0,P|151:239|157:199,1,80,0|0,1:0|0:0,0:0:0:0:
217,114,90118,1,0,0:0:0:0:
315,146,90289,1,2,0:0:0:0:
411,107,90461,1,0,1:0:0:0:
511,132,90632,1,0,0:0:0:0:
341,236,90803,6,0,P|273:231|239:213,1,80,2|0,0:0|0:0,0:0:0:0:
386,26,91146,2,0,P|454:31|488:49,1,80,0|0,1:0|0:0,0:0:0:0:
418,186,91489,1,0,0:0:0:0:
332,125,91661,1,2,0:0:0:0:
228,132,91832,1,0,1:0:0:0:
145,194,92003,1,0,0:0:0:0:
261,343,92175,6,0,P|322:337|359:324,1,80,2|0,0:0|0:0,0:0:0:0:
283,243,92518,1,0,1:0:0:0:
423,287,92689,2,0,P|460:267|492:236,1,80
375,197,93032,1,2,0:0:0:0:
283,243,93203,1,0,1:0:0:0:
184,210,93375,1,0,0:0:0:0:
227,44,93546,6,0,P|285:37|318:43,1,80,2|0,0:0|0:0,0:0:0:0:
314,143,93889,2,0,P|274:150|235:146,1,80,0|0,1:0|0:0,0:0:0:0:
136,80,94232,1,0,0:0:0:0:
90,279,94403,1,2,0:0:0:0:
91,174,94575,1,0,1:0:0:0:
159,363,94746,1,0,0:0:0:0:
262,212,94918,6,0,P|311:190|357:193,1,80,2|0,0:0|0:0,0:0:0:0:
433,228,95261,1,0,1:0:0:0:
351,292,95432,1,0,0:0:0:0:
279,115,95603,2,0,P|288:57|303:21,1,80,0|2,0:0|0:0,0:0:0:0:
454,124,95946,2,0,P|465:162|470:201,1,80,0|0,1:0|0:0,0:0:0:0:
375,317,96289,5,2,0:0:0:0:
280,272,96461,1,2,0:0:0:0:
177,289,96632,1,0,1:0:0:0:
169,292,96803,1,0,1:0:0:0:
294,366,96975,1,0,0:0:0:0:
357,224,97146,1,2,0:0:0:0:
264,130,97318,1,0,1:0:0:0:
264,130,97661,6,0,P|199:141|163:133,1,80,2|0,0:0|0:0,0:0:0:0:
94,188,98003,1,0,1:0:0:0:
229,29,98175,2,0,P|293:24|338:35,1,80
309,219,98518,2,0,P|269:222|229:216,1,80,2|0,0:0|1:0,0:0:0:0:
415,140,98861,1,0,0:0:0:0:
470,227,99032,6,0,P|485:289|478:326,1,80,2|0,0:0|0:0,0:0:0:0:
379,302,99375,1,0,1:0:0:0:
288,353,99546,1,0,0:0:0:0:
195,305,99718,1,2,0:0:0:0:
175,303,99803,1,0,1:0:0:0:
154,304,99889,1,2,0:0:0:0:
288,353,100061,1,0,1:0:0:0:
294,236,100232,1,2,0:0:0:0:
134,308,100403,6,0,P|74:294|53:174,1,160,4|0,0:1|1:0,0:0:0:0:
118,101,100918,2,0,L|306:91,1,160,0|2,0:0|0:0,0:0:0:0:
355,174,101432,1,0,1:0:0:0:
246,200,101603,1,0,0:0:0:0:
277,92,101775,1,2,0:0:0:0:
450,121,101946,6,0,P|466:191|466:287,1,160
286,289,102461,2,0,P|347:281|389:285,1,80,0|2,0:0|0:0,0:0:0:0:
208,354,102803,1,0,1:0:0:0:
102,315,102975,1,0,0:0:0:0:
221,219,103146,6,0,P|183:167|97:113,1,160,2|0,0:0|1:0,0:0:0:0:
287,142,103661,2,0,P|379:145|473:129,1,160,0|2,0:0|0:0,0:0:0:0:
256,38,104175,2,0,P|207:36|152:45,1,80,0|0,1:0|0:0,0:0:0:0:
77,131,104518,5,2,0:0:0:0:
130,219,104689,1,2,0:0:0:0:
30,319,104861,1,0,1:0:0:0:
32,215,105032,1,0,1:0:0:0:
205,172,105203,1,0,0:0:0:0:
196,275,105374,1,2,0:0:0:0:
30,319,105546,1,0,1:0:0:0:
196,275,105889,6,0,P|281:264|379:271,1,160,2|0,0:0|1:0,0:0:0:0:
477,303,106403,2,0,P|439:239|427:147,1,160,0|2,0:0|0:0,0:0:0:0:
325,182,106918,1,0,1:0:0:0:
243,117,107089,1,0,0:0:0:0:
311,38,107261,5,2,0:0:0:0:
395,97,107432,1,0,0:0:0:0:
226,200,107603,2,0,P|181:208|137:207,1,80,0|0,1:0|0:0,0:0:0:0:
232,30,107946,2,0,P|271:30|311:37,1,80,0|2,0:0|0:0,0:0:0:0:
125,74,108289,1,0,1:0:0:0:
60,155,108461,1,0,0:0:0:0:
261,114,108632,6,0,P|347:138|412:203,1,160,2|0,0:0|1:0,0:0:0:0:
258,337,109146,2,0,P|181:359|103:347,1,160,0|2,0:0|0:0,0:0:0:0:
353,296,109661,2,0,P|410:300|449:319,1,80,0|0,1:0|0:0,0:0:0:0:
258,337,110003,5,2,0:0:0:0:
234,200,110175,1,0,0:0:0:0:
145,240,110346,1,0,1:0:0:0:
316,161,110518,1,0,0:0:0:0:
189,68,110689,1,2,0:0:0:0:
170,60,110775,1,0,1:0:0:0:
150,56,110861,1,2,0:0:0:0:
136,164,111032,1,0,1:0:0:0:
286,73,111203,1,2,0:0:0:0:
400,173,111375,6,0,P|369:229|261:230,1,160,4|0,0:1|1:0,0:0:0:0:
486,88,111889,2,0,P|499:162|484:245,1,160,0|2,0:0|0:0,0:0:0:0:
316,161,112403,2,0,P|317:111|325:76,1,80,0|0,1:0|0:0,0:0:0:0:
248,234,112746,1,2,0:0:0:0:
150,269,112918,1,0,0:0:0:0:
50,240,113089,2,0,P|86:197|111:181,1,80,0|0,1:0|0:0,0:0:0:0:
211,334,113432,2,0,P|174:351|135:357,1,80,0|2,0:0|0:0,0:0:0:0:
299,279,113775,1,0,1:0:0:0:
402,285,113946,1,0,0:0:0:0:
211,334,114118,6,0,P|170:292|153:162,1,160,2|0,0:0|1:0,0:0:0:0:
130,27,114632,2,0,P|108:78|86:107,1,80
230,71,114975,2,0,P|285:58|332:57,1,80,2|0,0:0|1:0,0:0:0:0:
477,154,115318,2,0,P|376:165|304:149,1,160
444,77,115832,1,0,1:0:0:0:
440,246,116003,1,0,0:0:0:0:
320,153,116175,2,0,P|311:90|312:59,1,80,0|2,0:0|0:0,0:0:0:0:
264,248,116518,1,0,1:0:0:0:
264,248,116861,5,4,1:0:0:0:
419,196,117032,1,2,0:0:0:0:
493,226,117204,1,2,0:0:0:0:
344,277,117375,5,0,1:0:0:0:
184,221,117546,1,2,0:0:0:0:
106,243,117718,1,2,0:0:0:0:
254,341,117889,5,0,1:0:0:0:
416,330,118061,1,2,0:0:0:0:
424,250,118232,1,0,1:0:0:0:
264,248,118404,5,2,0:0:0:0:
106,243,118575,1,2,0:0:0:0:
110,322,118746,1,0,1:0:0:0:
182,285,118918,5,2,0:0:0:0:
337,203,119089,1,2,0:0:0:0:
337,304,119261,1,0,1:0:0:0:
192,192,119432,1,2,0:0:0:0:
248,352,119604,5,0,1:0:0:0:
255,348,119775,1,2,0:0:0:0:
434,298,119946,1,0,1:0:0:0:
428,290,120118,1,2,0:0:0:0:
265,257,120289,5,0,1:0:0:0:
263,268,120461,1,2,0:0:0:0:
432,207,120632,1,0,1:0:0:0:
428,195,120804,1,2,0:0:0:0:
284,166,120975,5,0,1:0:0:0:
256,192,121061,12,0,122003,1:0:0:0:
332,214,122346,6,0,P|373:165|377:46,1,176.000005371094,4|0,0:1|1:0,0:0:0:0:
189,118,122861,1,0,0:0:0:0:
151,215,123032,2,0,P|153:280|164:315,1,88.000002685547,0|2,0:0|0:0,0:0:0:0:
262,368,123375,1,0,1:0:0:0:
218,144,123546,2,0,P|153:128|112:129,1,88.000002685547,0|2,0:0|0:0,0:0:0:0:
252,258,123889,5,0,0:0:0:0:
359,332,124061,1,0,1:0:0:0:
366,210,124232,1,0,0:0:0:0:
172,306,124403,2,0,P|122:277|92:226,1,88.000002685547,0|2,0:0|0:0,0:0:0:0:
275,71,124746,2,0,P|302:121|302:180,1,88.000002685547,0|0,1:0|0:0,0:0:0:0:
130,137,125089,5,2,0:0:0:0:
106,15,125261,1,0,0:0:0:0:
130,137,125432,2,0,P|105:186|71:213,1,88.000002685547,0|0,1:0|0:0,0:0:0:0:
264,160,125775,1,0,0:0:0:0:
250,283,125947,1,2,0:0:0:0:
367,246,126118,2,0,P|408:235|451:240,1,88.000002685547,0|0,1:0|0:0,0:0:0:0:
395,145,126461,5,2,0:0:0:0:
279,103,126632,1,2,0:0:0:0:
168,157,126803,1,0,1:0:0:0:
48,124,126975,1,0,1:0:0:0:
155,64,127146,1,0,0:0:0:0:
281,205,127318,1,2,0:0:0:0:
395,145,127489,2,0,P|420:85|417:37,1,88.000002685547,0|0,1:0|0:0,0:0:0:0:
164,180,127832,6,0,P|107:244|134:348,1,176.000005371094,2|0,0:0|1:0,0:0:0:0:
281,205,128346,1,0,0:0:0:0:
202,101,128518,2,0,P|126:94|105:97,1,88.000002685547,0|2,0:0|0:0,0:0:0:0:
201,270,128861,1,0,1:0:0:0:
297,101,129032,6,0,P|293:44|280:4,1,88.000002685547,0|2,0:0|0:0,0:0:0:0:
281,205,129375,1,0,0:0:0:0:
400,178,129546,2,0,P|451:178|499:192,1,88.000002685547,0|0,1:0|0:0,0:0:0:0:
468,357,129889,2,0,P|417:357|369:343,1,88.000002685547,0|2,0:0|0:0,0:0:0:0:
316,222,130232,1,0,1:0:0:0:
432,263,130404,1,0,0:0:0:0:
199,340,130575,6,0,P|122:335|62:251,1,176.000005371094,2|0,0:0|1:0,0:0:0:0:
70,138,131089,1,0,0:0:0:0:
180,244,131261,2,0,P|172:175|179:127,1,88.000002685547,0|2,0:0|0:0,0:0:0:0:
222,43,131604,1,0,1:0:0:0:
290,146,131775,1,0,0:0:0:0:
115,50,131946,6,0,P|60:56|25:70,1,88.000002685547,2|0,0:0|0:0,0:0:0:0:
10,201,132289,1,0,1:0:0:0:
176,144,132461,1,0,0:0:0:0:
148,307,132632,1,2,0:0:0:0:
152,332,132718,1,0,1:0:0:0:
163,355,132804,1,2,0:0:0:0:
59,274,132975,1,0,1:0:0:0:
243,211,133146,1,2,0:0:0:0:
262,349,133318,6,0,P|337:361|439:293,1,176.000005371094,4|0,0:1|1:0,0:0:0:0:
467,203,133832,1,0,0:0:0:0:
311,125,134003,2,0,P|316:193|332:233,1,88.000002685547,0|2,0:0|0:0,0:0:0:0:
382,73,134346,1,0,1:0:0:0:
201,44,134518,6,0,P|135:46|47:117,1,176.000005371094
179,246,135032,2,0,P|178:172|165:133,1,88.000002685547,0|0,1:0|0:0,0:0:0:0:
74,266,135375,1,0,0:0:0:0:
175,335,135546,1,2,0:0:0:0:
278,267,135718,1,0,1:0:0:0:
175,335,135889,1,0,0:0:0:0:
278,173,136061,6,0,P|356:166|385:175,1,88.000002685547,2|0,0:0|0:0,0:0:0:0:
501,313,136403,2,0,P|457:317|414:307,1,88.000002685547,0|0,1:0|0:0,0:0:0:0:
467,196,136746,1,0,0:0:0:0:
323,266,136918,1,2,0:0:0:0:
388,124,137089,2,0,P|393:35|387:17,1,88.000002685547,0|0,1:0|0:0,0:0:0:0:
185,171,137432,6,0,P|178:253|209:344,1,176.000005371094,2|0,0:0|1:0,0:0:0:0:
330,349,137946,1,0,0:0:0:0:
91,243,138118,2,0,P|85:187|97:129,1,88.000002685547,0|2,0:0|0:0,0:0:0:0:
283,127,138461,2,0,P|287:170|281:214,1,88.000002685547,0|0,1:0|0:0,0:0:0:0:
148,81,138803,5,2,0:0:0:0:
262,33,138975,1,0,0:0:0:0:
373,85,139146,1,0,1:0:0:0:
491,49,139318,1,0,0:0:0:0:
262,33,139489,2,0,P|230:67|214:131,1,88.000002685547,0|2,0:0|0:0,0:0:0:0:
379,280,139832,2,0,P|360:240|331:207,1,88.000002685547,0|0,1:0|0:0,0:0:0:0:
235,284,140175,5,2,0:0:0:0:
121,236,140346,1,0,0:0:0:0:
20,307,140518,1,0,1:0:0:0:
134,352,140689,1,0,0:0:0:0:
238,189,140861,2,0,P|226:139|194:94,1,88.000002685547,0|2,0:0|0:0,0:0:0:0:
90,146,141203,1,0,1:0:0:0:
75,23,141375,1,0,0:0:0:0:
207,108,141546,6,0,P|282:141|377:109,1,176.000005371094,2|0,0:0|1:0,0:0:0:0:
293,21,142061,1,0,0:0:0:0:
262,217,142232,2,0,P|252:292|260:328,1,88.000002685547,0|2,0:0|0:0,0:0:0:0:
451,216,142575,2,0,P|452:172|442:129,1,88.000002685547,0|0,1:0|0:0,0:0:0:0:
350,278,142918,5,2,0:0:0:0:
470,300,143089,1,0,0:0:0:0:
313,158,143261,1,0,1:0:0:0:
193,185,143432,1,0,0:0:0:0:
128,289,143604,2,0,P|76:318|35:320,1,88.000002685547,0|2,0:0|0:0,0:0:0:0:
116,131,143946,2,0,P|159:133|201:147,1,88.000002685547,0|0,1:0|0:0,0:0:0:0:
350,90,144289,6,0,P|413:48|524:80,1,176.000005371094,4|0,0:1|1:0,0:0:0:0:
344,205,144803,1,0,0:0:0:0:
255,118,144975,2,0,P|254:58|269:16,1,88.000002685547,0|2,0:0|0:0,0:0:0:0:
344,205,145318,1,0,1:0:0:0:
222,220,145489,1,0,0:0:0:0:
435,250,145661,6,0,P|436:190|421:148,1,88.000002685547,2|0,0:0|0:0,0:0:0:0:
317,309,146003,2,0,P|277:343|154:328,1,176.000005371094,0|0,1:0|0:0,0:0:0:0:
113,218,146518,1,2,0:0:0:0:
197,128,146689,2,0,P|210:53|197:15,1,88.000002685547,0|0,1:0|0:0,0:0:0:0:
192,225,147032,5,2,0:0:0:0:
310,258,147203,1,0,0:0:0:0:
425,182,147375,1,0,1:0:0:0:
306,153,147546,1,0,0:0:0:0:
384,365,147718,2,0,P|403:317|405:263,1,88.000002685547,0|2,0:0|0:0,0:0:0:0:
373,81,148061,2,0,P|299:59|262:69,1,88.000002685547,0|0,1:0|0:0,0:0:0:0:
159,158,148403,5,2,0:0:0:0:
35,150,148575,1,2,0:0:0:0:
140,38,148746,1,0,1:0:0:0:
262,56,148918,1,0,1:0:0:0:
402,177,149089,1,0,0:0:0:0:
278,173,149261,1,0,0:0:0:0:
471,91,149432,1,0,1:0:0:0:
471,91,149775,6,0,P|408:71|302:126,1,176.000005371094,4|0,0:1|1:0,0:0:0:0:
219,264,150289,1,0,0:0:0:0:
206,141,150461,2,0,P|186:97|133:51,1,88.000002685547,0|2,0:0|0:0,0:0:0:0:
47,195,150803,2,0,P|27:234|20:277,1,88.000002685547,0|0,1:0|0:0,0:0:0:0:
219,264,151146,6,0,P|278:261|325:276,1,88.000002685547,2|0,0:0|0:0,0:0:0:0:
386,361,151489,1,0,1:0:0:0:
262,349,151661,1,0,0:0:0:0:
404,245,151832,2,0,P|414:201|395:131,1,88.000002685547,0|2,0:0|0:0,0:0:0:0:
271,36,152175,2,0,P|265:79|275:122,1,88.000002685547,0|0,1:0|0:0,0:0:0:0:
392,55,152518,5,2,0:0:0:0:
271,36,152689,1,0,0:0:0:0:
168,104,152861,1,0,1:0:0:0:
53,59,153032,1,0,0:0:0:0:
165,8,153204,1,0,0:0:0:0:
273,128,153375,1,2,0:0:0:0:
185,213,153546,2,0,P|138:210|95:190,1,88.000002685547,0|0,1:0|0:0,0:0:0:0:
273,128,153889,5,2,0:0:0:0:
305,247,154061,1,0,0:0:0:0:
409,183,154232,2,0,P|470:174|514:189,1,88.000002685547,0|0,1:0|0:0,0:0:0:0:
340,322,154575,1,2,0:0:0:0:
318,327,154661,1,0,1:0:0:0:
296,328,154746,1,2,0:0:0:0:
212,218,154918,1,0,1:0:0:0:
314,108,155089,1,2,0:0:0:0:
174,34,155261,6,0,P|113:36|39:141,1,176.000005371094,4|0,0:1|1:0,0:0:0:0:
69,238,155775,1,0,0:0:0:0:
180,187,155946,2,0,P|225:184|297:201,1,88.000002685547,0|2,0:0|0:0,0:0:0:0:
279,343,156289,2,0,P|235:349|191:346,1,88.000002685547,0|0,1:0|0:0,0:0:0:0:
368,288,156632,5,2,0:0:0:0:
472,371,156804,1,0,0:0:0:0:
506,253,156975,2,0,P|497:202|478:170,1,88.000002685547,0|0,1:0|0:0,0:0:0:0:
348,142,157318,1,0,0:0:0:0:
239,200,157489,1,2,0:0:0:0:
152,112,157661,2,0,P|162:69|185:32,1,88.000002685547,0|0,1:0|0:0,0:0:0:0:
239,200,158003,5,2,0:0:0:0:
218,321,158175,1,0,0:0:0:0:
115,252,158346,1,0,1:0:0:0:
136,130,158518,1,0,0:0:0:0:
250,84,158689,2,0,P|303:76|344:79,1,88.000002685547,0|2,0:0|0:0,0:0:0:0:
435,152,159032,1,0,1:0:0:0:
371,257,159203,1,0,0:0:0:0:
475,378,159375,6,0,P|520:319|482:192,1,176.000005371094,2|0,0:0|1:0,0:0:0:0:
407,151,159889,1,0,0:0:0:0:
299,212,160061,2,0,P|232:222|194:215,1,88.000002685547,0|2,0:0|0:0,0:0:0:0:
57,300,160403,2,0,P|99:308|146:304,1,88.000002685547,0|0,1:0|0:0,0:0:0:0:
124,185,160746,5,2,0:0:0:0:
107,62,160918,1,0,0:0:0:0:
226,31,161089,1,0,1:0:0:0:
243,154,161261,1,0,0:0:0:0:
285,268,161432,2,0,P|356:301|372:302,1,88.000002685547,0|2,0:0|0:0,0:0:0:0:
487,290,161775,1,0,1:0:0:0:
487,290,162118,5,2,0:0:0:0:
472,168,162289,1,0,0:0:0:0:
384,80,162461,1,0,1:0:0:0:
261,66,162632,1,0,0:0:0:0:
162,140,162803,2,0,P|111:152|38:139,1,88.000002685547,0|2,0:0|0:0,0:0:0:0:
96,28,163146,1,0,1:0:0:0:
96,28,163489,5,2,0:0:0:0:
145,141,163661,1,0,0:0:0:0:
81,246,163832,1,0,1:0:0:0:
142,352,164003,1,0,0:0:0:0:
261,321,164175,2,0,P|312:328|348:348,1,88.000002685547,0|2,0:0|0:0,0:0:0:0:
142,352,164518,1,0,1:0:0:0:
343,344,164861,6,0,P|365:298|368:255,1,88.000002685547,2|0,0:0|0:0,0:0:0:0:
348,158,165203,1,0,1:0:0:0:
191,26,165375,1,0,0:0:0:0:
170,129,165546,2,0,P|175:172|195:212,1,88.000002685547,0|2,0:0|0:0,0:0:0:0:
348,158,165889,2,0,P|367:118|372:75,1,88.000002685547,0|0,1:0|0:0,0:0:0:0:
282,263,166232,5,4,0:1:0:0:
256,192,166318,12,4,171718,0:1:0:0:
