osu file format v14

[General]
AudioFilename: Noise.mp3
AudioLeadIn: 0
PreviewTime: 54700
Countdown: 0
SampleSet: Soft
StackLeniency: 0.7
Mode: 0
LetterboxInBreaks: 0
WidescreenStoryboard: 0

[Editor]
DistanceSpacing: 1.05
BeatDivisor: 4
GridSize: 4
TimelineZoom: 4.399997

[Metadata]
Title:Noise
TitleUnicode:ノイズ
Artist:MIOYAMAZAKI
ArtistUnicode:ミオヤマザキ
Creator:kunka
Version:Normal
Source:地獄少女 宵伽
Tags:opening tv size jigoku shoujo yoi no togi hell girl Milan- Makyu kunkakunkakunkakunka
BeatmapID:1367419
BeatmapSetID:640797

[Difficulty]
HPDrainRate:4
CircleSize:3.5
OverallDifficulty:5
ApproachRate:5.5
SliderMultiplier:1
SliderTickRate:1

[Events]
//Background and Video events
0,0,"BG.jpg",0,0
Video,0,"Noise.avi"
//Break Periods
//Storyboard Layer 0 (Background)
//Storyboard Layer 1 (Fail)
//Storyboard Layer 2 (Pass)
//Storyboard Layer 3 (Foreground)
//Storyboard Sound Samples

[TimingPoints]
300,266.666666666667,3,2,1,50,1,0
300,-117.647058823529,4,2,1,50,0,0
13100,-105.263157894737,4,2,3,70,0,0
25900,-111.111111111111,4,2,2,60,0,0
37100,-111.111111111111,4,2,1,60,0,0
38700,-111.111111111111,4,2,2,60,0,0
53100,-111.111111111111,4,2,1,60,0,0
54700,-105.263157894737,4,2,2,70,0,1
55500,-105.263157894737,4,2,3,70,0,1
56033,-105.263157894737,4,2,1,70,0,1
57100,-105.263157894737,4,2,3,70,0,1
57366,-105.263157894737,4,2,2,70,0,1
57900,-105.263157894737,4,2,1,70,0,1
58700,-105.263157894737,4,2,3,70,0,1
58966,-105.263157894737,4,2,1,70,0,1
60300,-105.263157894737,4,2,3,70,0,1
60566,-105.263157894737,4,2,2,70,0,1
61900,-105.263157894737,4,2,3,70,0,1
62166,-105.263157894737,4,2,1,70,0,1
63500,-105.263157894737,4,2,3,70,0,1
63766,-105.263157894737,4,2,2,70,0,1
64300,-105.263157894737,4,2,1,70,0,1
65100,-105.263157894737,4,2,3,70,0,1
65366,-105.263157894737,4,2,1,70,0,1
66700,-105.263157894737,4,2,3,70,0,1
67500,-105.263157894737,4,2,2,70,0,1
68300,-105.263157894737,4,2,3,70,0,1
68833,-105.263157894737,4,2,2,70,0,1
69100,-105.263157894737,4,2,3,70,0,1
69500,-105.263157894737,4,2,2,70,0,1
69900,-105.263157894737,4,2,3,70,0,1
71233,-105.263157894737,4,2,2,70,0,1
71500,-105.263157894737,4,2,3,70,0,1
72700,-105.263157894737,4,2,2,70,0,1
73100,-105.263157894737,4,2,3,70,0,1
74300,-105.263157894737,4,2,2,70,0,1
74700,-105.263157894737,4,2,3,70,0,1
75233,-105.263157894737,4,2,2,70,0,1
75500,-105.263157894737,4,2,3,70,0,1
75900,-105.263157894737,4,2,2,70,0,1
76300,-105.263157894737,4,2,3,70,0,1
78566,-105.263157894737,4,2,2,70,0,1
78700,-105.263157894737,4,2,3,70,0,1
79100,-105.263157894737,4,2,2,70,0,1
82700,-105.263157894737,4,2,2,70,0,0
83500,-111.111111111111,4,2,2,60,0,0
88300,-117.647058823529,4,2,1,20,0,0

[Colours]
Combo1 : 255,128,255
Combo2 : 0,255,64
Combo3 : 128,255,255
Combo4 : 255,128,128
Combo5 : 255,255,128

[HitObjects]
66,256,300,6,0,P|87:293|123:313,1,85.0000016212464,8|0,0:0|0:0,0:0:0:0:
168,322,700,2,0,L|252:302,1,85.0000016212464
295,309,1100,2,0,P|335:319|376:309,1,85.0000016212464
437,244,1633,2,0,L|446:199,1,42.5000008106232
422,164,1900,2,0,L|391:38,2,127.50000243187,2|0|2,0:0|0:0|0:0,0:0:0:0:
277,269,3233,1,0,0:0:0:0:
205,322,3500,6,0,P|168:338|124:340,1,85.0000016212464,2|0,0:0|0:0,0:0:0:0:
86,316,3900,2,0,L|65:232,1,85.0000016212464
39,197,4300,2,0,L|58:113,1,85.0000016212464
123,53,4833,2,0,L|164:63,1,42.5000008106232
207,76,5100,2,0,P|267:90|329:76,2,127.50000243187,2|0|2,0:0|0:0|0:0,0:0:0:0:
156,246,6433,1,0,0:0:0:0:
117,326,6700,6,0,P|156:336|197:324,1,85.0000016212464,2|0,0:0|0:0,0:0:0:0:
237,302,7100,2,0,P|297:283|358:302,1,127.50000243187
445,302,7766,1,0,0:0:0:0:
479,219,8033,1,0,0:0:0:0:
417,154,8300,2,0,P|400:92|417:31,2,127.50000243187,2|0|0,0:0|0:0|0:0,0:0:0:0:
249,94,9633,2,0,L|206:103,1,42.5000008106232
164,115,9900,6,0,L|143:197,2,85.0000016212464,2|0|0,0:0|0:0|0:0,0:0:0:0:
121,102,10566,1,0,0:0:0:0:
77,90,10700,2,0,L|56:6,2,85.0000016212464
26,163,11500,2,0,P|7:222|24:283,1,127.50000243187,2|0,0:0|0:0,0:0:0:0:
64,305,12033,2,0,L|108:305,1,42.5000008106232
149,319,12300,2,0,P|170:383|233:338,1,170.000003242493,0|8,0:0|0:0,0:0:0:0:
217,240,13100,6,0,P|262:254|311:260,1,94.9999974632264,12|8,0:0|0:0,0:0:0:0:
408,255,13633,1,8,0:0:0:0:
461,170,13900,2,0,P|475:124|482:76,2,94.9999974632264,10|8|8,0:0|0:0|0:0,0:0:0:0:
408,255,14700,2,0,P|413:302|429:349,2,94.9999974632264,10|8|8,0:0|0:0|0:0,0:0:0:0:
318,211,15500,2,0,P|270:216|225:231,2,94.9999974632264,10|8|8,0:0|0:0|0:0,0:0:0:0:
345,114,16300,6,0,P|299:98|251:91,1,94.9999974632264,12|8,0:0|0:0,0:0:0:0:
159,58,16833,1,8,0:0:0:0:
97,136,17100,2,0,P|82:181|75:229,1,94.9999974632264,10|8,0:0|0:0,0:0:0:0:
105,323,17633,1,8,0:0:0:0:
202,345,17900,2,0,P|247:330|296:323,1,94.9999974632264,10|8,0:0|0:0,0:0:0:0:
393,325,18433,1,8,0:0:0:0:
343,238,18700,2,0,P|297:223|248:216,1,94.9999974632264,10|8,0:0|0:0,0:0:0:0:
152,218,19233,1,8,0:0:0:0:
200,130,19500,6,0,P|214:84|221:35,2,94.9999974632264,12|8|8,0:0|0:0|0:0,0:0:0:0:
152,218,20300,2,0,P|137:263|130:312,2,94.9999974632264,12|8|8,0:0|0:0|0:0,0:0:0:0:
100,132,21100,2,0,P|54:117|6:110,2,94.9999974632264,12|8|8,0:0|0:0|0:0,0:0:0:0:
200,130,21900,2,0,P|247:123|294:107,2,94.9999974632264,12|8|8,0:0|0:0|0:0,0:0:0:0:
152,218,22700,6,0,P|157:265|173:312,1,94.9999974632264,12|8,0:0|0:0,0:0:0:0:
263,351,23233,1,8,0:0:0:0:
336,283,23500,2,0,P|330:235|314:188,1,94.9999974632264,12|8,0:0|0:0,0:0:0:0:
225,150,24033,1,8,0:0:0:0:
275,63,24300,2,0,P|320:47|369:40,1,94.9999974632264,12|8,0:0|0:0,0:0:0:0:
461,71,24833,1,8,0:0:0:0:
461,170,25100,1,12,0:0:0:0:
363,192,25366,2,0,P|338:194|315:202,1,47.4999987316132,8|8,0:0|0:0,0:0:0:0:
269,217,25633,2,0,P|245:208|221:205,1,47.4999987316132,8|8,0:0|0:0,0:0:0:0:
178,222,25900,6,0,P|155:288|178:347,1,134.999995880127,12|2,0:0|0:0,0:0:0:0:
270,358,26566,1,2,0:0:0:0:
270,358,26700,2,0,P|313:344|359:337,1,89.9999972534181,8|2,0:0|0:0,0:0:0:0:
424,270,27233,2,0,L|432:222,1,44.999998626709,2|0,0:0|0:0,0:0:0:0:
399,191,27500,2,0,L|375:56,2,134.999995880127,2|2|8,0:0|0:0|0:0,0:0:0:0:
331,257,28566,1,2,0:0:0:0:
244,217,28833,2,0,L|198:224,1,44.999998626709,2|0,0:0|0:0,0:0:0:0:
156,244,29100,6,0,P|88:266|28:244,1,134.999995880127,2|2,0:0|0:0,0:0:0:0:
92,174,29766,1,2,0:0:0:0:
92,174,29900,2,0,P|133:151|176:153,1,89.9999972534181,8|2,0:0|0:0,0:0:0:0:
265,123,30433,1,2,0:0:0:0:
354,154,30700,2,0,L|376:289,2,134.999995880127,2|2|8,0:0|0:0|0:0,0:0:0:0:
336,61,31766,1,2,0:0:0:0:
265,123,32033,2,0,L|219:130,1,44.999998626709,2|0,0:0|0:0,0:0:0:0:
173,131,32300,6,0,P|106:108|46:131,1,134.999995880127,2|2,0:0|0:0,0:0:0:0:
110,200,32966,1,2,0:0:0:0:
110,200,33100,2,0,L|110:292,1,89.9999972534181,8|2,0:0|0:0,0:0:0:0:
192,336,33633,1,2,0:0:0:0:
276,292,33900,2,0,P|343:315|403:292,2,134.999995880127,2|2|8,0:0|0:0|0:0,0:0:0:0:
193,245,34966,1,2,0:0:0:0:
110,290,35233,2,0,L|61:281,1,44.999998626709,2|0,0:0|0:0,0:0:0:0:
28,252,35500,6,0,P|4:187|28:128,1,134.999995880127,2|2,0:0|0:0,0:0:0:0:
111,83,36166,1,2,0:0:0:0:
111,83,36300,2,0,P|154:96|199:102,1,89.9999972534181,8|2,0:0|0:0,0:0:0:0:
289,126,36833,2,0,P|311:122|335:115,1,44.999998626709,2|0,0:0|0:0,0:0:0:0:
370,86,37100,2,0,L|393:221,2,134.999995880127,10|10|10,0:0|0:0|0:0,0:0:0:0:
89,42,38700,6,0,P|76:85|88:129,1,89.9999972534181,6|2,0:0|0:0,0:0:0:0:
126,153,39100,2,0,L|215:136,1,89.9999972534181
252,107,39500,2,0,L|342:120,2,89.9999972534181,2|2|2,0:0|0:0|0:0,0:0:0:0:
276,198,40300,2,0,P|287:241|276:285,1,89.9999972534181,2|2,0:0|0:0,0:0:0:0:
240,314,40700,2,0,L|148:297,1,89.9999972534181
119,263,41100,2,0,L|27:277,2,89.9999972534181,2|2|10,0:0|0:0|0:0,0:0:0:0:
190,200,41900,6,0,P|233:187|277:199,1,89.9999972534181,2|2,0:0|0:0,0:0:0:0:
318,219,42300,2,0,P|361:230|405:218,1,89.9999972534181
436,184,42700,2,0,L|450:93,1,89.9999972534181,2|2,0:0|0:0,0:0:0:0:
362,61,43233,2,0,P|340:67|316:67,1,44.999998626709,2|0,0:0|0:0,0:0:0:0:
271,62,43500,2,0,B|182:46|182:46|140:68,2,134.999995880127,2|0|2,0:0|0:0|0:0,0:0:0:0:
315,142,44566,1,2,0:0:0:0:
271,226,44833,2,0,L|225:217,1,44.999998626709,10|0,0:0|0:0,0:0:0:0:
187,244,45100,6,0,P|150:269|104:272,1,89.9999972534181,6|2,0:0|0:0,0:0:0:0:
64,249,45500,2,0,L|48:159,1,89.9999972534181
87,132,45900,2,0,L|101:40,2,89.9999972534181,2|2|2,0:0|0:0|0:0,0:0:0:0:
185,134,46700,2,0,P|229:136|266:163,1,89.9999972534181,2|2,0:0|0:0,0:0:0:0:
296,198,47100,2,0,L|385:182,1,89.9999972534181
409,141,47500,2,0,L|423:50,2,89.9999972534181,2|2|10,0:0|0:0|0:0,0:0:0:0:
339,76,48300,6,0,P|256:74|184:134,1,179.999994506836,6|8,0:0|0:0,0:0:0:0:
114,197,49100,1,2,0:0:0:0:
45,132,49366,1,2,0:0:0:0:
115,68,49633,1,8,0:0:0:0:
184,133,49900,2,0,P|206:206|148:285,1,179.999994506836,2|8,0:0|0:0,0:0:0:0:
69,334,50700,1,2,0:0:0:0:
34,246,50966,1,2,0:0:0:0:
114,197,51233,1,8,0:0:0:0:
256,192,51500,12,2,53100,0:0:0:0:
328,75,54700,6,0,P|370:61|419:75,1,94.9999974632264,6|8,0:0|0:0,0:0:0:0:
437,120,55100,2,0,L|461:214,1,94.9999974632264,2|2,0:0|0:0,0:0:0:0:
421,244,55500,2,0,L|397:337,1,94.9999974632264,10|0,0:0|0:0,0:0:0:0:
297,337,56033,2,0,L|248:325,1,47.4999987316132,8|0,0:0|0:0,0:0:0:0:
200,325,56300,2,0,P|133:349|69:325,2,142.49999619484,10|8|10,0:0|0:0|0:0,0:0:0:0:
259,244,57366,2,0,L|271:195,2,47.4999987316132,2|8|2,0:0|0:0|0:0,0:0:0:0:
297,337,57900,6,0,P|339:350|388:337,1,94.9999974632264,10|0,0:0|0:0,0:0:0:0:
416,297,58300,2,0,L|438:203,1,94.9999974632264,8|8,0:0|0:0,0:0:0:0:
401,170,58700,2,0,L|377:74,1,94.9999974632264,10|8,0:0|0:0,0:0:0:0:
283,48,59233,2,0,L|235:58,1,47.4999987316132,8|0,0:0|0:0,0:0:0:0:
188,73,59500,2,0,P|122:97|57:73,2,142.49999619484,10|8|12,0:0|0:0|0:0,0:0:0:0:
258,144,60566,2,0,L|269:190,1,47.4999987316132,2|2,0:0|0:0,0:0:0:0:
236,227,60833,2,0,L|224:274,1,47.4999987316132,2|2,0:0|0:0,0:0:0:0:
189,309,61100,6,0,P|147:322|98:309,1,94.9999974632264,6|0,0:0|0:0,0:0:0:0:
62,274,61500,2,0,L|38:178,1,94.9999974632264,2|2,0:0|0:0,0:0:0:0:
60,136,61900,1,10,0:0:0:0:
157,116,62166,2,0,B|192:148|192:148|240:145,1,94.9999974632264,8|8,0:0|0:0,0:0:0:0:
314,211,62700,2,0,P|338:144|314:80,2,142.49999619484,10|8|10,0:0|0:0|0:0,0:0:0:0:
267,299,63766,2,0,L|267:348,2,47.4999987316132,2|8|2,0:0|0:0|0:0,0:0:0:0:
314,211,64300,6,0,P|267:199|221:211,2,94.9999974632264,10|0|0,0:0|0:0|0:0,0:0:0:0:
351,244,64966,1,8,0:0:0:0:
387,277,65100,2,0,P|432:288|479:277,2,94.9999974632264,10|8|8,0:0|0:0|0:0,0:0:0:0:
408,179,65900,2,0,P|425:110|408:42,1,142.49999619484,10|8,0:0|0:0,0:0:0:0:
359,28,66433,2,0,L|311:40,1,47.4999987316132,0|8,0:0|0:0,0:0:0:0:
264,28,66700,1,10,0:0:0:0:
175,72,66966,2,0,L|163:120,1,47.4999987316132,8|8,0:0|0:0,0:0:0:0:
196,155,67233,2,0,L|207:201,1,47.4999987316132,8|8,0:0|0:0,0:0:0:0:
174,237,67500,6,0,P|160:279|174:328,1,94.9999974632264,6|8,0:0|0:0,0:0:0:0:
216,352,67900,2,0,L|310:328,1,94.9999974632264,2|2,0:0|0:0,0:0:0:0:
340,290,68300,2,0,L|432:313,1,94.9999974632264,10|8,0:0|0:0,0:0:0:0:
456,216,68833,2,0,L|409:204,1,47.4999987316132,8|2,0:0|0:0,0:0:0:0:
361,192,69100,2,0,P|341:124|362:57,2,142.49999619484,10|2|10,0:0|0:0|0:0,0:0:0:0:
340,290,70166,1,8,0:0:0:0:
248,329,70433,1,8,0:0:0:0:
150,308,70700,6,0,L|57:331,1,94.9999974632264,10|8,0:0|0:0,0:0:0:0:
74,232,71233,2,0,L|120:220,1,47.4999987316132,8|2,0:0|0:0,0:0:0:0:
169,213,71500,2,0,P|211:227|260:213,1,94.9999974632264,10|8,0:0|0:0,0:0:0:0:
339,155,72033,1,8,0:0:0:0:
420,213,72300,2,0,L|455:353,2,142.49999619484,10|2|10,0:0|0:0|0:0,0:0:0:0:
430,114,73366,1,12,0:0:0:0:
339,155,73633,1,8,0:0:0:0:
270,82,73900,6,0,L|177:58,1,94.9999974632264,12|8,0:0|0:0,0:0:0:0:
140,90,74300,2,0,L|47:113,1,94.9999974632264,2|2,0:0|0:0,0:0:0:0:
8,143,74700,2,0,P|-6:187|8:232,1,94.9999974632264,10|8,0:0|0:0,0:0:0:0:
47,324,75233,2,0,L|93:335,1,47.4999987316132,8|2,0:0|0:0,0:0:0:0:
140,352,75500,2,0,P|207:371|274:350,2,142.49999619484,10|2|10,0:0|0:0|0:0,0:0:0:0:
120,254,76566,2,0,L|144:161,1,94.9999974632264,8|8,0:0|0:0,0:0:0:0:
97,73,77100,5,10,0:0:0:0:
185,28,77366,2,0,P|229:14|274:28,1,94.9999974632264,8|8,0:0|0:0,0:0:0:0:
374,42,77900,2,0,P|418:56|463:42,1,94.9999974632264,10|8,0:0|0:0,0:0:0:0:
493,137,78433,2,0,L|481:183,1,47.4999987316132,8|2,0:0|0:0,0:0:0:0:
440,211,78700,2,0,L|475:350,2,142.49999619484,10|2|12,0:0|0:0|0:0,0:0:0:0:
342,196,79766,2,0,P|298:210|253:196,1,94.9999974632264,8|8,0:0|0:0,0:0:0:0:
158,161,80300,5,6,0:0:0:0:
81,225,80566,2,0,P|52:261|50:308,1,94.9999974632264,8|8,0:0|0:0,0:0:0:0:
144,343,81100,2,0,P|172:306|174:259,1,94.9999974632264,6|8,0:0|0:0,0:0:0:0:
158,161,81633,2,0,L|170:115,1,47.4999987316132,8|8,0:0|0:0,0:0:0:0:
201,75,81900,2,0,P|245:61|290:75,1,94.9999974632264,12|8,0:0|0:0,0:0:0:0:
382,113,82433,1,2,0:0:0:0:
474,75,82700,1,6,0:0:0:0:
312,309,83500,6,0,P|244:283|178:275,1,134.999995880127,6|8,0:0|0:0,0:0:0:0:
88,285,84166,1,8,0:0:0:0:
88,285,84300,2,0,P|44:297|1:285,2,89.9999972534181,2|2|8,0:0|0:0|0:0,0:0:0:0:
127,199,85100,2,0,P|136:132|160:69,1,134.999995880127,2|8,0:0|0:0,0:0:0:0:
253,50,85766,1,8,0:0:0:0:
253,50,85900,2,0,P|297:62|340:50,2,89.9999972534181,2|2|8,0:0|0:0|0:0,0:0:0:0:
160,69,86700,5,6,0:0:0:0:
111,150,86966,2,0,L|133:237,1,89.9999972534181,8|8,0:0|0:0,0:0:0:0:
97,325,87500,1,6,0:0:0:0:
175,378,87766,2,0,L|218:366,1,44.999998626709,8|8,0:0|0:0,0:0:0:0:
258,340,88033,2,0,L|301:351,1,44.999998626709,8|8,0:0|0:0,0:0:0:0:
346,356,88300,6,0,P|374:326|381:282,2,85.0000016212464,2|2|2,0:0|0:0|0:0,0:0:0:0:
258,340,89100,1,2,0:0:0:0:
