osu file format v14

[General]
AudioFilename: Noise.mp3
AudioLeadIn: 0
PreviewTime: 54700
Countdown: 0
SampleSet: Soft
StackLeniency: 0.4
Mode: 0
LetterboxInBreaks: 0
WidescreenStoryboard: 0

[Editor]
Bookmarks: 300,13100,25900,38700,48300,54700,67500,80233,82700,88300
DistanceSpacing: 1.9
BeatDivisor: 4
GridSize: 32
TimelineZoom: 3.599998

[Metadata]
Title:Noise
TitleUnicode:ノイズ
Artist:MIOYAMAZAKI
ArtistUnicode:ミオヤマザキ
Creator:kunka
Version:Milan-'s Extra
Source:地獄少女 宵伽
Tags:opening tv size jigoku shoujo yoi no togi hell girl Milan- Makyu kunkakunkakunkakunka
BeatmapID:1365253
BeatmapSetID:640797

[Difficulty]
HPDrainRate:6
CircleSize:4.1
OverallDifficulty:8.6
ApproachRate:9.3
SliderMultiplier:1.4
SliderTickRate:1

[Events]
//Background and Video events
0,0,"BG.jpg",0,0
Video,0,"Noise.avi"
//Break Periods
//Storyboard Layer 0 (Background)
//Storyboard Layer 1 (Fail)
//Storyboard Layer 2 (Pass)
//Storyboard Layer 3 (Foreground)
//Storyboard Sound Samples

[TimingPoints]
300,266.666666666667,3,2,70,30,1,0
300,-166.666666666667,3,2,70,30,0,0
13100,-83.3333333333333,3,2,70,55,0,0
25900,-125,3,2,70,40,0,0
37100,-125,3,2,70,35,0,0
37500,-125,3,2,70,30,0,0
37900,-200,3,2,70,25,0,0
38700,-100,3,2,70,45,0,0
40033,-125,3,2,70,45,0,0
40300,-100,3,2,70,45,0,0
41366,-125,3,2,70,45,0,0
41633,-83.3333333333333,3,2,70,45,0,0
41900,-100,3,2,70,45,0,0
43233,-125,3,2,70,45,0,0
43500,-100,3,2,70,45,0,0
44566,-125,3,2,70,45,0,0
44833,-83.3333333333333,3,2,70,45,0,0
45100,-100,3,2,70,45,0,0
46433,-125,3,2,70,45,0,0
46700,-100,3,2,70,45,0,0
47766,-125,3,2,70,45,0,0
48033,-83.3333333333333,3,2,70,45,0,0
48300,-125,3,2,70,40,0,0
48833,-166.666666666667,3,2,70,40,0,0
49633,-100,3,2,70,40,0,0
49900,-125,3,2,70,35,0,0
50433,-166.666666666667,3,2,70,40,0,0
51233,-100,3,2,70,40,0,0
51500,-125,3,2,70,35,0,0
52033,-166.666666666667,3,2,70,40,0,0
52566,-166.666666666667,3,2,70,45,0,0
53100,-166.666666666667,3,2,70,35,0,0
54700,-71.4285714285714,4,2,70,65,0,1
67433,-71.4285714285714,4,2,70,60,0,0
67500,-71.4285714285714,4,2,70,60,0,1
80233,-71.4285714285714,4,2,70,60,0,0
80300,-83.3333333333333,4,2,70,60,0,1
81033,-83.3333333333333,4,2,70,60,0,0
81100,-83.3333333333333,4,2,70,60,0,1
81833,-83.3333333333333,4,2,70,60,0,0
81900,-83.3333333333333,4,2,70,60,0,1
82700,-83.3333333333333,4,2,70,60,0,0
83500,-83.3333333333333,4,2,70,55,0,0
84300,-100,4,2,70,55,0,0
85100,-83.3333333333333,4,2,70,55,0,0
85900,-100,4,2,70,55,0,0
86700,-71.4285714285714,4,2,70,60,0,0
88300,-71.4285714285714,4,2,70,25,0,0
89100,-1000,4,2,70,25,0,0
89366,-1000,4,2,70,10,0,0

[Colours]
Combo1 : 255,128,255
Combo2 : 0,255,64
Combo3 : 128,255,255
Combo4 : 255,128,128
Combo5 : 255,255,128

[HitObjects]
105,41,300,6,0,P|132:73|139:114,1,83.9999974365235,6|0,0:0|0:0,0:0:0:0:
218,101,700,2,0,P|214:142|190:176,1,83.9999974365235,2|0,0:0|0:0,0:0:0:0:
261,222,1100,2,0,P|229:248|115:219,1,167.999994873047,2|0,0:0|0:0,0:0:0:0:
156,289,1766,1,0,0:0:0:0:
55,376,1900,6,0,P|97:379|137:366,1,83.9999974365235,2|0,0:0|0:0,0:0:0:0:
216,378,2300,2,0,P|247:350|265:313,1,83.9999974365235,2|0,0:0|0:0,0:0:0:0:
341,288,2700,2,0,P|343:246|259:152,1,167.999994873047,2|0,0:0|0:0,0:0:0:0:
267,154,3500,6,0,P|311:149|357:168,1,83.9999974365235,2|0,0:0|0:0,0:0:0:0:
428,149,3900,2,0,P|409:112|377:87,1,83.9999974365235,2|0,0:0|0:0,0:0:0:0:
502,117,4300,2,0,P|507:158|415:230,1,167.999994873047,2|0,0:0|0:0,0:0:0:0:
490,265,4966,1,0,0:0:0:0:
375,373,5100,6,0,P|390:335|423:309,1,83.9999974365235,2|0,0:0|0:0,0:0:0:0:
300,348,5500,2,0,L|297:264,1,83.9999974365235,2|0,0:0|0:0,0:0:0:0:
226,380,5900,2,0,P|193:335|72:336,1,167.999994873047,2|0,0:0|0:0,0:0:0:0:
87,325,6700,6,0,P|113:281|115:241,1,83.9999974365235,2|0,0:0|0:0,0:0:0:0:
188,215,7100,2,0,P|175:165|148:135,1,83.9999974365235,2|0,0:0|0:0,0:0:0:0:
195,71,7500,2,0,P|151:44|110:42,2,83.9999974365235,2|0|0,0:0|0:0|0:0,0:0:0:0:
195,71,8300,6,0,P|236:65|270:42,1,83.9999974365235,2|0,0:0|0:0,0:0:0:0:
347,65,8700,2,0,P|338:106|313:140,1,83.9999974365235,2|0,0:0|0:0,0:0:0:0:
445,207,9100,2,0,P|459:126|424:51,1,167.999994873047,2|0,0:0|0:0,0:0:0:0:
492,93,9766,1,0,0:0:0:0:
405,41,9900,6,0,P|366:46|319:36,2,83.9999974365235,2|0|0,0:0|0:0|0:0,0:0:0:0:
395,146,10566,1,0,0:0:0:0:
292,123,10700,2,0,P|260:98|234:58,2,83.9999974365235,2|0|0,0:0|0:0|0:0,0:0:0:0:
292,123,11500,6,0,P|236:140|197:200,1,125.999996154785,2|0,0:0|0:0,0:0:0:0:
124,163,12033,2,0,P|115:208|114:218,1,41.9999987182618,2|0,0:0|0:0,0:0:0:0:
86,278,12300,2,0,L|62:111,1,167.999994873047,2|2,0:0|0:3,0:0:0:0:
491,141,13100,6,0,P|447:97|385:96,1,125.999996154785,4|0,0:0|0:0,0:0:0:0:
361,22,13366,2,0,P|315:63|312:116,1,83.9999974365235,8|0,0:0|3:0,0:0:0:0:
153,76,13633,2,0,P|145:117|160:156,1,83.9999974365235,8|0,0:0|3:0,0:0:0:0:
229,109,13900,5,10,0:0:0:0:
130,235,14033,1,0,0:0:0:0:
288,258,14166,1,10,0:0:0:0:
222,205,14300,5,0,3:0:0:0:
209,287,14433,1,10,0:0:0:0:
288,258,14566,1,0,3:0:0:0:
158,354,14700,6,0,P|218:369|273:340,1,125.999996154785,14|0,0:0|0:0,0:0:0:0:
273,340,14966,1,8,0:0:0:0:
88,301,15100,2,0,P|74:337|77:387,2,83.9999974365235,0|8|0,3:0|0:0|3:0,0:0:0:0:
138,143,15500,5,10,0:0:0:0:
210,190,15633,1,0,0:0:0:0:
135,228,15766,1,10,0:0:0:0:
138,143,15900,5,0,3:0:0:0:
300,155,16033,1,10,0:0:0:0:
209,287,16166,1,0,3:0:0:0:
229,10,16300,6,0,L|363:5,1,125.999996154785,14|0,0:0|0:0,0:0:0:0:
354,5,16566,1,10,0:0:0:0:
442,195,16700,5,0,3:0:0:0:
383,135,16833,1,10,0:0:0:0:
361,216,16966,1,0,3:0:0:0:
442,195,17100,5,10,0:0:0:0:
300,155,17233,1,0,0:0:0:0:
334,299,17366,1,10,0:0:0:0:
361,216,17500,5,0,3:0:0:0:
279,236,17633,1,10,0:0:0:0:
334,299,17766,1,0,3:0:0:0:
327,75,17900,6,0,L|193:70,1,125.999996154785,14|0,0:0|0:0,0:0:0:0:
131,98,18166,2,0,L|47:94,1,83.9999974365235,8|0,0:0|3:0,0:0:0:0:
300,155,18433,1,10,0:0:0:0:
327,75,18566,1,2,3:2:0:0:
279,236,18700,6,0,L|145:231,1,125.999996154785,12|0,0:0|0:0,0:0:0:0:
83,259,18966,2,0,L|0:255,1,83.9999974365235,8|0,0:0|3:0,0:0:0:0:
252,316,19233,1,14,0:0:0:0:
279,236,19366,1,2,3:2:0:0:
427,362,19500,6,0,P|395:310|335:298,1,125.999996154785,12|0,0:0|0:0,0:0:0:0:
362,218,19766,2,0,P|371:177|365:135,1,83.9999974365235,8|0,0:0|3:0,0:0:0:0:
202,74,20033,1,10,0:2:0:0:
279,236,20166,1,2,3:2:0:0:
198,219,20300,6,0,P|230:167|290:155,1,125.999996154785,12|0,0:0|0:0,0:0:0:0:
310,82,20566,2,0,P|301:41|307:-1,1,83.9999974365235,8|0,0:0|0:0,0:0:0:0:
446,127,20833,1,10,0:2:0:0:
279,236,20966,1,2,3:2:0:0:
123,108,21100,6,0,L|111:251,1,125.999996154785,12|0,0:0|0:0,0:0:0:0:
43,261,21366,2,0,L|56:353,1,83.9999974365235,8|0,0:0|3:0,0:0:0:0:
200,145,21633,1,10,0:2:0:0:
28,179,21766,1,2,3:2:0:0:
277,108,21900,6,0,L|289:251,1,125.999996154785,12|0,0:0|0:0,0:0:0:0:
357,261,22166,2,0,L|344:353,1,83.9999974365235,8|0,0:0|3:0,0:0:0:0:
200,145,22433,1,10,0:2:0:0:
374,180,22566,1,2,3:2:0:0:
267,320,22700,6,0,P|218:281|156:282,1,125.999996154785,12|0,0:0|0:0,0:0:0:0:
81,264,22966,2,0,L|94:366,1,83.9999974365235,8|0,0:0|3:0,0:0:0:0:
200,145,23233,1,8,0:0:0:0:
138,202,23366,1,0,3:0:0:0:
282,175,23500,6,0,P|330:136|392:137,1,125.999996154785,12|0,0:0|0:0,0:0:0:0:
468,119,23766,2,0,L|455:221,1,83.9999974365235,8|0,0:0|3:0,0:0:0:0:
349,0,24033,1,8,0:0:0:0:
411,57,24166,1,0,3:0:0:0:
242,46,24300,6,0,P|180:47|131:8,1,125.999996154785,12|0,0:0|0:0,0:0:0:0:
53,17,24566,2,0,L|65:120,1,83.9999974365235,8|0,0:0|3:0,0:0:0:0:
189,229,24833,1,8,0:0:0:0:
200,145,24966,1,0,3:0:0:0:
153,308,25100,6,0,P|214:309|263:270,1,125.999996154785,4|0,0:0|0:0,0:0:0:0:
263,270,25366,1,8,0:0:0:0:
105,241,25500,1,8,0:0:0:0:
242,384,25633,1,8,0:0:0:0:
298,194,25766,1,8,0:0:0:0:
164,52,25900,6,0,L|186:161,1,112,4|0,0:0|0:0,0:0:0:0:
237,10,26300,2,0,L|260:120,1,112,0|0,3:0|3:0,0:0:0:0:
323,11,26700,2,0,L|340:93,1,84,8|0,0:0|0:0,0:0:0:0:
340,93,26966,2,0,L|402:37,1,84,0|0,3:0|0:0,0:0:0:0:
402,37,27233,2,0,L|322:10,1,84,2|0,3:2|0:0,0:0:0:0:
481,0,27500,6,0,P|490:53|456:104,1,112,2|0,3:2|0:0,0:0:0:0:
408,272,27900,2,0,P|461:260|493:216,1,112,0|0,3:0|3:0,0:0:0:0:
328,365,28300,6,0,P|288:371|250:346,1,84,10|0,0:0|0:0,0:0:0:0:
253,349,28566,2,0,P|267:311|308:290,1,84,2|0,3:2|0:0,0:0:0:0:
303,290,28833,2,0,P|327:322|326:369,1,84,2|0,3:2|0:0,0:0:0:0:
169,365,29100,6,0,L|49:375,1,112,2|0,3:2|0:0,0:0:0:0:
128,266,29500,2,0,L|16:256,1,112,2|0,3:2|3:0,0:0:0:0:
161,158,29900,6,0,L|70:165,1,84,8|0,0:0|0:0,0:0:0:0:
77,164,30166,2,0,L|115:82,1,84,0|0,3:0|0:0,0:0:0:0:
112,88,30433,2,0,L|163:162,1,84,2|0,3:2|0:0,0:0:0:0:
51,37,30700,6,0,P|95:7|149:16,1,112,2|0,3:2|0:0,0:0:0:0:
378,56,31100,2,0,P|333:87|279:77,1,112,2|0,3:2|3:0,0:0:0:0:
160,135,31500,6,0,P|197:156|239:162,1,84,8|0,0:0|0:0,0:0:0:0:
237,162,31766,2,0,P|200:184|174:217,1,84,2|0,3:2|0:0,0:0:0:0:
174,215,32033,2,0,P|173:171|157:132,1,84,2|0,3:2|0:0,0:0:0:0:
264,250,32300,6,0,L|252:371,1,112,2|0,3:2|0:0,0:0:0:0:
340,154,32700,2,0,L|352:275,1,112,0|0,3:0|3:0,0:0:0:0:
436,56,33100,6,0,L|427:140,1,84,8|0,0:0|0:0,0:0:0:0:
436,56,33366,2,0,L|366:6,1,84,0|0,3:0|0:0,0:0:0:0:
436,56,33633,2,0,L|513:20,1,84,2|0,3:2|0:0,0:0:0:0:
340,103,33900,6,0,P|287:117|237:93,1,112,2|0,3:2|0:0,0:0:0:0:
237,268,34300,2,0,P|189:240|171:189,1,112,0|0,3:2|3:0,0:0:0:0:
69,328,34700,6,0,P|57:286|76:248,1,84,10|0,0:2|0:0,0:0:0:0:
69,328,34966,2,0,P|110:338|134:374,1,84,2|0,3:2|0:0,0:0:0:0:
69,328,35233,2,0,P|38:358|-3:361,1,84,2|0,3:2|0:0,0:0:0:0:
156,270,35500,6,0,L|275:277,1,112,2|0,3:2|0:0,0:0:0:0:
425,166,35900,2,0,L|314:173,1,112,2|0,3:2|3:0,0:0:0:0:
132,77,36300,2,0,L|216:82,1,84,8|0,0:0|0:0,0:0:0:0:
132,77,36566,2,0,L|85:147,1,84,0|0,3:0|0:0,0:0:0:0:
132,77,36833,2,0,L|94:1,1,84,2|0,3:2|0:2,0:0:0:0:
175,164,37100,6,0,P|152:213|102:238,1,112,4|0,0:0|0:0,0:0:0:0:
320,136,37500,2,0,P|289:91|292:36,1,112,4|0,0:0|0:0,0:0:0:0:
271,275,37900,6,0,P|326:271|392:329,1,140,4|0,0:0|0:0,0:0:0:0:
389,322,38700,6,0,P|430:301|449:246,1,105,6|0,0:0|0:0,0:0:0:0:
461,240,38966,2,0,P|453:206|432:178,1,70,0|0,3:0|0:0,0:0:0:0:
370,57,39233,2,0,P|405:62|434:80,1,70,0|0,3:0|0:0,0:0:0:0:
290,0,39500,6,0,P|255:8|212:70,1,105,2|0,3:2|0:0,0:0:0:0:
245,165,39766,2,0,P|254:114|230:69,1,105,2|0,3:2|0:0,0:0:0:0:
135,58,40033,2,0,P|172:78|213:77,1,84,2|0,3:0|0:0,0:0:0:0:
159,162,40300,6,0,P|131:198|125:242,1,70,0|0,3:0|0:0,0:0:0:0:
213,384,40566,2,0,P|197:352|195:318,1,70,0|0,3:0|0:0,0:0:0:0:
326,188,40833,2,0,P|303:214|292:247,1,70,0|0,3:0|0:0,0:0:0:0:
418,384,41100,6,0,P|402:352|417:271,1,105,2|0,3:2|0:0,0:0:0:0:
503,265,41366,2,0,L|419:268,1,84,2|0,3:0|0:0,0:0:0:0:
292,247,41633,2,0,L|417:254,1,125.999996154785,8|0,0:0|0:0,0:0:0:0:
477,161,41900,6,0,P|441:169|370:122,1,105,0|0,3:0|0:0,0:0:0:0:
368,136,42166,2,0,P|362:86|377:47,1,70,0|0,3:0|0:0,0:0:0:0:
255,163,42433,2,0,P|215:131|198:93,1,70,0|0,3:0|0:0,0:0:0:0:
222,278,42700,6,0,P|171:284|112:241,1,105,2|0,3:2|0:0,0:0:0:0:
42,333,42966,2,0,P|62:285|106:259,1,105,2|0,3:2|0:0,0:0:0:0:
99,162,43233,2,0,P|117:200|116:241,1,84,2|0,3:0|0:0,0:0:0:0:
89,151,43500,6,0,P|97:83|134:47,1,105,2|0,3:2|0:0,0:0:0:0:
104,59,43766,1,0,3:0:0:0:
339,44,43900,2,0,L|266:34,1,70,2|0,0:2|3:0,0:0:0:0:
199,119,44166,1,0,0:0:0:0:
439,18,44300,6,0,P|474:79|466:127,1,105,2|0,3:2|0:0,0:0:0:0:
376,131,44566,2,0,L|481:120,1,84,2|0,3:0|0:0,0:0:0:0:
420,238,44833,2,0,P|422:186|482:128,1,125.999996154785,8|0,0:0|0:0,0:0:0:0:
431,251,45100,6,0,P|456:296|447:358,1,105,6|0,0:0|0:0,0:0:0:0:
441,357,45366,2,0,L|366:349,1,70,0|0,3:0|0:0,0:0:0:0:
290,195,45633,2,0,L|231:242,1,70,0|0,3:0|0:0,0:0:0:0:
90,143,45900,6,0,L|77:255,1,105,2|0,3:2|0:0,0:0:0:0:
178,313,46166,2,0,L|87:245,1,105,2|0,3:2|0:0,0:0:0:0:
5,296,46433,2,0,L|82:262,1,84,2|0,3:0|0:0,0:0:0:0:
188,133,46700,6,0,P|184:167|166:197,1,70,0|0,3:0|0:0,0:0:0:0:
281,346,46966,2,0,P|263:316|259:281,1,70,0|0,3:0|0:0,0:0:0:0:
376,135,47233,2,0,P|372:169|354:199,1,70,0|0,3:0|0:0,0:0:0:0:
469,348,47500,6,0,P|451:318|464:241,1,105,2|0,3:2|0:0,0:0:0:0:
465,169,47766,2,0,L|476:279,1,84,2|0,3:0|0:0,0:0:0:0:
364,285,48033,2,0,L|497:262,1,125.999996154785,8|0,0:0|0:0,0:0:0:0:
354,199,48300,6,0,L|177:176,1,168,6|0,0:0|3:0,0:0:0:0:
58,62,48833,6,0,P|86:75|103:100,1,62.9999980773926,8|0,0:0|0:0,0:0:0:0:
103,100,49100,2,0,P|113:129|107:159,1,62.9999980773926,0|0,3:0|0:0,0:0:0:0:
107,159,49366,2,0,P|93:187|68:204,1,62.9999980773926,0|0,3:0|0:0,0:0:0:0:
68,204,49633,2,0,P|93:221|113:306,1,105,8|0,0:0|0:0,0:0:0:0:
39,279,49900,6,0,L|216:256,1,168,6|0,0:0|3:0,0:0:0:0:
335,142,50433,6,0,P|306:155|289:180,1,62.9999980773926,8|0,0:0|0:0,0:0:0:0:
290,180,50700,2,0,P|279:209|285:239,1,62.9999980773926,0|0,3:0|0:0,0:0:0:0:
286,239,50966,2,0,P|299:267|324:284,1,62.9999980773926,0|0,3:0|0:0,0:0:0:0:
325,284,51233,2,0,P|299:301|280:386,1,105,8|0,0:0|0:0,0:0:0:0:
353,360,51500,6,0,L|176:337,1,168,6|0,0:0|3:0,0:0:0:0:
56,220,52033,2,0,P|84:233|101:258,1,62.9999980773926,8|0,0:0|0:0,0:0:0:0:
101,258,52300,2,0,P|111:287|105:317,1,62.9999980773926,2|0,3:0|0:0,0:0:0:0:
105,317,52566,5,8,0:0:0:0:
20,302,52700,1,8,0:0:0:0:
149,144,52833,1,8,0:0:0:0:
340,206,52966,1,8,0:0:0:0:
214,367,53100,5,2,0:0:0:0:
340,206,53366,1,2,0:0:0:0:
149,144,53633,1,2,0:0:0:0:
20,302,53900,1,2,0:0:0:0:
45,167,54700,6,0,P|106:82|212:48,1,195.999994018555,4|0,0:0|0:0,0:0:0:0:
372,168,55100,2,0,P|282:131|187:150,1,195.999994018555,4|0,0:0|0:0,0:0:0:0:
302,241,55500,2,0,P|382:296|420:385,1,195.999994018555,12|0,0:0|0:0,0:0:0:0:
302,241,55900,5,8,0:0:0:0:
372,168,56033,1,2,0:0:0:0:
332,72,56166,1,2,0:0:0:0:
313,346,56300,6,0,P|215:378|96:358,1,195.999994018555,4|0,0:0|0:0,0:0:0:0:
29,163,56700,2,0,P|91:237|178:280,1,195.999994018555,4|0,0:0|0:0,0:0:0:0:
183,188,57100,2,0,P|151:95|160:0,1,195.999994018555,12|0,0:0|0:0,0:0:0:0:
183,188,57500,5,8,0:0:0:0:
178,280,57633,1,2,0:0:0:0:
124,368,57766,1,2,0:0:0:0:
250,121,57900,6,0,P|325:50|428:32,1,195.999994018555,4|0,0:0|0:0,0:0:0:0:
512,180,58300,2,0,P|419:152|326:177,1,195.999994018555,4|0,0:0|0:0,0:0:0:0:
353,266,58700,2,0,P|451:295|519:375,1,195.999994018555,12|0,0:0|0:0,0:0:0:0:
353,266,59100,5,8,0:0:0:0:
326,177,59233,1,2,0:0:0:0:
250,121,59366,1,2,0:0:0:0:
335,359,59500,6,0,P|220:311|132:323,1,195.999994018555,4|0,0:0|0:0,0:0:0:0:
145,231,59900,2,0,P|229:181|326:177,1,195.999994018555,4|0,0:0|0:0,0:0:0:0:
213,31,60300,2,0,P|113:106|80:188,1,195.999994018555,12|4,0:0|0:3,0:0:0:0:
213,31,60700,5,8,0:3:0:0:
145,232,60833,1,4,0:3:0:0:
326,177,60966,1,8,0:3:0:0:
335,359,61100,6,0,P|283:305|238:171,1,195.999994018555,4|0,0:0|0:0,0:0:0:0:
194,47,61500,2,0,P|150:134|144:231,1,195.999994018555,4|0,0:0|0:0,0:0:0:0:
374,261,61900,6,0,P|415:233|474:169,1,97.9999970092774,12|0,0:0|0:0,0:0:0:0:
239,193,62166,1,2,0:0:0:0:
374,261,62300,1,8,0:0:0:0:
407,114,62433,2,0,P|416:65|413:-21,1,97.9999970092774,2|0,0:0|0:0,0:0:0:0:
328,350,62700,6,0,P|230:382|111:362,1,195.999994018555,4|0,0:0|0:0,0:0:0:0:
62,176,63100,2,0,P|124:250|211:293,1,195.999994018555,4|0,0:0|0:0,0:0:0:0:
179,94,63500,6,0,P|163:48|168:0,1,97.9999970092774,12|0,0:0|0:0,0:0:0:0:
239,193,63766,1,2,0:0:0:0:
291,54,63900,1,8,0:0:0:0:
424,120,64033,2,0,P|471:111|512:84,1,97.9999970092774,2|0,0:0|0:0,0:0:0:0:
498,298,64300,6,0,P|437:222|344:200,1,195.999994018555,4|0,0:0|0:0,0:0:0:0:
157,258,64700,2,0,P|123:292|110:339,2,97.9999970092774,2|0|0,0:0|0:0|0:0,0:0:0:0:
387,302,65100,6,0,P|292:292|210:343,1,195.999994018555,12|0,0:0|0:0,0:0:0:0:
34,158,65500,1,8,0:0:0:0:
32,384,65633,2,0,P|8:341|7:293,1,97.9999970092774,2|0,0:0|0:0,0:0:0:0:
168,37,65900,6,0,P|78:75|34:159,1,195.999994018555,4|0,0:0|0:0,0:0:0:0:
272,293,66300,2,0,P|229:268|204:226,2,97.9999970092774,2|0|0,0:0|0:0|0:0,0:0:0:0:
143,143,66700,6,0,P|109:207|116:279,1,146.999995513916,12|0,0:0|0:0,0:0:0:0:
117,280,66966,1,8,0:0:0:0:
143,143,67100,1,8,0:0:0:0:
315,378,67233,1,8,0:0:0:0:
361,103,67366,1,8,0:0:0:0:
489,279,67500,6,0,P|440:225|369:224,1,146.999995513916,4|0,0:0|0:0,0:0:0:0:
319,273,67766,2,0,L|223:252,1,97.9999970092774,8|0,0:0|3:0,0:0:0:0:
62,331,68033,1,8,0:0:0:0:
238,268,68166,1,0,3:0:0:0:
15,175,68300,6,0,P|63:121|134:120,1,146.999995513916,12|0,0:0|0:0,0:0:0:0:
185,169,68566,2,0,L|281:148,1,97.9999970092774,8|0,0:0|3:0,0:0:0:0:
442,227,68833,1,8,0:0:0:0:
266,164,68966,1,0,3:0:0:0:
464,26,69100,6,0,P|493:91|465:157,1,146.999995513916,12|0,0:0|0:0,0:0:0:0:
442,227,69366,2,0,L|346:206,1,97.9999970092774,8|0,0:0|3:0,0:0:0:0:
212,73,69633,1,8,0:0:0:0:
276,259,69766,1,0,3:0:0:0:
81,140,69900,6,0,P|51:205|79:271,1,146.999995513916,12|0,0:0|0:0,0:0:0:0:
103,341,70166,2,0,L|199:320,1,97.9999970092774,8|0,0:0|3:0,0:0:0:0:
333,187,70433,1,8,0:0:0:0:
269,373,70566,1,0,3:0:0:0:
497,320,70700,6,0,L|352:294,1,146.999995513916,12|0,0:0|0:0,0:0:0:0:
412,223,70966,2,0,L|516:242,1,97.9999970092774,8|0,0:0|3:0,0:0:0:0:
284,357,71233,1,8,0:0:0:0:
396,209,71366,1,0,3:0:0:0:
166,157,71500,6,0,L|310:131,1,146.999995513916,12|0,0:0|0:0,0:0:0:0:
251,60,71766,2,0,L|147:79,1,97.9999970092774,8|0,0:0|3:0,0:0:0:0:
379,194,72033,1,8,0:0:0:0:
267,46,72166,1,0,3:0:0:0:
194,243,72300,6,0,P|113:236|77:143,1,146.999995513916,4|0,0:0|0:0,0:0:0:0:
0,189,72566,2,0,L|20:315,1,97.9999970092774,8|0,0:0|3:0,0:0:0:0:
256,384,72833,2,0,L|271:287,1,97.9999970092774,8|0,0:0|3:0,0:0:0:0:
166,157,73100,5,4,0:0:0:0:
120,360,73233,1,0,0:0:0:0:
172,138,73366,2,0,L|326:117,1,146.999995513916,12|0,0:0|0:0,0:0:0:0:
326,44,73633,2,0,L|449:53,1,97.9999970092774,8|0,0:0|0:0,0:0:0:0:
489,279,73900,6,0,P|440:225|369:224,1,146.999995513916,4|0,0:0|0:0,0:0:0:0:
295,212,74166,2,0,L|300:322,1,97.9999970092774,8|0,0:0|3:0,0:0:0:0:
172,138,74433,1,8,0:0:0:0:
316,324,74566,1,0,3:0:0:0:
23,279,74700,6,0,P|71:225|142:224,1,146.999995513916,12|0,0:0|0:0,0:0:0:0:
217,212,74966,2,0,L|212:322,1,97.9999970092774,8|0,0:0|3:0,0:0:0:0:
340,138,75233,1,8,0:0:0:0:
196,324,75366,1,0,3:0:0:0:
191,10,75500,6,0,P|150:69|171:137,1,146.999995513916,12|0,0:0|0:0,0:0:0:0:
252,142,75766,2,0,L|358:123,1,97.9999970092774,8|0,0:0|3:0,0:0:0:0:
503,250,76033,1,8,0:0:0:0:
360,113,76166,1,0,3:0:0:0:
371,347,76300,6,0,P|412:288|391:220,1,146.999995513916,12|0,0:0|0:0,0:0:0:0:
310,215,76566,2,0,L|204:234,1,97.9999970092774,8|0,0:0|3:0,0:0:0:0:
59,107,76833,1,8,0:0:0:0:
202,244,76966,1,0,3:0:0:0:
7,344,77100,6,0,L|195:332,1,146.999995513916,12|0,0:0|0:0,0:0:0:0:
123,261,77366,2,0,L|10:270,1,97.9999970092774,8|0,0:0|3:0,0:0:0:0:
223,384,77633,1,8,0:0:0:0:
66,187,77766,1,0,3:0:0:0:
339,221,77900,6,0,L|151:209,1,146.999995513916,12|0,0:0|0:0,0:0:0:0:
223,138,78166,2,0,L|332:145,1,97.9999970092774,8|0,0:0|3:0,0:0:0:0:
123,261,78433,1,8,0:0:0:0:
275,64,78566,1,0,3:0:0:0:
468,226,78700,6,0,P|439:293|353:308,1,146.999995513916,12|0,0:0|0:0,0:0:0:0:
309,358,78966,2,0,L|200:343,1,97.9999970092774,8|0,0:0|3:0,0:0:0:0:
320,144,79233,2,0,L|417:130,1,97.9999970092774,8|0,0:0|3:0,0:0:0:0:
140,270,79500,6,0,P|114:202|140:135,1,146.999995513916,4|0,0:0|0:0,0:0:0:0:
140,135,79766,1,8,0:0:0:0:
29,249,79900,1,8,0:0:0:0:
228,206,80032,1,8,0:0:0:0:
75,72,80166,1,8,0:0:0:0:
310,18,80300,6,0,L|322:169,1,125.999996154785,4|0,0:0|0:0,0:0:0:0:
319,143,80566,1,8,0:0:0:0:
400,118,80700,1,8,0:0:0:0:
475,153,80833,1,8,0:0:0:0:
485,236,80966,1,8,0:0:0:0:
311,293,81100,6,0,L|436:306,1,125.999996154785,4|0,0:0|0:0,0:0:0:0:
436,306,81366,1,8,0:0:0:0:
485,236,81500,1,8,0:0:0:0:
475,153,81633,1,8,0:0:0:0:
400,118,81766,1,8,0:0:0:0:
193,156,81900,6,0,L|319:143,1,125.999996154785,4|0,0:0|0:0,0:0:0:0:
318,143,82166,1,4,3:0:0:0:
151,78,82300,1,8,3:0:0:0:
151,306,82433,1,4,3:0:0:0:
388,205,82567,1,8,3:0:0:0:
193,156,82700,5,6,0:0:0:0:
67,365,83500,6,0,P|128:365|190:280,1,167.999994873047,4|0,0:0|0:0,0:0:0:0:
238,56,83900,2,0,P|204:130|244:202,1,167.999994873047,8|8,0:0|0:0,0:0:0:0:
382,347,84300,6,0,P|350:305|301:292,1,105,0|0,3:0|0:0,0:0:0:0:
398,299,84566,2,0,P|349:278|300:291,1,105,0|0,3:0|0:0,0:0:0:0:
388,249,84833,2,0,P|335:255|299:291,1,105,8|0,0:0|0:0,0:0:0:0:
442,198,85100,6,0,L|459:21,1,167.999994873047,4|0,0:0|0:0,0:0:0:0:
263,35,85500,2,0,L|271:127,1,83.9999974365235,8|0,0:0|0:0,0:0:0:0:
357,69,85766,1,8,0:0:0:0:
160,199,85900,6,0,L|170:78,1,105,0|0,3:3|0:0,0:0:0:0:
109,180,86166,2,0,L|178:80,1,105,0|0,3:0|0:0,0:0:0:0:
73,138,86433,2,0,L|182:86,1,105,8|0,0:0|0:0,0:0:0:0:
3,85,86700,6,0,P|36:148|17:217,1,146.999995513916,4|0,0:0|0:0,0:0:0:0:
0,299,86966,2,0,L|111:283,1,97.9999970092774,8|0,0:0|3:0,0:0:0:0:
302,254,87233,1,8,0:0:0:0:
117,297,87366,1,0,3:0:0:0:
366,194,87500,6,0,P|332:257|351:326,1,146.999995513916,4|0,0:0|0:0,0:0:0:0:
351,326,87766,1,8,0:0:0:0:
447,274,87900,1,8,0:0:0:0:
276,123,88033,1,8,0:0:0:0:
228,345,88166,1,8,0:0:0:0:
312,231,88300,5,2,0:0:0:0:
301,223,88566,1,0,0:0:0:0:
288,222,88833,1,0,0:0:0:0:
276,227,89100,6,0,L|279:242,1,14,2|0,0:0|0:0,0:0:0:0:
