osu file format v14

[General]
AudioFilename: Noise.mp3
AudioLeadIn: 0
PreviewTime: 54700
Countdown: 0
SampleSet: Soft
StackLeniency: 0.4
Mode: 0
LetterboxInBreaks: 0
WidescreenStoryboard: 0

[Editor]
Bookmarks: 17633,20033,20833,21633,22433,43900,48833,50433
DistanceSpacing: 1.1
BeatDivisor: 4
GridSize: 4
TimelineZoom: 1.399999

[Metadata]
Title:Noise
TitleUnicode:ノイズ
Artist:MIOYAMAZAKI
ArtistUnicode:ミオヤマザキ
Creator:kunka
Version:Makyu's Insane
Source:地獄少女 宵伽
Tags:opening tv size jigoku shoujo yoi no togi hell girl Milan- Makyu kunkakunkakunkakunka
BeatmapID:1370620
BeatmapSetID:640797

[Difficulty]
HPDrainRate:4
CircleSize:4
OverallDifficulty:7.8
ApproachRate:9
SliderMultiplier:1.4
SliderTickRate:1

[Events]
//Background and Video events
0,0,"BG.jpg",0,0
Video,0,"Noise.avi"
//Break Periods
//Storyboard Layer 0 (Background)
//Storyboard Layer 1 (Fail)
//Storyboard Layer 2 (Pass)
//Storyboard Layer 3 (Foreground)
//Storyboard Sound Samples

[TimingPoints]
300,266.666666666667,3,2,0,18,1,0
300,-133.333333333333,3,2,0,18,0,0
13100,-83.3333333333333,3,2,0,50,0,0
25900,-100,3,1,0,30,0,0
37500,-100,3,1,0,20,0,0
37900,-100,3,1,0,10,0,0
38700,-83.3333333333333,3,2,0,30,0,0
48300,-133.333333333333,3,1,0,30,0,0
51500,-100,3,1,0,30,0,0
53100,-100,3,2,0,10,0,0
53366,-100,3,2,0,20,0,0
53633,-100,3,2,0,25,0,0
53900,-100,3,2,0,35,0,0
54700,-83.3333333333333,3,2,0,60,0,1
65900,-83.3333333333333,3,2,0,40,0,0
67500,-83.3333333333333,3,2,0,60,0,1
80300,-100,3,2,0,60,0,0
83500,-133.333333333333,3,2,0,50,0,0
89100,-133.333333333333,3,2,0,10,0,0

[Colours]
Combo1 : 255,128,255
Combo2 : 0,255,64
Combo3 : 128,255,255
Combo4 : 255,128,128
Combo5 : 255,255,128

[HitObjects]
60,251,300,6,0,P|117:267|170:248,1,105.000004005432,6|0,0:0|0:0,0:0:0:0:
169,176,700,2,0,P|228:169|285:193,1,105.000004005432,2|0,0:0|0:0,0:0:0:0:
337,140,1100,5,2,0:0:0:0:
461,333,1633,6,0,L|468:266,1,52.5000020027161,2|0,0:0|0:0,0:0:0:0:
370,345,1900,2,0,L|375:238,1,105.000004005432,2|0,0:0|0:0,0:0:0:0:
285,184,2300,2,0,L|290:300,1,105.000004005432,2|0,0:0|0:0,0:0:0:0:
221,328,2700,5,2,0:0:0:0:
55,71,3233,5,2,0:0:0:0:
76,96,3500,2,0,P|131:119|184:83,1,105.000004005432,2|0,0:0|0:0,0:0:0:0:
224,39,3900,2,0,L|232:150,1,105.000004005432,2|0,0:0|0:0,0:0:0:0:
300,182,4300,5,0,0:0:0:0:
41,302,4833,6,0,P|70:308|101:291,1,52.5000020027161,2|0,0:0|0:0,0:0:0:0:
110,224,5100,2,0,B|146:219|146:219|225:251,1,105.000004005432,2|0,0:0|0:0,0:0:0:0:
236,319,5500,2,0,P|295:303|327:257,1,105.000004005432,2|0,0:0|0:0,0:0:0:0:
280,203,5900,5,2,0:0:0:0:
474,35,6433,5,2,0:0:0:0:
464,64,6700,2,0,B|456:94|456:94|460:181,1,105.000004005432,2|0,0:0|0:0,0:0:0:0:
473,255,7100,2,0,P|418:246|365:289,1,105.000004005432,2|0,0:0|0:0,0:0:0:0:
311,226,7500,5,2,0:0:0:0:
96,118,7766,2,0,P|153:122|197:93,1,105.000004005432
40,53,8300,6,0,P|15:85|25:161,1,105.000004005432,6|0,0:0|0:0,0:0:0:0:
80,193,8700,2,0,L|65:302,1,105.000004005432,2|0,0:0|0:0,0:0:0:0:
133,337,9100,5,2,0:0:0:0:
357,50,9633,6,0,L|352:112,1,52.5000020027161,2|0,0:0|0:0,0:0:0:0:
290,213,9900,2,0,L|277:86,2,105.000004005432,2|0|0,0:0|0:0|0:0,0:0:0:0:
334,277,10566,1,2,0:0:0:0:
255,290,10700,2,0,P|206:309|146:278,2,105.000004005432,2|0|2,0:0|0:0|0:0,0:0:0:0:
439,100,11500,6,0,B|435:134|435:134|401:222,1,105.000004005432,2|0,0:0|0:0,0:0:0:0:
368,59,11900,2,0,P|411:21|469:28,1,105.000004005432,2|0,0:0|0:0,0:0:0:0:
345,142,12300,5,2,0:0:0:0:
256,192,12366,12,4,13100,0:0:0:0:
55,113,13366,6,0,P|103:121|157:94,1,83.9999974365235,0|0,1:0|0:0,0:0:0:0:
193,38,13633,2,0,P|220:70|225:129,1,83.9999974365235,0|0,1:0|0:0,0:0:0:0:
93,27,13900,5,2,1:2:0:0:
135,110,14033,1,2,0:0:0:0:
86,188,14166,2,0,L|73:270,1,83.9999974365235,2|0,1:2|0:0,0:0:0:0:
178,193,14433,2,0,P|217:213|267:192,1,83.9999974365235,2|0,1:2|0:0,0:0:0:0:
360,78,14700,6,0,L|343:280,1,167.999994873047,6|0,1:2|1:0,1:0:0:0:
409,313,15100,1,2,0:0:0:0:
317,324,15233,2,0,P|264:318|231:335,1,83.9999974365235,2|0,1:2|0:0,0:0:0:0:
144,321,15500,6,2,L|162:237,1,83.9999974365235,2|2,1:2|0:0,0:0:0:0:
245,129,15766,2,0,L|252:220,2,83.9999974365235,2|0|0,1:2|0:0|1:2,0:0:0:0:
160,90,16166,1,2,0:0:0:0:
229,28,16300,6,0,B|273:47|273:47|409:28,1,167.999994873047,6|0,1:2|1:0,0:0:0:0:
483,17,16700,1,2,0:0:0:0:
457,105,16833,2,0,L|447:197,1,83.9999974365235,2|0,1:2|0:0,0:0:0:0:
356,351,17100,6,0,L|346:267,1,83.9999974365235,2|0,1:2|0:0,0:0:0:0:
285,198,17366,2,0,P|325:175|394:188,1,83.9999974365235,2|0,1:2|0:0,0:0:0:0:
215,119,17633,2,0,L|205:211,1,83.9999974365235,2|0,1:2|0:0,0:0:0:0:
136,323,17900,6,0,L|157:146,1,167.999994873047,6|0,1:2|1:0,0:0:0:0:
77,96,18300,1,2,0:0:0:0:
166,75,18433,2,0,B|191:81|191:81|267:73,1,83.9999974365235,2|0,1:2|0:0,0:0:0:0:
315,10,18700,6,0,P|337:44|335:109,1,83.9999974365235,2|0,1:2|0:0,0:0:0:0:
283,158,18966,2,0,P|314:177|388:162,1,83.9999974365235,0|0,1:2|0:0,0:0:0:0:
427,112,19233,1,2,1:2:0:0:
484,300,19366,1,2,0:0:0:0:
395,273,19500,6,0,B|351:262|351:262|198:293,1,167.999994873047,6|0,1:2|1:2,0:0:0:0:
198,373,19900,1,0,0:0:0:0:
136,256,20033,1,2,1:2:0:0:
35,357,20166,1,2,0:0:0:0:
45,264,20300,6,0,L|59:162,1,83.9999974365235,0|2,1:2|0:0,0:0:0:0:
145,155,20566,2,0,P|186:170|234:147,1,83.9999974365235,0|0,1:2|0:0,0:0:0:0:
265,257,20833,1,2,1:2:0:0:
253,70,20966,1,2,0:0:0:0:
300,343,21100,6,0,L|314:174,1,167.999994873047,6|0,1:2|1:2,0:0:0:0:
400,140,21500,1,0,0:0:0:0:
266,46,21633,1,2,1:2:0:0:
399,1,21766,1,2,0:0:0:0:
175,23,21900,6,0,P|175:71|205:117,1,83.9999974365235,0|0,1:2|0:0,0:0:0:0:
205,260,22166,2,0,P|212:219|201:180,1,83.9999974365235,2|0,1:2|0:0,0:0:0:0:
115,148,22432,1,2,1:2:0:0:
275,137,22566,1,2,0:0:0:0:
126,309,22700,6,0,L|324:321,1,167.999994873047,6|0,1:2|1:2,0:0:0:0:
368,374,23100,1,2,0:0:0:0:
399,220,23233,2,0,L|416:318,1,83.9999974365235,2|0,1:2|0:0,0:0:0:0:
305,220,23500,6,0,P|314:174|351:143,1,83.9999974365235,2|0,1:2|0:0,0:0:0:0:
430,133,23766,2,0,P|416:98|373:69,1,83.9999974365235,2|0,1:2|0:0,0:0:0:0:
287,79,24033,2,0,B|257:98|257:98|177:95,1,83.9999974365235,2|0,1:2|0:0,0:0:0:0:
28,168,24300,6,0,B|68:160|68:160|199:169,1,167.999994873047,6|0,1:2|1:2,0:0:0:0:
240,249,24700,1,2,0:0:0:0:
268,336,24833,2,0,P|308:330|370:355,1,83.9999974365235,2|0,1:2|0:0,0:0:0:0:
190,359,25100,6,0,P|152:328|145:286,1,83.9999974365235,2|0,1:2|0:0,0:0:0:0:
148,203,25366,1,0,1:0:0:0:
180,116,25500,1,0,1:0:0:0:
266,85,25633,1,0,1:0:0:0:
353,112,25766,1,0,1:0:0:0:
459,222,25900,6,0,B|423:229|423:229|317:220,1,140,0|0,2:0|0:0,0:0:0:0:
246,179,26300,2,0,P|235:248|301:303,1,140,0|0,0:0|2:0,0:0:0:0:
325,131,26700,5,0,0:0:0:0:
328,59,26966,1,0,1:0:0:0:
160,75,27233,6,0,L|173:160,1,70,0|0,2:0|2:0,0:0:0:0:
87,270,27500,2,0,B|91:222|91:222|85:179|85:179|92:122,1,140,0|0,2:0|0:0,0:0:0:0:
170,144,27900,2,0,P|230:156|302:121,1,140
372,165,28300,5,0,0:0:0:0:
366,239,28566,1,0,0:0:0:0:
470,67,28833,6,0,P|439:73|391:57,1,70,0|0,2:0|2:0,2:0:0:0:
326,26,29100,2,0,B|276:24|276:24|175:49,1,140,0|0,2:0|0:0,0:0:0:0:
212,126,29500,2,0,L|197:284,1,140
121,272,29900,5,0,0:0:0:0:
130,348,30166,1,0,0:3:0:0:
38,71,30433,5,0,0:0:0:0:
88,128,30700,2,0,B|142:136|142:136|232:119,1,140,0|0,2:0|0:0,0:0:0:0:
279,54,31100,2,0,L|287:213,1,140
347,251,31500,5,0,0:0:0:0:
336,328,31766,1,0,0:0:0:0:
452,166,32033,6,0,L|463:254,1,70,0|0,2:0|2:0,2:0:0:0:
360,166,32300,2,0,L|372:13,1,140,0|0,1:0|0:0,0:0:0:0:
292,57,32700,2,0,P|235:87|145:62,1,140
94,24,33100,5,0,0:0:0:0:
86,98,33366,1,0,0:0:0:0:
170,282,33633,6,0,L|155:204,1,70,0|0,2:0|2:0,2:0:0:0:
189,135,33900,2,0,B|237:148|237:148|349:119,1,140,0|0,2:0|0:0,0:0:0:0:
347,44,34300,2,0,P|398:65|426:163,1,140
367,207,34700,5,0,0:0:0:0:
372,277,34966,1,0,0:0:0:0:
126,357,35233,6,0,B|135:333|135:333|132:280,1,70,0|0,2:0|2:0,2:0:0:0:
58,247,35500,2,0,P|100:197|198:193,1,140,0|0,2:0|0:0,0:0:0:0:
220,252,35900,2,0,L|230:98,1,140
287,51,36300,5,0,0:0:0:0:
362,69,36566,1,0,0:0:0:0:
423,281,36833,6,0,L|436:183,1,70,0|0,2:0|2:0,2:0:0:0:
464,347,37100,1,0,0:0:0:0:
406,134,37500,5,0,1:0:0:0:
362,69,37900,1,0,1:0:0:0:
362,69,38700,6,0,P|318:82|259:62,1,83.9999974365235,0|0,3:0|0:0,0:0:0:0:
216,22,38966,2,0,P|197:62|203:109,1,83.9999974365235,0|0,3:0|0:0,0:0:0:0:
266,236,39233,2,0,P|285:196|279:149,1,83.9999974365235,0|0,3:0|0:0,0:0:0:0:
181,228,39500,2,0,P|181:265|223:302,1,83.9999974365235,0|0,3:0|0:0,0:0:0:0:
291,323,39766,6,0,B|250:333|250:333|115:323,1,167.999994873047,0|0,3:0|1:0,0:0:0:0:
210,146,40300,6,0,L|197:229,1,83.9999974365235,0|0,3:0|0:0,0:0:0:0:
124,323,40566,2,0,L|112:239,1,83.9999974365235,0|0,3:0|0:0,0:0:0:0:
262,75,40833,2,0,P|288:103|297:158,1,83.9999974365235,0|0,3:0|0:0,0:0:0:0:
180,68,41100,2,0,P|190:27|240:-2,1,83.9999974365235,0|0,3:0|0:0,0:0:0:0:
262,75,41366,6,0,L|192:242,1,167.999994873047,0|0,3:0|1:0,0:0:0:0:
443,315,41900,6,0,B|410:320|376:310|376:310|350:313|350:313|313:302|237:315,1,167.999994873047,0|0,3:0|3:0,0:0:0:0:
205,355,42300,2,0,P|239:296|197:209,1,167.999994873047
115,209,42700,6,0,L|106:103,1,83.9999974365235,0|0,3:0|0:0,0:0:0:0:
191,128,42966,2,0,L|206:28,1,83.9999974365235,0|0,3:0|0:0,0:0:0:0:
120,30,43233,1,0,3:2:0:0:
284,62,43366,1,0,0:0:0:0:
309,143,43500,6,0,P|274:222|324:286,1,167.999994873047,0|0,3:0|3:0,0:0:0:0:
225,266,43900,2,0,P|173:196|93:208,1,167.999994873047
168,139,44300,2,0,P|254:129|284:53,1,167.999994873047,0|0,3:0|0:0,0:0:0:0:
285,63,44833,6,0,P|325:82|350:135,1,83.9999974365235,0|0,1:0|0:0,0:0:0:0:
337,205,45100,2,0,P|375:206|419:171,1,83.9999974365235,0|0,3:0|0:0,0:0:0:0:
261,153,45366,2,0,L|248:260,1,83.9999974365235,0|0,3:0|0:0,0:0:0:0:
178,365,45633,2,0,L|167:281,1,83.9999974365235,0|0,3:0|0:0,0:0:0:0:
61,70,45900,6,0,P|98:93|156:79,1,83.9999974365235,0|0,3:0|0:0,0:0:0:0:
289,57,46166,2,0,P|250:77|233:134,1,83.9999974365235,0|0,3:0|0:0,0:0:0:0:
189,249,46433,2,0,P|190:205|149:162,1,83.9999974365235,0|0,1:0|0:0,0:0:0:0:
107,231,46700,6,0,B|149:219|149:219|171:211|171:211|215:206|215:206|276:186,1,167.999994873047,0|0,3:0|3:0,0:0:0:0:
478,226,47100,2,0,B|424:243|424:243|380:249|380:249|358:257|358:257|316:268,1,167.999994873047
170,298,47500,6,0,P|198:328|260:330,1,83.9999974365235,0|0,3:0|0:0,0:0:0:0:
183,185,47766,2,0,P|194:145|165:91,1,83.9999974365235,0|0,3:0|0:0,0:0:0:0:
107,231,48033,2,0,P|67:240|34:292,1,83.9999974365235,0|0,1:0|0:0,0:0:0:0:
240,250,48300,6,0,B|288:259|288:259|336:250|336:250|420:263,1,157.500006008148,0|0,0:0|2:0,0:0:0:0:
161,259,48833,5,0,0:0:0:0:
85,221,49100,1,0,0:0:0:0:
155,175,49366,1,0,2:0:0:0:
93,299,49633,1,0,0:0:0:0:
170,106,49900,6,0,P|244:81|273:7,1,157.500006008148,0|0,0:0|2:0,0:0:0:0:
88,88,50433,5,0,0:0:0:0:
82,171,50700,1,0,0:0:0:0:
77,254,50966,1,0,2:0:0:0:
96,8,51233,1,0,0:0:0:0:
199,205,51500,6,0,B|194:179|194:179|198:149|198:149|192:124|192:124|199:96|199:96|190:51,1,140,0|0,0:0|2:0,0:0:0:0:
198,279,51900,5,0,3:0:0:0:
276,250,52033,2,0,P|309:267|359:260,1,70,0|0,1:0|2:0,2:0:0:0:
118,235,52300,2,0,P|85:218|35:225,1,70,0|0,3:0|2:0,2:0:0:0:
65,301,52566,5,0,0:0:0:0:
128,356,52700,1,0,0:0:0:0:
211,363,52833,1,0,0:0:0:0:
290,337,52966,1,0,0:0:0:0:
193,220,53100,5,2,0:0:0:0:
285,80,53366,1,2,0:0:0:0:
116,85,53633,1,2,0:0:0:0:
372,215,53900,5,2,0:0:0:0:
372,215,54700,2,0,L|380:31,1,167.999994873047,4|0,1:2|0:0,0:0:0:0:
308,281,55100,2,0,P|231:301|139:229,1,167.999994873047,2|0,0:0|0:0,0:0:0:0:
169,168,55500,6,0,P|121:172|89:199,1,83.9999974365235,2|0,3:2|0:0,0:0:0:0:
253,176,55766,2,0,P|300:171|332:144,1,83.9999974365235
336,57,56033,1,2,0:0:0:0:
464,164,56166,1,2,0:0:0:0:
400,320,56300,6,0,P|322:341|249:303,1,167.999994873047,2|0,0:2|0:0,0:0:0:0:
182,106,56700,2,0,L|164:273,1,167.999994873047,2|0,0:0|0:0,0:0:0:0:
242,221,57100,6,0,P|284:223|316:259,1,83.9999974365235,2|0,3:2|0:0,0:0:0:0:
92,231,57366,2,0,P|49:228|17:192,1,83.9999974365235
90,139,57633,1,2,0:0:0:0:
249,303,57766,1,0,0:0:0:0:
304,143,57900,6,0,P|387:171|449:131,1,167.999994873047,2|0,0:0|0:0,0:0:0:0:
469,42,58300,2,0,L|485:209,1,167.999994873047,2|0,0:0|0:0,0:0:0:0:
443,292,58700,6,0,P|476:306|528:293,1,83.9999974365235,2|0,3:2|0:0,0:0:0:0:
422,105,58966,2,0,P|389:91|337:104,1,83.9999974365235
278,167,59233,1,2,0:0:0:0:
89,127,59366,1,2,0:0:0:0:
242,86,59500,6,0,B|263:253,1,167.999994873047,2|0,0:0|0:0,0:0:0:0:
351,233,59900,2,0,P|339:304|230:339,1,167.999994873047,2|0,0:0|0:0,0:0:0:0:
173,308,60300,6,0,P|130:295|69:320,1,83.9999974365235,2|0,3:2|0:0,0:0:0:0:
41,380,60566,1,0,0:0:0:0:
13,291,60700,1,0,0:0:0:0:
36,201,60833,1,0,0:0:0:0:
100,135,60966,1,0,0:0:0:0:
173,78,61100,6,0,P|225:118|326:72,1,167.999994873047,6|0,0:0|0:0,0:0:0:0:
363,9,61500,2,0,L|356:186,1,167.999994873047,2|0,0:0|0:0,0:0:0:0:
391,262,61900,6,0,P|429:246|483:271,1,83.9999974365235,2|0,3:2|0:0,0:0:0:0:
304,240,62166,2,0,P|265:255|212:231,1,83.9999974365235,2|0,0:0|0:0,0:0:0:0:
191,157,62433,1,2,0:0:0:0:
182,322,62566,1,0,0:0:0:0:
23,264,62700,6,0,P|65:175|13:92,1,167.999994873047,2|0,0:0|0:0,0:0:0:0:
131,85,63100,2,0,P|193:60|303:97,1,167.999994873047,2|0,0:0|0:0,0:0:0:0:
367,132,63500,6,0,P|384:89|362:26,1,83.9999974365235,2|0,3:2|0:0,0:0:0:0:
360,219,63766,2,0,P|399:221|437:181,1,83.9999974365235
281,170,64033,1,2,0:0:0:0:
287,261,64166,1,2,0:0:0:0:
136,275,64300,6,0,L|141:100,2,167.999994873047,2|0|0,0:0|0:0|0:0,0:0:0:0:
148,19,64966,1,2,0:0:0:0:
226,68,65100,2,0,B|274:82|274:82|408:54,1,167.999994873047,2|0,3:2|0:0,0:0:0:0:
468,8,65500,2,0,P|479:52|459:108,1,83.9999974365235,0|0,1:0|0:0,0:0:0:0:
397,146,65766,1,0,0:0:0:0:
328,193,65900,6,0,L|318:361,1,167.999994873047,2|0,0:0|0:0,0:0:0:0:
196,192,66300,2,0,L|186:25,1,167.999994873047,2|0,0:0|0:0,0:0:0:0:
115,238,66700,1,2,0:0:0:0:
115,238,66966,5,0,1:0:0:0:
175,308,67100,1,0,1:0:0:0:
85,328,67233,1,0,1:0:0:0:
211,213,67366,1,0,1:0:0:0:
85,328,67500,6,0,P|160:304|254:355,1,167.999994873047,4|0,1:2|1:0,0:0:0:0:
326,305,67900,1,0,0:0:0:0:
415,325,68033,2,0,P|457:335|509:300,1,83.9999974365235,0|0,1:0|0:0,0:0:0:0:
357,214,68300,6,0,P|314:203|263:239,1,83.9999974365235,0|0,1:0|0:0,0:0:0:0:
195,257,68566,2,0,P|156:272|116:261,1,83.9999974365235,0|0,1:0|0:0,0:0:0:0:
155,164,68833,1,0,1:0:0:0:
326,305,68966,1,0,0:0:0:0:
335,136,69100,6,0,P|269:98|260:7,1,167.999994873047,0|0,1:0|1:0,0:0:0:0:
355,32,69500,1,0,0:0:0:0:
447,26,69633,2,0,P|484:50|501:113,1,83.9999974365235,0|0,1:0|0:0,0:0:0:0:
407,264,69900,6,0,P|365:250|332:193,1,83.9999974365235,0|0,1:0|0:0,0:0:0:0:
355,32,70166,2,0,P|364:75|331:131,1,83.9999974365235,0|0,1:0|0:0,0:0:0:0:
163,182,70433,2,0,P|195:152|261:152,1,83.9999974365235,0|0,1:0|0:0,0:0:0:0:
238,238,70700,6,0,L|226:333,1,83.9999974365235,0|0,1:0|0:0,0:0:0:0:
419,203,70966,2,0,L|407:108,1,83.9999974365235,0|0,1:0|0:0,0:0:0:0:
390,278,71233,1,0,1:0:0:0:
286,171,71366,1,0,0:0:0:0:
368,29,71500,6,0,P|408:19|449:28,1,83.9999974365235,0|0,1:0|0:0,0:0:0:0:
274,81,71766,2,0,P|233:90|192:81,1,83.9999974365235,0|0,1:0|0:0,0:0:0:0:
455,121,72033,2,0,L|469:217,1,83.9999974365235,0|0,1:0|0:0,0:0:0:0:
361,360,72300,6,0,L|383:160,1,167.999994873047,0|0,1:0|1:0,0:0:0:0:
181,129,72700,2,0,P|266:153|349:99,1,167.999994873047
408,30,73100,6,0,L|422:126,1,83.9999974365235,0|0,1:0|0:0,0:0:0:0:
379,193,73366,1,0,1:0:0:0:
452,249,73500,1,0,0:0:0:0:
372,295,73633,1,0,1:0:0:0:
449,344,73766,1,0,0:0:0:0:
292,353,73900,6,0,P|212:317|134:340,1,167.999994873047,0|0,1:0|1:0,0:0:0:0:
53,298,74300,1,0,0:0:0:0:
122,230,74433,2,0,L|121:147,1,83.9999974365235,0|0,1:0|0:0,0:0:0:0:
291,234,74700,6,0,P|334:229|395:183,1,83.9999974365235,0|0,1:0|0:0,0:0:0:0:
305,145,74966,2,0,P|323:105|312:29,1,83.9999974365235,0|0,1:0|0:0,0:0:0:0:
233,84,75233,1,0,1:0:0:0:
441,38,75366,1,0,0:0:0:0:
440,130,75500,6,0,B|440:160|440:160|425:200|425:200|426:241|426:241|415:264|415:264|415:292,1,167.999994873047,0|0,1:0|1:0,0:0:0:0:
477,361,75900,1,0,0:0:0:0:
385,366,76033,2,0,P|350:344|336:297,1,83.9999974365235,0|0,1:0|0:0,0:0:0:0:
299,153,76300,6,0,P|256:169|226:224,1,83.9999974365235,0|0,1:0|0:0,0:0:0:0:
364,95,76566,2,0,P|328:66|266:67,1,83.9999974365235,0|0,1:0|0:0,0:0:0:0:
73,81,76833,2,0,P|104:107|145:115,1,83.9999974365235,0|0,1:0|0:0,0:0:0:0:
204,43,77100,6,0,L|237:149,1,83.9999974365235,0|0,1:0|0:0,0:0:0:0:
177,199,77366,2,0,L|210:305,1,83.9999974365235,0|0,1:0|0:0,0:0:0:0:
294,282,77633,2,0,L|269:362,1,83.9999974365235,0|0,1:0|0:0,0:0:0:0:
402,163,77900,2,0,L|378:244,1,83.9999974365235,0|0,1:0|0:0,0:0:0:0:
366,335,78166,6,0,P|407:335|448:287,1,83.9999974365235,0|0,1:0|0:0,0:0:0:0:
378,244,78433,1,0,1:0:0:0:
198,276,78566,1,0,0:0:0:0:
245,355,78700,6,0,P|287:272|224:196,1,167.999994873047,0|0,1:0|1:0,0:0:0:0:
303,0,79100,2,0,P|261:83|324:159,1,167.999994873047
381,112,79500,2,0,P|388:148|363:201,1,83.9999974365235,0|0,1:0|0:0,0:0:0:0:
293,240,79766,5,0,1:0:0:0:
246,320,79900,1,0,1:0:0:0:
203,238,80033,1,0,1:0:0:0:
144,308,80166,1,0,1:0:0:0:
78,152,80300,6,0,L|57:298,1,140,4|0,0:0|1:0,0:0:0:0:
39,68,80700,1,0,1:0:0:0:
109,22,80833,1,0,1:0:0:0:
157,90,80966,1,0,1:0:0:0:
248,174,81100,6,0,L|234:6,1,140,4|0,0:0|1:0,0:0:0:0:
353,174,81500,2,0,L|338:263,2,70,0|0|0,1:0|1:0|1:0,1:0:0:0:
380,309,81900,6,0,P|325:291|239:337,1,140,4|0,0:0|0:0,0:0:0:0:
178,279,82300,1,0,3:0:0:0:
141,203,82433,1,0,3:0:0:0:
224,199,82566,1,0,3:0:0:0:
187,122,82700,5,4,0:0:0:0:
187,122,83500,2,0,B|225:120|225:120|293:86,1,105.000004005432,4|0,0:0|3:0,0:0:0:0:
360,41,83900,2,0,L|367:156,1,105.000004005432,0|0,1:0|0:0,0:0:0:0:
284,280,84300,2,0,L|290:175,2,105.000004005432,0|0|0,3:0|0:0|3:0,0:0:0:0:
31,279,85100,6,0,P|78:260|146:280,1,105.000004005432,0|0,0:0|3:0,0:0:0:0:
195,330,85500,2,0,L|189:208,1,105.000004005432,0|0,1:0|1:0,0:0:0:0:
299,115,85900,2,0,L|293:219,2,105.000004005432,0|0|0,3:0|0:0|3:0,0:0:0:0:
351,48,86700,5,0,1:0:0:0:
400,140,86966,1,0,1:0:0:0:
470,62,87233,1,0,1:0:0:0:
492,170,87500,2,0,L|503:296,1,105.000004005432,0|0,1:0|0:0,0:0:0:0:
428,318,87900,5,0,1:0:0:0:
267,222,88033,1,0,1:0:0:0:
460,93,88166,1,0,0:0:0:0:
460,93,89100,5,2,0:0:0:0:
