osu file format v14

[General]
AudioFilename: Noise.mp3
AudioLeadIn: 0
PreviewTime: 54700
Countdown: 0
SampleSet: Soft
StackLeniency: 0.7
Mode: 0
LetterboxInBreaks: 0
WidescreenStoryboard: 0

[Editor]
DistanceSpacing: 1.5
BeatDivisor: 4
GridSize: 4
TimelineZoom: 4.699997

[Metadata]
Title:Noise
TitleUnicode:ノイズ
Artist:MIOYAMAZAKI
ArtistUnicode:ミオヤマザキ
Creator:kunka
Version:Insane
Source:地獄少女 宵伽
Tags:opening tv size jigoku shoujo yoi no togi hell girl Milan- Makyu kunkakunkakunkakunka
BeatmapID:1358997
BeatmapSetID:640797

[Difficulty]
HPDrainRate:6
CircleSize:4
OverallDifficulty:8
ApproachRate:9
SliderMultiplier:1.4
SliderTickRate:1

[Events]
//Background and Video events
0,0,"BG.jpg",0,0
Video,0,"Noise.avi"
//Break Periods
//Storyboard Layer 0 (Background)
//Storyboard Layer 1 (Fail)
//Storyboard Layer 2 (Pass)
//Storyboard Layer 3 (Foreground)
//Storyboard Sound Samples

[TimingPoints]
300,266.666666666667,3,2,1,50,1,0
300,-125,4,2,1,50,0,0
12300,-142.857142857143,4,2,1,50,0,0
12833,-111.111111111111,4,2,1,60,0,0
13033,-111.111111111111,4,2,1,5,0,0
13100,-90.9090909090909,4,2,3,70,0,0
25900,-100,4,2,2,60,0,0
37100,-100,4,2,1,60,0,0
37900,-111.111111111111,4,2,1,60,0,0
38633,-111.111111111111,4,2,2,5,0,0
38700,-100,4,2,2,60,0,0
53100,-100,4,2,1,60,0,0
54700,-90.9090909090909,4,2,2,70,0,1
55500,-90.9090909090909,4,2,3,70,0,1
56033,-90.9090909090909,4,2,1,70,0,1
56566,-90.9090909090909,4,2,2,70,0,1
57100,-90.9090909090909,4,2,3,70,0,1
57366,-90.9090909090909,4,2,2,70,0,1
57900,-90.9090909090909,4,2,1,70,0,1
58700,-90.9090909090909,4,2,3,70,0,1
58966,-90.9090909090909,4,2,2,70,0,1
59500,-90.9090909090909,4,2,1,70,0,1
60300,-90.9090909090909,4,2,3,70,0,1
60566,-90.9090909090909,4,2,2,70,0,1
61900,-90.9090909090909,4,2,3,70,0,1
62166,-90.9090909090909,4,2,2,70,0,1
62700,-90.9090909090909,4,2,1,70,0,1
63500,-90.9090909090909,4,2,3,70,0,1
63766,-90.9090909090909,4,2,2,70,0,1
64300,-90.9090909090909,4,2,1,70,0,1
65100,-90.9090909090909,4,2,3,70,0,1
65366,-90.9090909090909,4,2,2,70,0,1
65900,-90.9090909090909,4,2,1,70,0,1
66700,-90.9090909090909,4,2,3,70,0,1
67500,-90.9090909090909,4,2,2,70,0,1
68300,-90.9090909090909,4,2,3,70,0,1
68833,-90.9090909090909,4,2,2,70,0,1
69100,-90.9090909090909,4,2,3,70,0,1
69500,-90.9090909090909,4,2,2,70,0,1
69900,-90.9090909090909,4,2,3,70,0,1
70300,-90.9090909090909,4,2,2,70,0,1
70700,-90.9090909090909,4,2,3,70,0,1
71100,-90.9090909090909,4,2,2,70,0,1
71500,-90.9090909090909,4,2,3,70,0,1
71900,-90.9090909090909,4,2,2,70,0,1
72300,-90.9090909090909,4,2,3,70,0,1
72700,-90.9090909090909,4,2,2,70,0,1
73100,-90.9090909090909,4,2,3,70,0,1
73233,-90.9090909090909,4,2,2,70,0,1
74700,-90.9090909090909,4,2,3,70,0,1
75100,-90.9090909090909,4,2,2,70,0,1
75500,-90.9090909090909,4,2,3,70,0,1
75900,-90.9090909090909,4,2,2,70,0,1
76300,-90.9090909090909,4,2,3,70,0,1
76700,-90.9090909090909,4,2,2,70,0,1
77100,-90.9090909090909,4,2,3,70,0,1
77500,-90.9090909090909,4,2,2,70,0,1
77900,-90.9090909090909,4,2,3,70,0,1
78166,-90.9090909090909,4,2,2,70,0,1
78700,-90.9090909090909,4,2,3,70,0,1
79100,-90.9090909090909,4,2,2,70,0,1
82700,-90.9090909090909,4,2,2,70,0,0
83500,-100,4,2,2,60,0,0
88300,-125,4,2,1,20,0,0

[Colours]
Combo1 : 255,128,255
Combo2 : 0,255,64
Combo3 : 128,255,255
Combo4 : 255,128,128
Combo5 : 255,255,128

[HitObjects]
397,315,300,6,0,P|405:256|407:203,1,112,8|0,0:0|0:0,0:0:0:0:
357,135,700,2,0,P|327:127|298:130,1,56
229,169,966,1,0,0:0:0:0:
145,160,1100,2,0,P|91:170|42:146,1,112
190,65,1633,1,0,0:0:0:0:
190,65,1766,1,0,0:0:0:0:
190,65,1900,6,0,P|244:55|293:79,1,112,2|0,0:0|0:0,0:0:0:0:
358,135,2300,2,0,L|415:138,1,56
443,216,2566,1,0,0:0:0:0:
389,281,2700,2,0,P|335:299|283:281,1,112,2|0,0:0|0:0,0:0:0:0:
138,198,3233,2,0,P|119:174|98:157,1,56
89,258,3500,6,0,P|144:276|194:253,1,112,2|0,0:0|0:0,0:0:0:0:
269,222,3900,2,0,P|296:220|323:229,1,56
389,281,4166,1,0,0:0:0:0:
443,216,4300,2,0,L|428:103,1,112
262,76,4833,1,0,0:0:0:0:
262,76,4966,1,0,0:0:0:0:
262,76,5100,6,0,P|203:68|150:66,1,112,2|0,0:0|0:0,0:0:0:0:
85,119,5500,2,0,L|90:175,1,56
89,258,5766,1,0,0:0:0:0:
154,310,5900,2,0,B|182:318|209:310|209:310|234:302|264:310,1,112,2|0,0:0|0:0,0:0:0:0:
388,196,6433,2,0,P|406:172|427:155,1,56
440,256,6700,6,0,P|385:274|335:251,1,112,2|0,0:0|0:0,0:0:0:0:
258,224,7100,2,0,P|230:223|203:232,1,56
120,221,7366,1,0,0:0:0:0:
85,144,7500,2,0,P|84:116|93:89,1,56
164,46,7766,2,0,L|219:55,1,56
203,138,8033,2,0,L|258:147,1,56
310,213,8300,6,0,P|309:265|289:322,1,112,2|0,0:0|0:0,0:0:0:0:
213,355,8700,2,0,P|186:346|158:347,1,56
75,350,8966,1,0,0:0:0:0:
49,269,9100,2,0,L|79:162,1,112
240,113,9633,1,0,0:0:0:0:
240,113,9766,1,0,0:0:0:0:
240,113,9900,6,0,P|295:108|349:122,2,112,2|0|0,0:0|0:0|0:0,0:0:0:0:
194,183,10566,1,0,0:0:0:0:
158,259,10700,2,0,P|106:272|46:268,2,112
324,235,11500,6,0,P|340:289|324:342,1,112,2|0,0:0|0:0,0:0:0:0:
241,357,11900,1,0,0:0:0:0:
157,354,12033,2,0,P|130:345|102:346,1,56
37,291,12300,2,0,P|39:218|48:142,1,146.999995513916
140,157,12833,6,0,P|184:167|213:131,1,94.499997116089,8|0,0:0|0:0,0:0:0:0:
299,52,13100,6,0,P|335:40|373:41,1,77.0000023498536,12|0,0:0|0:0,0:0:0:0:
475,95,13366,2,0,L|472:175,1,77.0000023498536,8|0,0:0|0:0,0:0:0:0:
371,227,13633,2,0,L|374:307,1,77.0000023498536,8|0,0:0|0:0,0:0:0:0:
485,337,13900,5,10,0:0:0:0:
457,225,14033,1,0,0:0:0:0:
373,303,14166,1,8,0:0:0:0:
286,378,14300,1,0,0:0:0:0:
263,266,14433,1,8,0:0:0:0:
373,303,14566,1,0,0:0:0:0:
311,183,14700,6,0,P|274:171|236:174,1,77.0000023498536,10|0,0:0|0:0,0:0:0:0:
130,219,14966,2,0,P|91:222|55:210,1,77.0000023498536,8|0,0:0|0:0,0:0:0:0:
68,95,15233,2,0,P|106:91|142:103,1,77.0000023498536,8|0,0:0|0:0,0:0:0:0:
256,81,15500,5,10,0:0:0:0:
230,193,15633,1,0,0:0:0:0:
340,161,15766,1,8,0:0:0:0:
424,239,15900,1,0,0:0:0:0:
314,273,16033,1,8,0:0:0:0:
340,161,16166,1,0,0:0:0:0:
367,334,16300,6,0,P|334:352|296:352,1,77.0000023498536,12|0,0:0|0:0,0:0:0:0:
181,333,16566,2,0,P|144:320|106:317,1,77.0000023498536,8|0,0:0|0:0,0:0:0:0:
127,202,16833,2,0,P|165:204|201:217,1,77.0000023498536,8|0,0:0|0:0,0:0:0:0:
314,273,17100,5,10,0:0:0:0:
424,239,17233,1,0,0:0:0:0:
455,128,17366,1,8,0:0:0:0:
369,50,17500,1,0,0:0:0:0:
340,161,17633,1,8,0:0:0:0:
455,128,17766,1,0,0:0:0:0:
369,50,17900,6,0,P|331:38|291:41,1,77.0000023498536,10|0,0:0|0:0,0:0:0:0:
184,76,18166,1,8,0:0:0:0:
70,78,18300,1,0,0:0:0:0:
182,94,18433,1,8,0:0:0:0:
72,60,18566,1,0,0:0:0:0:
72,176,18700,6,0,P|71:216|79:256,1,77.0000023498536,10|0,0:0|0:0,0:0:0:0:
142,347,18966,1,8,0:0:0:0:
256,345,19100,1,0,0:0:0:0:
144,329,19233,1,8,0:0:0:0:
254,363,19366,1,0,0:0:0:0:
173,211,19500,6,0,P|205:192|245:191,1,77.0000023498536,12|0,0:0|0:0,0:0:0:0:
352,151,19766,2,0,L|361:230,1,77.0000023498536,8|0,0:0|0:0,0:0:0:0:
454,295,20033,1,8,0:0:0:0:
479,182,20166,1,0,0:0:0:0:
408,89,20300,6,0,P|375:70|332:69,1,77.0000023498536,12|0,0:0|0:0,0:0:0:0:
223,48,20566,2,0,P|189:67|151:69,1,77.0000023498536,8|0,0:0|0:0,0:0:0:0:
47,119,20833,1,8,0:0:0:0:
47,234,20966,1,0,0:0:0:0:
151,283,21100,6,0,P|189:285|222:304,1,77.0000023498536,12|0,0:0|0:0,0:0:0:0:
336,321,21366,2,0,L|349:245,1,77.0000023498536,8|0,0:0|0:0,0:0:0:0:
329,131,21633,1,8,0:0:0:0:
412,51,21766,1,0,0:0:0:0:
494,133,21900,6,0,L|507:209,1,77.0000023498536,12|0,0:0|0:0,0:0:0:0:
404,261,22166,2,0,L|391:185,1,77.0000023498536,8|0,0:0|0:0,0:0:0:0:
309,104,22432,1,8,0:0:0:0:
211,167,22566,1,0,0:0:0:0:
51,107,22700,6,0,L|42:184,1,77.0000023498536,12|0,0:0|0:0,0:0:0:0:
54,298,22966,1,8,0:0:0:0:
156,244,23100,1,0,0:0:0:0:
236,326,23233,1,8,0:0:0:0:
156,244,23366,1,0,0:0:0:0:
177,130,23500,6,0,P|212:113|250:110,1,77.0000023498536,12|0,0:0|0:0,0:0:0:0:
346,162,23766,1,8,0:0:0:0:
423,75,23900,1,0,0:0:0:0:
325,14,24033,1,8,0:0:0:0:
423,75,24166,1,0,0:0:0:0:
455,187,24300,6,0,L|443:267,1,77.0000023498536,12|0,0:0|0:0,0:0:0:0:
341,315,24566,1,8,0:0:0:0:
230,280,24700,1,0,0:0:0:0:
341,315,24833,1,8,0:0:0:0:
443,263,24966,1,0,0:0:0:0:
454,147,25100,6,0,L|442:70,1,77.0000023498536,12|0,0:0|0:0,0:0:0:0:
327,63,25366,1,8,0:0:0:0:
225,11,25500,1,8,0:0:0:0:
230,126,25633,1,8,0:0:0:0:
327,63,25766,1,8,0:0:0:0:
127,74,25900,6,0,P|117:142|146:204,1,140,12|0,0:0|0:0,0:0:0:0:
239,254,26300,1,2,0:0:0:0:
327,63,26566,1,2,0:0:0:0:
399,139,26700,2,0,P|414:170|424:208,1,70,8|0,0:0|0:0,0:0:0:0:
341,269,26966,2,0,P|326:300|316:338,1,70,2|0,0:0|0:0,0:0:0:0:
213,356,27233,1,2,0:0:0:0:
213,356,27366,1,0,0:0:0:0:
213,356,27500,6,0,P|182:341|144:331,1,70,2|0,0:0|0:0,0:0:0:0:
43,317,27766,1,0,0:0:0:0:
15,215,27900,2,0,P|30:184|40:146,1,70,2|0,0:0|0:0,0:0:0:0:
122,85,28166,1,2,0:0:0:0:
206,147,28300,2,0,P|272:165|341:155,1,140,8|2,0:0|0:0,0:0:0:0:
451,333,28833,1,2,0:0:0:0:
451,333,28966,1,0,0:0:0:0:
451,333,29100,6,0,P|469:266|459:197,1,140,2|0,0:0|0:0,0:0:0:0:
428,96,29500,1,2,0:0:0:0:
221,157,29766,1,2,0:0:0:0:
273,248,29900,2,0,P|280:281|273:316,1,70,8|0,0:0|0:0,0:0:0:0:
168,316,30166,2,0,P|161:283|168:248,1,70,2|0,0:0|0:0,0:0:0:0:
221,157,30433,2,0,P|228:124|221:89,1,70,2|0,0:0|0:0,0:0:0:0:
135,26,30700,6,0,L|68:44,1,70,2|0,0:0|0:0,0:0:0:0:
20,137,30966,1,0,0:0:0:0:
46,239,31100,2,0,L|64:306,1,70,2|0,0:0|0:0,0:0:0:0:
168,316,31366,1,2,0:0:0:0:
267,350,31500,2,0,P|338:340|407:361,1,140,8|2,0:0|0:0,0:0:0:0:
502,173,32033,1,2,0:0:0:0:
502,173,32166,1,0,0:0:0:0:
502,173,32300,6,0,P|507:138|500:104,1,70,2|0,0:0|0:0,0:0:0:0:
407,56,32566,1,0,0:0:0:0:
320,116,32700,2,0,P|285:129|251:128,1,70,2|0,0:0|0:0,0:0:0:0:
151,103,32966,1,2,0:0:0:0:
83,183,33100,2,0,P|73:254|94:323,1,140,8|2,0:0|0:0,0:0:0:0:
298,355,33633,1,2,0:0:0:0:
298,355,33766,1,0,0:0:0:0:
298,355,33900,6,0,P|369:345|438:366,1,140,2|0,0:0|0:0,0:0:0:0:
508,288,34300,2,0,P|481:268|440:258,1,70,2|0,0:0|0:0,0:0:0:0:
343,239,34566,1,2,0:0:0:0:
241,266,34700,2,0,P|174:284|105:274,1,140,8|2,0:0|0:0,0:0:0:0:
95,63,35233,1,2,0:0:0:0:
95,63,35366,1,0,0:0:0:0:
95,63,35500,6,0,P|128:53|162:58,1,70,2|0,0:0|0:0,0:0:0:0:
264,84,35766,1,0,0:0:0:0:
364,50,35900,2,0,P|371:83|364:118,1,70,2|0,0:0|0:0,0:0:0:0:
306,205,36166,1,2,0:0:0:0:
203,228,36300,2,0,P|132:218|63:239,1,140,8|2,0:0|0:0,0:0:0:0:
305,273,36833,1,2,0:0:0:0:
305,273,36966,1,0,0:0:0:0:
305,273,37100,6,0,P|312:238|305:204,1,70,10|0,0:0|0:0,0:0:0:0:
246,118,37366,1,0,0:0:0:0:
319,42,37500,2,0,P|382:21|450:42,1,140,10|0,0:0|0:0,0:0:0:0:
468,145,37900,2,0,P|395:255|382:123,1,346.49998942566,10|0,0:0|0:0,0:0:0:0:
441,74,38700,6,0,P|369:86|301:74,1,140,6|2,0:0|0:0,0:0:0:0:
201,48,39100,2,0,P|167:37|130:41,1,70,0|2,0:0|0:0,0:0:0:0:
55,110,39366,1,0,0:0:0:0:
79,212,39500,2,0,P|85:248|90:285,1,70,2|0,0:0|0:0,0:0:0:0:
192,301,39766,2,0,P|187:265|180:231,1,70,2|0,0:0|0:0,0:0:0:0:
270,177,40033,2,0,L|275:211|280:245,1,70,2|0,0:0|0:0,0:0:0:0:
331,338,40300,6,0,P|398:349|456:313,1,140,2|2,0:0|0:0,0:0:0:0:
474,209,40700,2,0,P|468:174|460:140,1,70,0|2,0:0|0:0,0:0:0:0:
380,72,40966,1,0,0:0:0:0:
275,85,41100,2,0,P|238:91|201:96,1,70,2|0,0:0|0:0,0:0:0:0:
186,198,41366,2,0,P|220:193|254:186,1,70,2|0,0:0|0:0,0:0:0:0:
307,278,41633,2,0,P|271:283|237:288,1,70,10|0,0:0|0:0,0:0:0:0:
133,270,41900,6,0,P|97:207|115:144,1,140,2|2,0:0|0:0,0:0:0:0:
182,63,42300,2,0,P|218:71|255:77,1,70,0|2,0:0|0:0,0:0:0:0:
354,62,42566,1,0,0:0:0:0:
440,124,42700,2,0,P|450:157|453:192,1,70,2|0,0:0|0:0,0:0:0:0:
356,233,42966,2,0,P|346:266|343:301,1,70,2|0,0:0|0:0,0:0:0:0:
248,348,43233,1,2,0:0:0:0:
248,348,43366,1,0,0:0:0:0:
147,314,43500,6,0,P|79:328|20:294,1,140,2|2,0:0|0:0,0:0:0:0:
1,190,43900,2,0,P|3:155|13:121,1,70,0|2,0:0|0:0,0:0:0:0:
63,30,44166,1,0,0:0:0:0:
161,67,44300,2,0,P|194:77|229:78,1,70,2|0,0:0|0:0,0:0:0:0:
330,52,44566,1,2,0:0:0:0:
221,232,44833,2,0,P|210:265|208:300,1,70,10|0,0:0|0:0,0:0:0:0:
326,344,45100,6,0,P|393:358|452:324,1,140,6|2,0:0|0:0,0:0:0:0:
460,218,45500,2,0,P|449:184|447:149,1,70,0|2,0:0|0:0,0:0:0:0:
452,45,45766,1,0,0:0:0:0:
346,35,45900,2,0,P|311:42|277:48,1,70,2|0,0:0|0:0,0:0:0:0:
268,152,46166,2,0,P|233:159|199:165,1,70,2|0,0:0|0:0,0:0:0:0:
189,268,46433,2,0,P|154:275|120:281,1,70,2|0,0:0|0:0,0:0:0:0:
46,206,46700,6,0,P|31:138|65:79,1,140,2|2,0:0|0:0,0:0:0:0:
168,59,47100,2,0,P|202:70|239:66,1,70,0|2,0:0|0:0,0:0:0:0:
338,47,47366,1,0,0:0:0:0:
422,111,47500,2,0,P|414:145|408:179,1,70,2|0,0:0|0:0,0:0:0:0:
305,189,47766,2,0,P|297:223|291:257,1,70,2|0,0:0|0:0,0:0:0:0:
189,268,48033,2,0,P|181:302|175:336,1,70,10|0,0:0|0:0,0:0:0:0:
137,187,48300,6,0,P|204:172|263:206,1,140,6|0,0:0|0:0,0:0:0:0:
340,279,48700,1,2,0:0:0:0:
430,226,48833,2,0,P|440:192|442:157,1,70,8|0,0:0|0:0,0:0:0:0:
394,64,49100,1,2,0:0:0:0:
186,33,49366,1,2,0:0:0:0:
262,228,49633,1,8,0:0:0:0:
66,305,49900,6,0,P|32:245|46:178,1,140,2|0,0:0|0:0,0:0:0:0:
114,97,50300,1,2,0:0:0:0:
218,108,50433,2,0,P|252:119|289:115,1,70,8|0,0:0|0:0,0:0:0:0:
389,97,50700,1,2,0:0:0:0:
420,305,50966,1,2,0:0:0:0:
225,229,51233,1,8,0:0:0:0:
314,38,51500,6,0,P|373:4|440:18,1,140,2|0,0:0|0:0,0:0:0:0:
510,97,51900,1,2,0:0:0:0:
456,186,52033,2,0,P|448:220|442:254,1,70,8|0,0:0|0:0,0:0:0:0:
350,306,52300,2,0,P|315:298|281:292,1,70,2|0,0:0|0:0,0:0:0:0:
181,324,52566,1,8,0:0:0:0:
95,261,52700,1,8,0:0:0:0:
191,219,52833,1,8,0:0:0:0:
181,324,52966,1,8,0:0:0:0:
105,156,53100,5,2,0:0:0:0:
289,57,53366,1,2,0:0:0:0:
456,186,53633,1,2,0:0:0:0:
270,284,53900,1,2,0:0:0:0:
105,156,54700,6,0,P|96:193|89:231,1,77.0000023498536,6|0,0:0|0:0,0:0:0:0:
160,322,54966,1,8,0:0:0:0:
270,284,55100,2,0,P|307:275|345:268,1,77.0000023498536,2|0,0:0|0:0,0:0:0:0:
459,285,55366,1,2,0:0:0:0:
453,169,55500,6,0,P|444:131|437:93,1,77.0000023498536,10|0,0:0|0:0,0:0:0:0:
330,50,55766,2,0,P|292:58|254:65,1,77.0000023498536,0|8,0:0|0:0,0:0:0:0:
140,46,56033,1,8,0:0:0:0:
105,156,56166,1,0,0:0:0:0:
155,260,56300,6,0,P|164:297|156:338,1,77.0000023498536,10|0,0:0|0:0,0:0:0:0:
47,301,56566,1,8,0:0:0:0:
6,192,56700,2,0,P|43:183|84:191,1,77.0000023498536,2|0,0:0|0:0,0:0:0:0:
190,156,56966,1,2,0:0:0:0:
293,208,57100,6,0,P|330:214|367:205,1,77.0000023498536,10|0,0:0|0:0,0:0:0:0:
362,90,57366,2,0,P|324:83|287:92,1,77.0000023498536,2|8,0:0|0:0,0:0:0:0:
190,156,57633,2,0,L|113:143,1,77.0000023498536,2|0,0:0|0:0,0:0:0:0:
12,271,57900,6,0,P|9:309|22:347,1,77.0000023498536,10|0,0:0|0:0,0:0:0:0:
134,368,58166,1,0,0:0:0:0:
226,298,58300,2,0,P|263:304|301:313,1,77.0000023498536,8|0,0:0|0:0,0:0:0:0:
387,236,58566,1,8,0:0:0:0:
409,121,58700,6,0,P|371:112|333:105,1,77.0000023498536,10|0,0:0|0:0,0:0:0:0:
221,131,58966,2,0,P|183:139|145:146,1,77.0000023498536,2|8,0:0|0:0,0:0:0:0:
33,117,59233,1,2,0:0:0:0:
114,35,59366,1,0,0:0:0:0:
145,146,59500,6,0,P|153:183|160:221,1,77.0000023498536,10|0,0:0|0:0,0:0:0:0:
239,304,59766,1,0,0:0:0:0:
309,211,59900,2,0,P|302:173|293:135,1,77.0000023498536,8|0,0:0|0:0,0:0:0:0:
363,43,60166,1,8,0:0:0:0:
444,126,60300,6,0,P|452:163|459:201,1,77.0000023498536,12|0,0:0|0:0,0:0:0:0:
422,310,60566,1,2,0:0:0:0:
346,222,60700,1,2,0:0:0:0:
459,201,60833,1,2,0:0:0:0:
422,310,60966,1,2,0:0:0:0:
263,349,61100,6,0,P|225:340|188:335,1,77.0000023498536,6|0,0:0|0:0,0:0:0:0:
79,295,61366,1,0,0:0:0:0:
162,214,61500,2,0,P|200:205|237:200,1,77.0000023498536,2|0,0:0|0:0,0:0:0:0:
345,159,61766,1,2,0:0:0:0:
262,78,61900,6,0,P|224:69|187:64,1,77.0000023498536,10|0,0:0|0:0,0:0:0:0:
85,119,62166,2,0,P|76:157|71:194,1,77.0000023498536,2|8,0:0|0:0,0:0:0:0:
186,203,62433,2,0,P|177:241|172:278,1,77.0000023498536,2|0,0:0|0:0,0:0:0:0:
263,349,62700,6,0,P|301:340|338:335,1,77.0000023498536,10|0,0:0|0:0,0:0:0:0:
451,357,62966,1,0,0:0:0:0:
454,240,63100,2,0,P|463:202|468:165,1,77.0000023498536,8|0,0:0|0:0,0:0:0:0:
461,49,63366,1,8,0:0:0:0:
355,97,63500,6,0,P|317:106|280:111,1,77.0000023498536,10|0,0:0|0:0,0:0:0:0:
172,67,63766,2,0,P|134:58|97:53,1,77.0000023498536,2|8,0:0|0:0,0:0:0:0:
38,153,64033,1,2,0:0:0:0:
56,266,64166,1,0,0:0:0:0:
187,363,64300,6,0,P|225:354|262:349,1,77.0000023498536,10|0,0:0|0:0,0:0:0:0:
321,250,64566,2,0,P|283:241|245:235,1,77.0000023498536,0|8,0:0|0:0,0:0:0:0:
186,136,64833,2,0,P|223:127|261:121,1,77.0000023498536,0|8,0:0|0:0,0:0:0:0:
369,77,65100,6,0,P|407:82|444:91,1,77.0000023498536,10|0,0:0|0:0,0:0:0:0:
491,196,65366,2,0,P|485:234|476:271,1,77.0000023498536,2|8,0:0|0:0,0:0:0:0:
391,351,65633,2,0,P|352:345|315:336,1,77.0000023498536,2|0,0:0|0:0,0:0:0:0:
204,302,65900,6,0,P|138:264|64:280,1,154.000004699707,10|0,0:0|0:0,0:0:0:0:
122,380,66300,1,8,0:0:0:0:
204,302,66433,2,0,P|240:289|279:291,1,77.0000023498536,0|8,0:0|0:0,0:0:0:0:
386,249,66700,6,0,P|399:213|397:174,1,77.0000023498536,10|0,0:0|0:0,0:0:0:0:
335,77,66966,1,8,0:0:0:0:
235,18,67100,1,8,0:0:0:0:
234,134,67233,1,8,0:0:0:0:
335,77,67366,1,8,0:0:0:0:
134,75,67500,6,0,P|121:113|121:150,1,77.0000023498536,6|0,0:0|0:0,0:0:0:0:
157,258,67766,1,8,0:0:0:0:
271,236,67900,2,0,P|309:236|345:249,1,77.0000023498536,2|8,0:0|0:0,0:0:0:0:
401,349,68166,1,2,0:0:0:0:
287,372,68300,6,0,P|248:371|212:358,1,77.0000023498536,10|0,0:0|0:0,0:0:0:0:
157,258,68566,2,0,P|165:220|171:182,1,77.0000023498536,8|0,0:0|0:0,0:0:0:0:
134,75,68833,1,8,0:0:0:0:
56,159,68966,1,2,0:0:0:0:
170,182,69100,6,0,P|207:190|245:196,1,77.0000023498536,10|0,0:0|0:0,0:0:0:0:
348,249,69366,1,8,0:0:0:0:
432,169,69500,2,0,P|437:130|446:93,1,77.0000023498536,2|8,0:0|0:0,0:0:0:0:
375,2,69766,1,2,0:0:0:0:
268,47,69900,6,0,P|230:55|192:61,1,77.0000023498536,10|0,0:0|0:0,0:0:0:0:
97,125,70166,2,0,P|88:162|82:200,1,77.0000023498536,8|2,0:0|0:0,0:0:0:0:
165,281,70433,2,0,P|173:318|179:356,1,77.0000023498536,8|2,0:0|0:0,0:0:0:0:
82,200,70700,6,0,P|148:162|222:178,1,154.000004699707,10|8,0:0|0:0,0:0:0:0:
303,258,71100,1,2,0:0:0:0:
417,244,71233,2,0,P|425:206|431:168,1,77.0000023498536,8|2,0:0|0:0,0:0:0:0:
357,78,71500,6,0,P|283:93|218:55,1,154.000004699707,10|8,0:0|0:0,0:0:0:0:
106,25,71900,1,2,0:0:0:0:
46,123,72033,2,0,P|40:161|31:198,1,77.0000023498536,8|2,0:0|0:0,0:0:0:0:
97,294,72300,6,0,P|135:299|172:308,1,77.0000023498536,10|0,0:0|0:0,0:0:0:0:
269,369,72566,1,8,0:0:0:0:
303,258,72700,2,0,P|297:219|288:182,1,77.0000023498536,2|8,0:0|0:0,0:0:0:0:
181,141,72966,1,2,0:0:0:0:
232,36,73100,6,0,P|269:23|307:26,1,77.0000023498536,10|2,0:0|0:0,0:0:0:0:
397,95,73366,2,0,P|410:132|407:170,1,77.0000023498536,12|2,0:0|0:0,0:0:0:0:
334,259,73633,2,0,P|295:256|259:269,1,77.0000023498536,8|0,0:0|0:0,0:0:0:0:
115,329,73900,6,0,P|76:323|39:314,1,77.0000023498536,12|0,0:0|0:0,0:0:0:0:
16,201,74166,1,8,0:0:0:0:
105,126,74300,2,0,P|143:131|180:140,1,77.0000023498536,2|8,0:0|0:0,0:0:0:0:
287,182,74566,1,2,0:0:0:0:
354,87,74700,6,0,P|391:78|429:72,1,77.0000023498536,10|0,0:0|0:0,0:0:0:0:
496,167,74966,2,0,P|490:205|481:242,1,77.0000023498536,8|2,0:0|0:0,0:0:0:0:
407,331,75233,1,8,0:0:0:0:
293,311,75366,1,2,0:0:0:0:
178,291,75500,6,0,P|139:296|102:305,1,77.0000023498536,10|0,0:0|0:0,0:0:0:0:
30,214,75766,1,8,0:0:0:0:
71,105,75900,2,0,P|108:96|146:90,1,77.0000023498536,2|8,0:0|0:0,0:0:0:0:
257,65,76166,1,2,0:0:0:0:
298,173,76300,6,0,P|303:211|312:248,1,77.0000023498536,10|0,0:0|0:0,0:0:0:0:
425,228,76566,2,0,P|419:189|410:152,1,77.0000023498536,8|2,0:0|0:0,0:0:0:0:
287,182,76833,2,0,P|292:220|301:257,1,77.0000023498536,8|2,0:0|0:0,0:0:0:0:
330,73,77100,6,0,P|293:60|254:65,1,77.0000023498536,10|0,0:0|0:0,0:0:0:0:
177,149,77366,2,0,P|171:187|162:224,1,77.0000023498536,8|2,0:0|0:0,0:0:0:0:
39,195,77633,2,0,P|44:156|53:119,1,77.0000023498536,8|2,0:0|0:0,0:0:0:0:
139,41,77900,6,0,P|220:39|274:85,1,154.000004699707,10|8,0:0|0:0,0:0:0:0:
326,186,78300,1,2,0:0:0:0:
304,299,78433,1,8,0:0:0:0:
400,361,78566,1,2,0:0:0:0:
471,269,78700,6,0,P|479:231|485:193,1,77.0000023498536,10|0,0:0|0:0,0:0:0:0:
419,99,78966,1,8,0:0:0:0:
305,79,79100,2,0,P|267:87|229:93,1,77.0000023498536,2|8,0:0|0:0,0:0:0:0:
115,72,79366,1,2,0:0:0:0:
42,162,79500,6,0,P|33:199|27:237,1,77.0000023498536,12|0,0:0|0:0,0:0:0:0:
115,312,79766,2,0,P|152:303|190:297,1,77.0000023498536,8|0,0:0|0:0,0:0:0:0:
251,198,80033,2,0,P|213:189|175:183,1,77.0000023498536,8|0,0:0|0:0,0:0:0:0:
305,79,80300,6,0,P|342:70|380:64,1,77.0000023498536,6|0,0:0|0:0,0:0:0:0:
365,179,80566,2,0,P|373:216|379:254,1,77.0000023498536,8|0,0:0|0:0,0:0:0:0:
479,315,80833,2,0,P|487:277|493:239,1,77.0000023498536,8|0,0:0|0:0,0:0:0:0:
456,79,81100,6,0,P|418:70|380:64,1,77.0000023498536,6|0,0:0|0:0,0:0:0:0:
265,58,81366,1,8,0:0:0:0:
156,99,81500,1,8,0:0:0:0:
151,214,81633,2,0,P|142:251|136:289,1,77.0000023498536,8|8,0:0|0:0,0:0:0:0:
37,350,81900,6,0,P|28:312|22:274,1,77.0000023498536,12|0,0:0|0:0,0:0:0:0:
135,289,82166,2,0,P|173:297|211:303,1,77.0000023498536,8|2,0:0|0:0,0:0:0:0:
316,350,82433,1,2,0:0:0:0:
378,253,82566,1,2,0:0:0:0:
135,289,82700,5,6,0:0:0:0:
135,289,83500,6,0,P|208:277|275:275,1,140,6|0,0:0|0:0,0:0:0:0:
378,253,83900,2,0,P|384:218|385:184,1,70,8|0,0:0|0:0,0:0:0:0:
379,78,84166,1,8,0:0:0:0:
284,125,84300,2,0,P|249:131|215:132,1,70,2|0,0:0|0:0,0:0:0:0:
117,92,84566,2,0,P|111:57|110:23,1,70,2|0,0:0|0:0,0:0:0:0:
9,54,84833,2,0,P|10:88|15:123,1,70,8|0,0:0|0:0,0:0:0:0:
32,227,85100,6,0,P|96:261|161:245,1,140,2|0,0:0|0:0,0:0:0:0:
260,217,85500,2,0,P|298:214|332:223,1,70,8|0,0:0|0:0,0:0:0:0:
402,296,85766,1,8,0:0:0:0:
323,366,85900,2,0,P|285:369|251:360,1,70,2|0,0:0|0:0,0:0:0:0:
180,287,86166,2,0,P|163:256|143:227,1,70,2|0,0:0|0:0,0:0:0:0:
236,178,86433,2,0,P|219:147|199:118,1,70,8|0,0:0|0:0,0:0:0:0:
312,31,86700,6,0,P|350:28|384:37,1,70,6|0,0:0|0:0,0:0:0:0:
429,128,86966,2,0,P|408:156|392:187,1,70,8|0,0:0|0:0,0:0:0:0:
485,237,87233,2,0,P|464:265|448:296,1,70,8|0,0:0|0:0,0:0:0:0:
323,366,87500,2,0,P|289:358|254:361,1,70,6|0,0:0|0:0,0:0:0:0:
149,352,87766,1,8,0:0:0:0:
76,251,87900,1,8,0:0:0:0:
194,289,88033,1,8,0:0:0:0:
76,329,88166,1,8,0:0:0:0:
149,228,88300,5,2,0:0:0:0:
152,211,88566,1,2,0:0:0:0:
154,194,88833,1,2,0:0:0:0:
153,177,89100,1,2,0:0:0:0:
