osu file format v14

[General]
AudioFilename: Noise.mp3
AudioLeadIn: 0
PreviewTime: 54700
Countdown: 0
SampleSet: Soft
StackLeniency: 0.7
Mode: 0
LetterboxInBreaks: 0
WidescreenStoryboard: 0

[Editor]
DistanceSpacing: 1
BeatDivisor: 4
GridSize: 4
TimelineZoom: 4.399997

[Metadata]
Title:Noise
TitleUnicode:ノイズ
Artist:MIOYAMAZAKI
ArtistUnicode:ミオヤマザキ
Creator:kunka
Version:Easy
Source:地獄少女 宵伽
Tags:opening tv size jigoku shoujo yoi no togi hell girl Milan- Makyu kunkakunkakunkakunka
BeatmapID:1368397
BeatmapSetID:640797

[Difficulty]
HPDrainRate:2
CircleSize:3
OverallDifficulty:3
ApproachRate:3
SliderMultiplier:1
SliderTickRate:1

[Events]
//Background and Video events
0,0,"BG.jpg",0,0
Video,0,"Noise.avi"
//Break Periods
//Storyboard Layer 0 (Background)
//Storyboard Layer 1 (Fail)
//Storyboard Layer 2 (Pass)
//Storyboard Layer 3 (Foreground)
//Storyboard Sound Samples

[TimingPoints]
300,266.666666666667,3,2,1,50,1,0
300,-117.647058823529,4,2,1,50,0,0
13100,-117.647058823529,4,2,3,70,0,0
25900,-117.647058823529,4,2,2,60,0,0
37100,-117.647058823529,4,2,1,60,0,0
38700,-117.647058823529,4,2,2,60,0,0
53100,-117.647058823529,4,2,1,60,0,0
54700,-117.647058823529,4,2,2,70,0,1
55500,-117.647058823529,4,2,3,70,0,1
56033,-117.647058823529,4,2,1,70,0,1
57100,-117.647058823529,4,2,3,70,0,1
57633,-117.647058823529,4,2,1,70,0,1
58700,-117.647058823529,4,2,3,70,0,1
58966,-117.647058823529,4,2,1,70,0,1
60300,-117.647058823529,4,2,2,70,0,1
61900,-117.647058823529,4,2,3,70,0,1
62166,-117.647058823529,4,2,1,70,0,1
63500,-117.647058823529,4,2,3,70,0,1
64033,-117.647058823529,4,2,1,70,0,1
65100,-117.647058823529,4,2,3,70,0,1
65366,-117.647058823529,4,2,1,70,0,1
66700,-117.647058823529,4,2,3,70,0,1
67500,-117.647058823529,4,2,2,70,0,1
68300,-117.647058823529,4,2,3,70,0,1
69500,-117.647058823529,4,2,2,70,0,1
69900,-117.647058823529,4,2,3,70,0,1
72700,-117.647058823529,4,2,2,70,0,1
73100,-117.647058823529,4,2,3,70,0,1
74300,-117.647058823529,4,2,2,70,0,1
74700,-117.647058823529,4,2,3,70,0,1
75900,-117.647058823529,4,2,2,70,0,1
76300,-117.647058823529,4,2,3,70,0,1
79100,-117.647058823529,4,2,2,70,0,1
82700,-117.647058823529,4,2,2,70,0,0
83500,-117.647058823529,4,2,2,60,0,0
88300,-117.647058823529,4,2,1,20,0,0

[Colours]
Combo1 : 255,128,255
Combo2 : 0,255,64
Combo3 : 128,255,255
Combo4 : 255,128,128
Combo5 : 255,255,128

[HitObjects]
146,138,300,6,0,P|80:141|19:153,2,127.50000243187,8|0|0,0:0|0:0|0:0,0:0:0:0:
306,194,1633,1,0,0:0:0:0:
374,243,1900,2,0,P|434:268|494:243,2,127.50000243187,2|0|2,0:0|0:0|0:0,0:0:0:0:
211,194,3233,1,0,0:0:0:0:
146,138,3500,6,0,P|149:72|161:11,2,127.50000243187,2|0|0,0:0|0:0|0:0,0:0:0:0:
306,194,4833,1,0,0:0:0:0:
374,145,5100,2,0,P|434:120|494:145,2,127.50000243187,2|0|2,0:0|0:0|0:0,0:0:0:0:
224,225,6433,1,0,0:0:0:0:
168,290,6700,6,0,P|105:277|41:275,2,127.50000243187,2|0|0,0:0|0:0|0:0,0:0:0:0:
224,353,7766,2,0,P|266:361|309:362,1,85.0000016212464
391,339,8300,2,0,P|416:279|391:219,2,127.50000243187,2|0|0,0:0|0:0|0:0,0:0:0:0:
224,353,9633,1,0,0:0:0:0:
168,288,9900,6,0,P|123:290|82:298,2,85.0000016212464,2|0|0,0:0|0:0|0:0,0:0:0:0:
216,218,10700,2,0,P|258:220|300:228,2,85.0000016212464
160,153,11500,2,0,P|128:51|234:66,1,255.000004863739,2|0,0:0|0:0,0:0:0:0:
410,249,13100,6,0,P|402:291|401:334,2,85.0000016212464,12|8|8,0:0|0:0|0:0,0:0:0:0:
453,175,13900,2,0,P|451:92|381:50,1,170.000003242493,10|8,0:0|0:0,0:0:0:0:
297,54,14700,2,0,P|213:70|128:73,1,170.000003242493,10|8,0:0|0:0,0:0:0:0:
46,96,15500,2,0,P|6:167|46:240,1,170.000003242493,10|8,0:0|0:0,0:0:0:0:
107,295,16300,6,0,P|99:336|96:379,2,85.0000016212464,12|8|8,0:0|0:0|0:0,0:0:0:0:
179,250,17100,2,0,P|250:211|321:251,1,170.000003242493,10|8,0:0|0:0,0:0:0:0:
377,316,17900,2,0,P|380:231|396:147,1,170.000003242493,10|8,0:0|0:0,0:0:0:0:
477,120,18700,2,0,P|417:64|338:84,1,170.000003242493,10|8,0:0|0:0,0:0:0:0:
264,124,19500,6,0,P|222:116|179:114,2,85.0000016212464,12|8|8,0:0|0:0|0:0,0:0:0:0:
322,187,20300,2,0,P|314:228|312:271,2,85.0000016212464,12|8|8,0:0|0:0|0:0,0:0:0:0:
396,147,21100,2,0,P|437:154|480:156,2,85.0000016212464,12|8|8,0:0|0:0|0:0,0:0:0:0:
338,84,21900,2,0,P|345:42|347:0,2,85.0000016212464,12|8|8,0:0|0:0|0:0,0:0:0:0:
264,124,22700,6,0,P|261:208|244:292,1,170.000003242493,12|8,0:0|0:0,0:0:0:0:
173,339,23500,2,0,P|101:379|29:339,1,170.000003242493,12|8,0:0|0:0,0:0:0:0:
24,255,24300,2,0,P|14:213|0:173,2,85.0000016212464,12|8|8,0:0|0:0|0:0,0:0:0:0:
101,293,25100,2,0,P|173:253|245:293,1,170.000003242493,12|8,0:0|0:0,0:0:0:0:
304,350,25900,6,0,P|360:374|420:350,2,127.50000243187,12|2|8,0:0|0:0|0:0,0:0:0:0:
362,287,26966,1,2,0:0:0:0:
362,201,27233,1,2,0:0:0:0:
304,138,27500,2,0,P|361:114|419:138,2,127.50000243187,2|2|8,0:0|0:0|0:0,0:0:0:0:
227,173,28566,1,2,0:0:0:0:
147,142,28833,1,2,0:0:0:0:
68,173,29100,6,0,P|44:230|68:288,2,127.50000243187,2|2|8,0:0|0:0|0:0,0:0:0:0:
79,89,30166,2,0,P|112:64|155:57,1,85.0000016212464,2|2,0:0|0:0,0:0:0:0:
224,106,30700,2,0,L|350:84,2,127.50000243187,2|2|8,0:0|0:0|0:0,0:0:0:0:
147,142,31766,1,2,0:0:0:0:
147,227,32033,1,2,0:0:0:0:
114,305,32300,6,0,P|57:329|-1:305,2,127.50000243187,2|2|8,0:0|0:0|0:0,0:0:0:0:
198,295,33366,2,0,L|285:295,1,85.0000016212464,2|2,0:0|0:0,0:0:0:0:
346,237,33900,2,0,P|370:294|346:352,2,127.50000243187,2|2|8,0:0|0:0|0:0,0:0:0:0:
285,178,34966,1,2,0:0:0:0:
206,210,35233,1,2,0:0:0:0:
198,295,35500,6,0,L|72:317,2,127.50000243187,2|2|8,0:0|0:0|0:0,0:0:0:0:
283,295,36566,1,2,0:0:0:0:
346,351,36833,1,2,0:0:0:0:
402,287,37100,2,0,P|425:229|401:172,2,127.50000243187,10|10|10,0:0|0:0|0:0,0:0:0:0:
302,50,38700,6,0,B|218:34|218:34|138:64,1,170.000003242493,6|2,0:0|0:0,0:0:0:0:
84,129,39500,2,0,L|0:114,2,85.0000016212464,2|2|2,0:0|0:0|0:0,0:0:0:0:
150,182,40300,2,0,B|233:197|233:197|313:167,1,170.000003242493,2|2,0:0|0:0,0:0:0:0:
368,103,41100,2,0,L|452:118,2,85.0000016212464,2|2|10,0:0|0:0|0:0,0:0:0:0:
337,26,41900,6,0,P|286:89|314:168,1,170.000003242493,2|2,0:0|0:0,0:0:0:0:
360,237,42700,2,0,P|371:277|360:318,1,85.0000016212464,2|2,0:0|0:0,0:0:0:0:
280,347,43233,1,2,0:0:0:0:
204,308,43500,2,0,B|119:293|119:293|80:308,2,127.50000243187,2|0|2,0:0|0:0|0:0,0:0:0:0:
360,237,44833,1,10,0:0:0:0:
403,310,45100,6,0,P|446:239|405:165,1,170.000003242493,6|2,0:0|0:0,0:0:0:0:
358,100,45900,2,0,P|360:58|368:16,2,85.0000016212464,2|2|2,0:0|0:0|0:0,0:0:0:0:
308,169,46700,2,0,P|237:212|163:171,1,170.000003242493,2|2,0:0|0:0,0:0:0:0:
126,100,47500,2,0,P|124:58|116:16,2,85.0000016212464,2|2|10,0:0|0:0|0:0,0:0:0:0:
81,172,48300,6,0,P|38:243|79:317,1,170.000003242493,6|8,0:0|0:0,0:0:0:0:
154,341,49100,2,0,P|195:333|238:330,1,85.0000016212464,2|2,0:0|0:0,0:0:0:0:
316,364,49633,1,8,0:0:0:0:
387,317,49900,2,0,P|430:246|389:172,1,170.000003242493,2|8,0:0|0:0,0:0:0:0:
314,148,50700,2,0,P|272:155|229:158,1,85.0000016212464,2|2,0:0|0:0,0:0:0:0:
152,125,51233,1,8,0:0:0:0:
256,192,51500,12,2,53100,0:0:0:0:
211,273,54700,6,0,P|145:276|84:288,2,127.50000243187,6|2|10,0:0|0:0|0:0,0:0:0:0:
284,315,55766,1,0,0:0:0:0:
365,290,56033,1,8,0:0:0:0:
425,349,56300,2,0,P|448:290|425:231,2,127.50000243187,10|8|10,0:0|0:0|0:0,0:0:0:0:
301,232,57633,1,8,0:0:0:0:
253,161,57900,6,0,P|251:97|239:34,2,127.50000243187,10|8|10,0:0|0:0|0:0,0:0:0:0:
210,234,58966,1,8,0:0:0:0:
127,253,59233,1,8,0:0:0:0:
42,240,59500,2,0,P|17:300|42:360,2,127.50000243187,10|8|12,0:0|0:0|0:0,0:0:0:0:
210,234,60833,1,2,0:0:0:0:
253,161,61100,6,0,P|265:98|267:34,2,127.50000243187,6|2|10,0:0|0:0|0:0,0:0:0:0:
301,232,62166,2,0,P|309:273|310:316,1,85.0000016212464,8|8,0:0|0:0,0:0:0:0:
236,358,62700,2,0,P|173:369|109:371,2,127.50000243187,10|8|10,0:0|0:0|0:0,0:0:0:0:
154,208,64033,1,8,0:0:0:0:
113,133,64300,6,0,P|122:90|123:47,2,85.0000016212464,10|0|0,0:0|0:0|0:0,0:0:0:0:
69,206,65100,2,0,P|60:248|59:291,2,85.0000016212464,10|8|8,0:0|0:0|0:0,0:0:0:0:
154,208,65900,2,0,P|216:220|280:222,2,127.50000243187,10|8|10,0:0|0:0|0:0,0:0:0:0:
405,166,67500,6,0,P|425:224|400:281,2,127.50000243187,6|2|10,0:0|0:0|0:0,0:0:0:0:
362,92,68566,1,8,0:0:0:0:
280,65,68833,1,8,0:0:0:0:
198,89,69100,2,0,P|136:101|72:103,2,127.50000243187,10|2|10,0:0|0:0|0:0,0:0:0:0:
259,147,70166,2,0,P|267:188|268:231,1,85.0000016212464,8|8,0:0|0:0,0:0:0:0:
340,278,70700,6,0,P|411:318|484:278,1,170.000003242493,10|8,0:0|0:0,0:0:0:0:
411,232,71500,2,0,P|340:192|267:232,1,170.000003242493,10|8,0:0|0:0,0:0:0:0:
221,301,72300,2,0,P|169:339|109:331,2,127.50000243187,10|2|10,0:0|0:0|0:0,0:0:0:0:
149,254,73366,1,12,0:0:0:0:
170,171,73633,1,8,0:0:0:0:
136,92,73900,6,0,P|73:79|9:78,2,127.50000243187,12|2|10,0:0|0:0|0:0,0:0:0:0:
198,35,74966,1,8,0:0:0:0:
281,16,75233,1,8,0:0:0:0:
355,56,75500,2,0,P|415:81|475:56,2,127.50000243187,10|2|10,0:0|0:0|0:0,0:0:0:0:
283,101,76566,2,0,P|275:142|274:185,1,85.0000016212464,8|8,0:0|0:0,0:0:0:0:
257,270,77100,6,0,P|235:348|155:371,1,170.000003242493,10|8,0:0|0:0,0:0:0:0:
174,287,77900,2,0,P|195:208|275:185,1,170.000003242493,10|8,0:0|0:0,0:0:0:0:
356,205,78700,2,0,P|417:212|467:174,2,127.50000243187,10|2|12,0:0|0:0|0:0,0:0:0:0:
332,123,79766,6,0,P|330:80|321:39,2,85.0000016212464,8|8|6,0:0|0:0|0:0,0:0:0:0:
273,184,80566,2,0,P|274:226|283:267,2,85.0000016212464,8|8|6,0:0|0:0|0:0,0:0:0:0:
118,112,81633,2,0,P|75:113|34:122,1,85.0000016212464,8|12,0:0|0:0,0:0:0:0:
40,206,82166,2,0,P|81:197|123:195,1,85.0000016212464,8|2,0:0|0:0,0:0:0:0:
195,149,82700,1,6,0:0:0:0:
425,257,83500,6,0,P|445:315|420:372,2,127.50000243187,6|8|2,0:0|0:0|0:0,0:0:0:0:
341,241,84566,2,0,P|299:250|257:251,1,85.0000016212464,2|8,0:0|0:0,0:0:0:0:
180,289,85100,2,0,P|122:309|65:284,2,127.50000243187,2|8|2,0:0|0:0|0:0,0:0:0:0:
186,204,86166,6,0,P|188:161|197:120,2,85.0000016212464,2|8|6,0:0|0:0|0:0,0:0:0:0:
257,251,86966,2,0,P|299:252|340:261,2,85.0000016212464,8|8|6,0:0|0:0|0:0,0:0:0:0:
180,289,87766,1,8,0:0:0:0:
246,341,88033,2,0,P|288:342|329:351,1,85.0000016212464,8|2,0:0|0:0,0:0:0:0:
406,314,88566,2,0,P|447:304|489:303,2,85.0000016212464,2|2|2,0:0|0:0|0:0,0:0:0:0:
