osu file format v14

[General]
AudioFilename: song of four seasons.mp3
AudioLeadIn: 0
PreviewTime: 11438
Countdown: 0
SampleSet: Soft
StackLeniency: 0.7
Mode: 0
LetterboxInBreaks: 0
WidescreenStoryboard: 1

[Editor]
DistanceSpacing: 0.5
BeatDivisor: 4
GridSize: 4
TimelineZoom: 1.6

[Metadata]
Title:Shiki no Uta
TitleUnicode:四季ノ唄
Artist:MINMI
ArtistUnicode:MINMI
Creator:Autumn
Version:Insane
Source:Samurai Champloo
Tags:Citrus サムライチャンプルー Nujabes
BeatmapID:737914
BeatmapSetID:332371

[Difficulty]
HPDrainRate:5
CircleSize:4.5
OverallDifficulty:7
ApproachRate:9
SliderMultiplier:2.4
SliderTickRate:1

[Events]
//Background and Video events
0,0,"BG.jpg",0,0
//Break Periods
//Storyboard Layer 0 (Background)
//Storyboard Layer 1 (Fail)
//Storyboard Layer 2 (Pass)
//Storyboard Layer 3 (Foreground)
//Storyboard Sound Samples

[TimingPoints]
6898,648.648648648649,4,2,1,25,1,0
12087,-100,4,2,1,30,0,0
32843,-100,4,2,1,30,0,0
53600,-100,4,2,1,30,0,1
74357,-100,4,2,1,30,0,0
97708,-100,4,2,1,5,0,0

[Colours]
Combo1 : 144,41,42
Combo2 : 234,201,148
Combo3 : 66,108,192

[HitObjects]
80,144,6897,6,0,B|124:144|172:128|172:128|156:152,1,120,0|8,0:0|0:0,0:0:0:0:
120,212,7384,1,0,0:0:0:0:
188,60,7546,1,0,0:0:0:0:
208,72,7708,1,8,0:0:0:0:
295,156,7870,2,0,P|276:136|268:104,1,60,8|0,0:0|0:0,0:0:0:0:
232,232,8195,6,0,L|368:216,1,120,0|8,0:0|0:0,0:0:0:0:
410,135,8681,2,0,P|350:132|295:155,1,120,0|8,0:0|0:0,0:0:0:0:
360,312,9168,1,8,0:0:0:0:
364,288,9330,1,0,0:0:0:0:
424,68,9492,6,0,P|420:148|448:196,1,120,0|8,0:0|0:0,0:0:0:0:
311,202,9979,2,0,B|288:216|288:216|344:204|380:216,1,120,0|8,0:0|0:0,0:0:0:0:
444,276,10465,1,0,0:0:0:0:
436,182,10627,1,0,0:0:0:0:
364,288,10789,1,0,0:0:0:0:
452,256,10952,5,2,0:0:0:0:
464,236,11276,1,10,0:0:0:0:
480,216,11600,1,2,0:0:0:0:
464,96,11762,1,0,0:0:0:0:
496,208,11925,1,2,0:0:0:0:
484,332,12087,6,0,P|420:336|360:328,1,120,4|8,0:0|0:0,0:0:0:0:
288,284,12573,1,0,0:0:0:0:
296,160,12735,2,0,P|316:184|324:212,1,60,0|8,0:0|0:0,0:0:0:0:
358,64,13060,2,0,P|355:94|360:124,1,60,8|0,0:0|0:0,0:0:0:0:
296,160,13384,2,0,L|178:137,1,120,0|8,0:0|0:0,0:0:0:0:
88,214,13870,2,0,L|208:208,1,120,0|8,0:0|0:0,0:0:0:0:
84,80,14357,1,8,0:0:0:0:
180,136,14519,1,0,0:0:0:0:
88,214,14681,6,0,P|36:184|28:124,1,120,0|8,0:0|0:0,0:0:0:0:
131,268,15168,2,0,P|160:320|232:336,1,120,0|8,0:0|0:0,0:0:0:0:
220,252,15654,1,0,0:0:0:0:
60,296,15816,1,0,0:0:0:0:
44,320,15979,1,0,0:0:0:0:
88,212,16141,1,2,0:0:0:0:
68,192,16303,1,0,0:0:0:0:
168,324,16465,1,10,0:0:0:0:
168,352,16627,1,0,0:0:0:0:
220,252,16789,5,10,0:0:0:0:
240,240,16952,1,0,0:0:0:0:
264,240,17114,1,0,0:0:0:0:
356,335,17276,2,0,B|452:320|452:320|436:348,1,120,4|8,0:0|0:0,0:0:0:0:
268,316,17762,1,0,0:0:0:0:
376,248,17925,1,0,0:0:0:0:
356,335,18087,1,8,0:0:0:0:
276,288,18249,1,8,0:0:0:0:
392,268,18411,1,0,0:0:0:0:
256,348,18573,6,0,L|188:336,1,60
48,264,18898,1,8,0:0:0:0:
80,212,19060,2,0,P|88:276|56:340,1,120,0|8,0:0|0:0,0:0:0:0:
168,240,19546,2,0,P|184:272|188:308,1,60,8|0,0:0|0:0,0:0:0:0:
176,136,19870,2,0,P|229:161|273:205,1,120,0|8,0:0|0:0,0:0:0:0:
423,327,20357,2,0,P|428:268|454:215,1,120,0|8,0:0|0:0,0:0:0:0:
508,172,20843,1,0,0:0:0:0:
376,208,21006,1,0,0:0:0:0:
416,100,21168,1,0,0:0:0:0:
452,236,21330,6,0,L|352:252,1,90,2|0,0:0|0:0,0:0:0:0:
360,260,21654,2,0,L|260:276,1,90,10|0,0:0|0:0,0:0:0:0:
268,284,21979,1,0,0:0:0:0:
180,300,22141,1,0,0:0:0:0:
212,216,22303,1,0,0:0:0:0:
96,280,22465,6,0,P|100:344|148:384,1,120,4|8,0:0|0:0,0:0:0:0:
20,256,22952,2,0,L|140:224,1,120,0|8,0:0|0:0,0:0:0:0:
180,300,23438,1,8,0:0:0:0:
268,284,23600,1,0,0:0:0:0:
356,268,23762,6,0,B|344:328|344:328|292:368,1,120,0|8,0:0|0:0,0:0:0:0:
424,332,24249,2,0,L|444:204,1,120,0|8,0:0|0:0,0:0:0:0:
296,132,24735,2,0,P|324:152|360:160,1,60,8|0,0:0|0:0,0:0:0:0:
496,48,25060,2,0,P|448:60|400:112,1,120,0|8,0:0|0:0,0:0:0:0:
216,240,25546,2,0,L|344:228,1,120,0|8,0:0|0:0,0:0:0:0:
400,110,26033,5,0,0:0:0:0:
436,228,26195,1,0,0:0:0:0:
416,240,26357,1,0,0:0:0:0:
396,252,26519,2,0,L|280:236,1,90,2|0,0:0|0:0,0:0:0:0:
292,244,26843,1,10,0:0:0:0:
280,264,27168,5,8,0:0:0:0:
148,204,27330,1,0,0:0:0:0:
244,168,27492,1,0,0:0:0:0:
336,304,27654,6,0,P|396:316|464:288,1,120,4|8,0:0|0:0,0:0:0:0:
208,256,28141,2,0,P|156:288|84:292,1,120,0|8,0:0|0:0,0:0:0:0:
44,196,28627,1,8,0:0:0:0:
32,224,28789,1,0,0:0:0:0:
32,256,28952,2,0,P|69:200|112:168,1,120,0|8,0:0|0:0,0:0:0:0:
160,252,29438,1,0,0:0:0:0:
208,256,29600,6,0,P|184:228|176:192,1,60
256,80,29925,2,0,L|232:140,1,60
289,195,30249,2,0,L|255:80,1,120,8|0,0:0|0:0,0:0:0:0:
365,219,30735,2,0,L|330:103,1,120,8|8,0:0|0:0,0:0:0:0:
443,246,31222,2,0,L|408:130,1,120
460,72,31708,1,2,0:0:0:0:
376,304,32033,5,10,0:0:0:0:
224,136,32357,1,0,0:0:0:0:
312,144,32519,2,0,P|340:118|355:100,1,60
472,120,32843,6,0,B|472:184|472:184|504:244,1,120,0|8,0:0|0:0,0:0:0:0:
472,332,33330,2,0,L|324:336,1,120,0|8,0:0|0:0,0:0:0:0:
272,296,33816,1,8,0:0:0:0:
192,252,33979,1,0,0:0:0:0:
160,331,34141,2,0,B|216:327|216:327|292:283,1,120,0|8,0:0|0:0,0:0:0:0:
324,212,34627,1,0,0:0:0:0:
252,48,34952,5,8,0:0:0:0:
288,128,35114,1,8,0:0:0:0:
324,212,35276,1,0,0:0:0:0:
220,180,35438,2,0,P|296:160|360:160,1,120,0|8,0:0|0:0,0:0:0:0:
164,92,35925,2,0,P|144:164|112:200,1,120,0|8,0:0|0:0,0:0:0:0:
220,180,36411,1,2,0:0:0:0:
228,192,36573,1,2,0:0:0:0:
236,204,36735,1,2,0:0:0:0:
300,244,36898,6,0,L|168:264,1,120,0|8,0:0|0:0,0:0:0:0:
76,216,37384,1,0,0:0:0:0:
64,240,37546,1,8,0:0:0:0:
64,80,37708,1,0,0:0:0:0:
84,60,37870,1,0,0:0:0:0:
128,120,38033,6,0,P|132:180|164:244,1,120,0|8,0:0|0:0,0:0:0:0:
76,216,38519,2,0,L|212:208,1,120,0|8,0:0|0:0,0:0:0:0:
280,160,39006,1,8,0:0:0:0:
248,244,39168,1,0,0:0:0:0:
232,112,39330,6,0,L|356:132,1,120,0|8,0:0|0:0,0:0:0:0:
408,200,39816,1,0,0:0:0:0:
416,96,39979,2,0,P|424:60|440:40,1,60,0|8,0:0|0:0,0:0:0:0:
440,192,40303,2,0,P|432:224|400:252,1,60,8|0,0:0|0:0,0:0:0:0:
276,320,40627,6,0,P|328:347|387:354,1,120,0|8,0:0|0:0,0:0:0:0:
334,262,41114,2,0,P|303:211|254:178,1,120,0|8,0:0|0:0,0:0:0:0:
156,216,41600,1,0,0:0:0:0:
254,178,41762,1,0,0:0:0:0:
268,76,41925,1,0,0:0:0:0:
356,144,42087,6,0,L|332:256,1,90,2|0,0:0|0:0,0:0:0:0:
328,240,42411,2,0,L|304:352,1,90,10|0,0:0|0:0,0:0:0:0:
300,336,42735,2,0,B|390:324|390:324|436:336,1,120,10|0,0:0|0:0,0:0:0:0:
208,312,43222,6,0,P|180:332|144:336,2,60,0|0|8,0:0|0:0|0:0,0:0:0:0:
90,288,43708,2,0,L|208:312,1,120,0|8,0:0|0:0,0:0:0:0:
280,260,44195,1,8,0:0:0:0:
197,222,44357,6,0,L|208:312,1,90
204,324,44681,2,0,B|248:312|248:312|275:346,1,90
356,376,45006,2,0,B|312:388|312:388|284:353,1,90
364,372,45330,2,0,B|375:327|375:327|418:320,1,90,8|0,0:0|0:0,0:0:0:0:
428,316,45654,1,0,0:0:0:0:
448,232,45816,6,0,P|372:248|316:236,1,120,0|8,0:0|0:0,0:0:0:0:
240,200,46303,1,0,0:0:0:0:
314,126,46465,2,0,P|344:128|372:140,1,60,0|8,0:0|0:0,0:0:0:0:
436,204,46789,1,0,0:0:0:0:
448,232,46952,1,0,0:0:0:0:
460,256,47114,1,0,0:0:0:0:
352,204,47276,6,0,L|380:96,1,90,2|0,0:0|0:0,0:0:0:0:
384,120,47600,2,0,L|406:32,1,90,10|0,0:0|0:0,0:0:0:0:
416,24,47925,1,10,0:0:0:0:
328,52,48087,1,0,0:0:0:0:
244,84,48249,1,0,0:0:0:0:
160,112,48411,6,0,B|256:136|256:136|224:152,1,120,0|8,0:0|0:0,0:0:0:0:
72,82,48898,2,0,B|71:103|71:103|140:32,1,120,0|8,0:0|0:0,0:0:0:0:
228,52,49384,1,8,0:0:0:0:
257,250,49546,2,0,P|204:224|144:224,1,120
252,204,50033,1,8,0:0:0:0:
220,304,50195,1,0,0:0:0:0:
248,160,50357,5,2,0:0:0:0:
312,136,50519,1,8,0:0:0:0:
180,140,50681,1,8,0:0:0:0:
344,160,50843,1,2,0:0:0:0:
340,236,51006,6,0,P|364:299|412:345,1,120,0|8,0:0|0:0,0:0:0:0:
416,208,51492,2,0,L|428:80,1,120,0|8,0:0|0:0,0:0:0:0:
456,144,51979,1,0,0:0:0:0:
352,136,52141,1,0,0:0:0:0:
276,72,52303,1,0,0:0:0:0:
416,208,52465,6,0,P|392:272|360:288,1,90,2|0,0:0|0:0,0:0:0:0:
364,288,52789,2,0,P|312:284|264:292,1,90,10|0,0:0|0:0,0:0:0:0:
260,296,53114,1,8,0:0:0:0:
125,333,53276,2,0,P|154:342|184:344,1,60
260,296,53600,6,0,B|272:256|260:200|260:200|288:224,1,120,4|8,0:0|0:0,0:0:0:0:
176,248,54087,1,0,0:0:0:0:
208,148,54249,1,0,0:0:0:0:
288,216,54411,1,8,0:0:0:0:
160,216,54573,1,8,0:0:0:0:
236,152,54735,6,0,P|280:152|304:144,1,60
472,132,55060,2,0,P|440:152|412:160,1,60,0|8,0:0|0:0,0:0:0:0:
260,296,55384,2,0,P|272:256|296:232,1,60
352,72,55708,2,0,P|352:112|344:140,1,60,8|8,0:0|0:0,0:0:0:0:
272,184,56033,1,0,0:0:0:0:
380,320,56195,6,0,B|376:276|360:232|360:232|385:246,1,120,0|8,0:0|0:0,0:0:0:0:
448,124,56681,2,0,B|422:109|422:109|440:160|442:197,1,120,0|8,0:0|0:0,0:0:0:0:
464,284,57168,1,0,0:0:0:0:
312,308,57330,1,0,0:0:0:0:
344,224,57492,1,0,0:0:0:0:
224,280,57654,6,0,L|120:296,1,90,2|0,0:0|0:0,0:0:0:0:
128,280,57979,2,0,L|24:296,1,90,10|0,0:0|0:0,0:0:0:0:
24,288,58303,1,10,0:0:0:0:
88,188,58465,1,0,0:0:0:0:
28,84,58627,1,0,0:0:0:0:
128,204,58789,6,0,P|200:208|248:196,1,120,4|8,0:0|0:0,0:0:0:0:
328,136,59276,1,0,0:0:0:0:
308,240,59438,1,0,0:0:0:0:
328,136,59600,1,8,0:0:0:0:
400,168,59762,1,8,0:0:0:0:
252,132,59925,1,0,0:0:0:0:
361,269,60087,6,0,L|336:324,1,60
458,278,60411,2,0,L|484:224,1,60,8|0,0:0|0:0,0:0:0:0:
408,324,60735,2,0,L|382:378,1,60
412,224,61060,2,0,L|437:169,1,60,8|0,0:0|0:0,0:0:0:0:
336,36,61384,6,0,B|356:129|356:129|376:88,1,120,0|8,0:0|0:0,0:0:0:0:
248,192,61870,2,0,B|257:170|257:170|278:264,1,120,0|8,0:0|0:0,0:0:0:0:
220,336,62357,1,0,0:0:0:0:
340,192,62519,1,2,0:0:0:0:
348,224,62681,2,0,L|368:300,1,60,0|2,0:0|0:0,0:0:0:0:
164,164,63006,2,0,L|184:240,1,60,0|10,0:0|0:0,0:0:0:0:
328,304,63330,2,0,L|408:292,1,60,0|8,0:0|0:0,0:0:0:0:
172,288,63654,2,0,L|252:276,1,60
64,248,63979,6,0,P|100:192|100:128,1,120,4|8,0:0|0:0,0:0:0:0:
240,212,64465,1,0,0:0:0:0:
128,200,64627,1,0,0:0:0:0:
236,124,64789,1,8,0:0:0:0:
216,240,64952,1,8,0:0:0:0:
196,112,65114,1,0,0:0:0:0:
216,264,65276,6,0,L|344:280,1,120,0|8,0:0|0:0,0:0:0:0:
252,336,65762,2,0,L|132:348,1,120,0|8,0:0|0:0,0:0:0:0:
40,288,66249,1,8,0:0:0:0:
120,336,66411,1,0,0:0:0:0:
236,300,66573,6,0,P|296:276|352:284,1,120,0|8,0:0|0:0,0:0:0:0:
280,240,67060,2,0,L|144:236,1,120,0|8,0:0|0:0,0:0:0:0:
252,187,67546,2,0,P|263:215|280:240,1,60
320,100,67870,2,0,P|312:132|320:164,1,60,0|2,0:0|0:0,0:0:0:0:
432,48,68195,2,0,P|440:72|440:108,1,60,0|10,0:0|0:0,0:0:0:0:
339,257,68519,2,0,P|339:287|348:316,1,60,0|10,0:0|0:0,0:0:0:0:
444,284,68843,2,0,P|449:313|441:342,1,60,0|2,0:0|0:0,0:0:0:0:
252,187,69168,6,0,P|232:259|236:315,1,120,4|8,0:0|0:0,0:0:0:0:
152,208,69654,2,0,L|192:84,1,120,0|8,0:0|0:0,0:0:0:0:
100,112,70141,1,8,0:0:0:0:
128,136,70303,1,0,0:0:0:0:
203,305,70465,2,0,L|84:296,1,120,0|8,0:0|0:0,0:0:0:0:
262,236,70952,1,0,0:0:0:0:
242,260,71114,2,0,L|194:316,1,60
228,359,71438,2,0,L|202:305,1,60,8|0,0:0|0:0,0:0:0:0:
264,116,71762,5,0,0:0:0:0:
272,140,71925,1,0,0:0:0:0:
388,176,72087,1,10,0:0:0:0:
254,212,72249,5,0,0:0:0:0:
262,236,72412,1,0,0:0:0:0:
370,276,72574,1,10,0:0:0:0:
224,308,72735,5,0,0:0:0:0:
232,332,72898,1,0,0:0:0:0:
370,276,73060,2,0,B|432:292|432:292|503:281,1,120
382,352,73546,2,0,B|290:328|290:328|314:352,1,120,8|8,0:0|0:0,0:0:0:0:
307,345,74033,1,0,0:0:0:0:
370,276,74195,1,0,0:0:0:0:
432,192,74357,6,0,L|396:64,1,120,0|8,0:0|0:0,0:0:0:0:
252,40,74843,2,0,P|288:108|292:172,1,120,0|8,0:0|0:0,0:0:0:0:
371,92,75330,2,0,P|427:92|447:100,1,60,8|0,0:0|0:0,0:0:0:0:
249,255,75654,2,0,L|216:140,1,120,0|8,0:0|0:0,0:0:0:0:
132,344,76141,2,0,P|188:360|248:340,1,120,0|8,0:0|0:0,0:0:0:0:
124,264,76627,2,0,L|52:268,1,60,8|0,0:0|0:0,0:0:0:0:
120,176,76952,6,0,P|180:200|248:192,1,120,0|8,0:0|0:0,0:0:0:0:
304,140,77438,1,0,0:0:0:0:
384,184,77600,1,0,0:0:0:0:
328,252,77762,1,8,0:0:0:0:
336,128,77925,1,0,0:0:0:0:
392,212,78087,1,0,0:0:0:0:
372,312,78249,6,0,L|248:304,1,120
168,252,78735,1,8,0:0:0:0:
252,304,78898,1,0,0:0:0:0:
256,340,79060,1,8,0:0:0:0:
328,252,79222,1,0,0:0:0:0:
340,220,79384,1,0,0:0:0:0:
444,244,79546,6,0,L|464:368,1,120,0|8,0:0|0:0,0:0:0:0:
416,224,80033,1,0,0:0:0:0:
112,156,80357,2,0,L|176:148,1,60,8|8,0:0|0:0,0:0:0:0:
92,140,80681,1,0,0:0:0:0:
68,236,80843,6,0,P|128:240|208:272,1,120,0|8,0:0|0:0,0:0:0:0:
44,256,81330,1,0,0:0:0:0:
400,80,81654,2,0,L|420:144,1,60,0|8,0:0|0:0,0:0:0:0:
408,52,81979,1,0,0:0:0:0:
360,192,82141,6,0,P|368:256|348:328,1,120,0|8,0:0|0:0,0:0:0:0:
276,224,82627,2,0,L|304:96,1,120,0|8,0:0|0:0,0:0:0:0:
219,206,83114,2,0,P|246:219|276:224,1,60
116,136,83438,1,0,0:0:0:0:
144,128,83600,1,2,0:0:0:0:
20,196,83762,1,0,0:0:0:0:
48,208,83925,2,0,B|68:212|68:212|28:168|28:116,1,120,10|8,0:0|0:0,0:0:0:0:
36,280,84411,2,0,L|104:296,1,60
156,244,84735,6,0,P|240:240|292:264,1,120,0|8,0:0|0:0,0:0:0:0:
336,316,85222,1,0,0:0:0:0:
144,260,85384,2,0,L|132:324,1,60,0|8,0:0|0:0,0:0:0:0:
232,166,85708,2,0,L|244:108,1,60,8|0,0:0|0:0,0:0:0:0:
320,208,86033,2,0,P|380:224|448:204,1,120,0|8,0:0|0:0,0:0:0:0:
492,144,86519,1,0,0:0:0:0:
436,320,86681,2,0,P|404:317|352:324,1,60,0|8,0:0|0:0,0:0:0:0:
380,136,87006,2,0,P|392:104|408:80,1,60,8|0,0:0|0:0,0:0:0:0:
296,60,87330,6,0,P|300:136|276:192,1,120,0|8,0:0|0:0,0:0:0:0:
204,212,87816,1,0,0:0:0:0:
192,200,88141,2,0,P|204:160|220:144,1,60,8|0,0:0|0:0,0:0:0:0:
296,104,88465,1,0,0:0:0:0:
346,312,88627,2,0,B|284:324|228:300|228:300|172:328,1,180,0|8,0:0|0:0,0:0:0:0:
52,284,89276,2,0,P|92:276|120:256,1,60,0|8,0:0|0:0,0:0:0:0:
156,124,89600,2,0,P|196:128|224:144,1,60
96,192,89925,6,0,L|72:56,1,120,0|8,0:0|0:0,0:0:0:0:
164,208,90411,2,0,P|240:224|296:208,1,120,0|8,0:0|0:0,0:0:0:0:
344,152,90898,1,8,0:0:0:0:
368,160,91060,1,0,0:0:0:0:
260,96,91222,2,0,L|388:80,1,120,0|8,0:0|0:0,0:0:0:0:
464,108,91708,1,0,0:0:0:0:
360,248,91870,2,0,L|348:308,1,60
208,200,92195,2,0,L|196:136,1,60,8|0,0:0|0:0,0:0:0:0:
88,288,92519,6,0,P|168:304|224:288,1,120,0|8,0:0|0:0,0:0:0:0:
280,244,93006,1,0,0:0:0:0:
396,256,93168,1,0,0:0:0:0:
404,280,93330,1,8,0:0:0:0:
416,172,93492,1,0,0:0:0:0:
424,196,93654,1,0,0:0:0:0:
440,88,93816,1,0,0:0:0:0:
448,112,93979,2,0,L|312:136,1,120,2|10,0:0|0:0,0:0:0:0:
308,136,94627,5,10,0:0:0:0:
76,228,94952,1,0,0:0:0:0:
140,168,95114,1,6,0:0:0:0:
256,192,95276,12,0,97708,0:0:0:0:
