osu file format v14

[General]
AudioFilename: Yeu-MinSt.319-3825035.mp3
AudioLeadIn: 0
PreviewTime: -1
Countdown: 1
SampleSet: None
StackLeniency: 0.7
Mode: 3
LetterboxInBreaks: 1
SpecialStyle: 0
WidescreenStoryboard: 0

[Editor]
DistanceSpacing: 0.8
BeatDivisor: 4
GridSize: 32
TimelineZoom: 1.4

[Metadata]
Title:L.O.V.E
TitleUnicode:L.O.V.E
Artist:MIN from ST.319
ArtistUnicode:MIN from ST.319
Creator:Lunatic Raccoon
Version:
Source:
Tags:y.ê.u y.e.u Khac Hieu X-records Minh Đat VPOP V-POP EDM E.D.M agressive
BeatmapID:675518
BeatmapSetID:301223

[Difficulty]
HPDrainRate:5
CircleSize:4
OverallDifficulty:5
ApproachRate:5
SliderMultiplier:1.4
SliderTickRate:1

[Events]
//Background and Video events
0,0,"Konachan.com - 185939 sample (1).jpg",0,0
//Break Periods
//Storyboard Layer 0 (Background)
//Storyboard Layer 1 (Fail)
//Storyboard Layer 2 (Pass)
//Storyboard Layer 3 (Foreground)
//Storyboard Sound Samples

[TimingPoints]
1866.6298064989,469.006487923083,4,3,0,20,1,0

[HitObjects]
448,192,1863,5,0,0:0:0:0:
64,192,1866,1,0,0:0:0:0:
320,192,2101,1,0,0:0:0:0:
192,192,2335,1,0,0:0:0:0:
64,192,2570,1,0,0:0:0:0:
448,192,2570,1,0,0:0:0:0:
192,192,2804,1,0,0:0:0:0:
320,192,3039,1,0,0:0:0:0:
64,192,3039,1,0,0:0:0:0:
192,192,3273,1,0,0:0:0:0:
448,192,3508,1,0,0:0:0:0:
64,192,3508,1,0,0:0:0:0:
320,192,3742,1,0,0:0:0:0:
64,192,3977,1,0,0:0:0:0:
448,192,3977,1,0,0:0:0:0:
192,192,4211,1,0,0:0:0:0:
448,192,4446,1,0,0:0:0:0:
320,192,4680,1,0,0:0:0:0:
192,192,4680,1,0,0:0:0:0:
64,192,4915,1,0,0:0:0:0:
192,192,4915,1,0,0:0:0:0:
448,192,5149,1,0,0:0:0:0:
320,192,5149,1,0,0:0:0:0:
320,192,5384,1,0,0:0:0:0:
192,192,5384,1,0,0:0:0:0:
448,192,5618,1,0,0:0:0:0:
64,192,5618,1,0,0:0:0:0:
320,192,5853,1,0,0:0:0:0:
192,192,6087,1,0,0:0:0:0:
64,192,6322,1,0,0:0:0:0:
320,192,6322,1,0,0:0:0:0:
448,192,6556,1,0,0:0:0:0:
320,192,6791,1,0,0:0:0:0:
192,192,6791,1,0,0:0:0:0:
64,192,7025,1,0,0:0:0:0:
448,192,7260,1,0,0:0:0:0:
320,192,7260,1,0,0:0:0:0:
192,192,7494,1,0,0:0:0:0:
64,192,7729,1,0,0:0:0:0:
448,192,7729,1,0,0:0:0:0:
320,192,7963,1,0,0:0:0:0:
192,192,8198,1,0,0:0:0:0:
320,192,8432,1,0,0:0:0:0:
64,192,8432,1,0,0:0:0:0:
64,192,8667,1,0,0:0:0:0:
320,192,8667,1,0,0:0:0:0:
192,192,8901,1,0,0:0:0:0:
448,192,8901,1,0,0:0:0:0:
320,192,9136,1,0,0:0:0:0:
64,192,9136,1,0,0:0:0:0:
192,192,9370,1,0,0:0:0:0:
448,192,9370,1,0,0:0:0:0:
320,192,9605,1,0,0:0:0:0:
192,192,9839,1,0,0:0:0:0:
64,192,10074,1,0,0:0:0:0:
448,192,10074,1,0,0:0:0:0:
320,192,10308,1,0,0:0:0:0:
192,192,10543,1,0,0:0:0:0:
448,192,10543,1,0,0:0:0:0:
320,192,10777,1,0,0:0:0:0:
64,192,11012,1,0,0:0:0:0:
448,192,11012,1,0,0:0:0:0:
320,192,11246,1,0,0:0:0:0:
192,192,11481,1,0,0:0:0:0:
448,192,11481,1,0,0:0:0:0:
320,192,11715,1,0,0:0:0:0:
192,192,11950,1,0,0:0:0:0:
320,192,12184,1,0,0:0:0:0:
448,192,12184,1,0,0:0:0:0:
192,192,12419,1,0,0:0:0:0:
64,192,12419,1,0,0:0:0:0:
320,192,12653,1,0,0:0:0:0:
192,192,12653,1,0,0:0:0:0:
448,192,12888,1,0,0:0:0:0:
320,192,12888,1,0,0:0:0:0:
192,192,13122,1,0,0:0:0:0:
320,192,13122,1,0,0:0:0:0:
448,192,13357,1,0,0:0:0:0:
64,192,13591,1,0,0:0:0:0:
448,192,13826,1,0,0:0:0:0:
192,192,13826,1,0,0:0:0:0:
320,192,14060,1,0,0:0:0:0:
64,192,14295,1,0,0:0:0:0:
192,192,14295,1,0,0:0:0:0:
448,192,14529,1,0,0:0:0:0:
320,192,14764,1,0,0:0:0:0:
192,192,14764,1,0,0:0:0:0:
64,192,14998,1,0,0:0:0:0:
448,192,15233,1,0,0:0:0:0:
192,192,15233,1,0,0:0:0:0:
64,192,15467,1,0,0:0:0:0:
448,192,15702,1,0,0:0:0:0:
320,192,15702,1,0,0:0:0:0:
64,192,15936,1,0,0:0:0:0:
192,192,15936,1,0,0:0:0:0:
320,192,16171,1,0,0:0:0:0:
192,192,16171,1,0,0:0:0:0:
320,192,16405,1,0,0:0:0:0:
448,192,16405,1,0,0:0:0:0:
192,192,16640,1,0,0:0:0:0:
320,192,16640,1,0,0:0:0:0:
448,192,16874,1,0,0:0:0:0:
64,192,16874,1,0,0:0:0:0:
320,192,17109,1,0,0:0:0:0:
192,192,17343,1,0,0:0:0:0:
448,192,17578,1,0,0:0:0:0:
320,192,17578,1,0,0:0:0:0:
192,192,17812,1,0,0:0:0:0:
64,192,18047,1,0,0:0:0:0:
320,192,18047,1,0,0:0:0:0:
448,192,18281,1,0,0:0:0:0:
320,192,18516,1,0,0:0:0:0:
192,192,18516,1,0,0:0:0:0:
64,192,18750,1,0,0:0:0:0:
448,192,18985,1,0,0:0:0:0:
320,192,18985,1,0,0:0:0:0:
192,192,19219,1,0,0:0:0:0:
448,192,19454,1,0,0:0:0:0:
320,192,19688,1,0,0:0:0:0:
192,192,19688,1,0,0:0:0:0:
64,192,19923,1,0,0:0:0:0:
192,192,19923,1,0,0:0:0:0:
320,192,20157,1,0,0:0:0:0:
192,192,20157,1,0,0:0:0:0:
448,192,20392,1,0,0:0:0:0:
320,192,20392,1,0,0:0:0:0:
320,192,20626,1,0,0:0:0:0:
192,192,20626,1,0,0:0:0:0:
64,192,20861,1,0,0:0:0:0:
448,192,21095,1,0,0:0:0:0:
320,192,21330,1,0,0:0:0:0:
64,192,21330,1,0,0:0:0:0:
448,192,21564,1,0,0:0:0:0:
64,192,21799,1,0,0:0:0:0:
192,192,21799,1,0,0:0:0:0:
448,192,22033,1,0,0:0:0:0:
320,192,22268,1,0,0:0:0:0:
64,192,22268,1,0,0:0:0:0:
192,192,22502,1,0,0:0:0:0:
320,192,22737,1,0,0:0:0:0:
448,192,22737,1,0,0:0:0:0:
192,192,22971,1,0,0:0:0:0:
64,192,23206,1,0,0:0:0:0:
448,192,23440,1,0,0:0:0:0:
320,192,23440,1,0,0:0:0:0:
64,192,23675,1,0,0:0:0:0:
192,192,23675,1,0,0:0:0:0:
448,192,23909,1,0,0:0:0:0:
192,192,23909,1,0,0:0:0:0:
64,192,24144,1,0,0:0:0:0:
320,192,24144,1,0,0:0:0:0:
448,192,24378,1,0,0:0:0:0:
192,192,24378,1,0,0:0:0:0:
320,192,24613,1,0,0:0:0:0:
192,192,24847,1,0,0:0:0:0:
64,192,25082,1,0,0:0:0:0:
448,192,25082,1,0,0:0:0:0:
320,192,25316,1,0,0:0:0:0:
192,192,25551,1,0,0:0:0:0:
448,192,25551,1,0,0:0:0:0:
320,192,25785,1,0,0:0:0:0:
64,192,26020,1,0,0:0:0:0:
192,192,26020,1,0,0:0:0:0:
448,192,26254,1,0,0:0:0:0:
320,192,26489,1,0,0:0:0:0:
192,192,26489,1,0,0:0:0:0:
64,192,26723,1,0,0:0:0:0:
448,192,26958,1,0,0:0:0:0:
64,192,27192,1,0,0:0:0:0:
192,192,27192,1,0,0:0:0:0:
320,192,27427,1,0,0:0:0:0:
448,192,27427,1,0,0:0:0:0:
192,192,27661,1,0,0:0:0:0:
320,192,27661,1,0,0:0:0:0:
64,192,27896,1,0,0:0:0:0:
192,192,27896,1,0,0:0:0:0:
448,192,28130,1,0,0:0:0:0:
320,192,28130,1,0,0:0:0:0:
192,192,28365,1,0,0:0:0:0:
64,192,28599,1,0,0:0:0:0:
448,192,28834,1,0,0:0:0:0:
320,192,28834,1,0,0:0:0:0:
192,192,29069,1,0,0:0:0:0:
64,192,29303,1,0,0:0:0:0:
320,192,29303,1,0,0:0:0:0:
448,192,29538,1,0,0:0:0:0:
64,192,29772,1,0,0:0:0:0:
192,192,29772,1,0,0:0:0:0:
320,192,30007,1,0,0:0:0:0:
192,192,30241,1,0,0:0:0:0:
448,192,30241,1,0,0:0:0:0:
320,192,30476,1,0,0:0:0:0:
64,192,30710,1,0,0:0:0:0:
192,192,30710,1,0,0:0:0:0:
320,192,30945,1,0,0:0:0:0:
192,192,30945,1,0,0:0:0:0:
448,192,31179,1,0,0:0:0:0:
320,192,31179,1,0,0:0:0:0:
192,192,31414,1,0,0:0:0:0:
320,192,31414,1,0,0:0:0:0:
64,192,31648,1,0,0:0:0:0:
448,192,31648,1,0,0:0:0:0:
448,192,31883,1,0,0:0:0:0:
192,192,31883,1,0,0:0:0:0:
64,192,32117,1,0,0:0:0:0:
448,192,32352,1,0,0:0:0:0:
320,192,32352,1,0,0:0:0:0:
192,192,32586,1,0,0:0:0:0:
64,192,32821,1,0,0:0:0:0:
192,192,33055,1,0,0:0:0:0:
448,192,33290,1,0,0:0:0:0:
320,192,33290,1,0,0:0:0:0:
192,192,33524,1,0,0:0:0:0:
448,192,33759,1,0,0:0:0:0:
64,192,33993,1,0,0:0:0:0:
448,192,34228,1,0,0:0:0:0:
320,192,34228,1,0,0:0:0:0:
192,192,34462,1,0,0:0:0:0:
448,192,34697,1,0,0:0:0:0:
64,192,34931,1,0,0:0:0:0:
320,192,35166,1,0,0:0:0:0:
448,192,35166,1,0,0:0:0:0:
192,192,35400,1,0,0:0:0:0:
448,192,35635,1,0,0:0:0:0:
320,192,35869,1,0,0:0:0:0:
64,192,36104,1,0,0:0:0:0:
192,192,36104,1,0,0:0:0:0:
448,192,36338,1,0,0:0:0:0:
192,192,36573,1,0,0:0:0:0:
320,192,36807,1,0,0:0:0:0:
192,192,37042,1,0,0:0:0:0:
64,192,37042,1,0,0:0:0:0:
448,192,37276,1,0,0:0:0:0:
64,192,37511,1,0,0:0:0:0:
320,192,37745,1,0,0:0:0:0:
192,192,37980,1,0,0:0:0:0:
64,192,37980,1,0,0:0:0:0:
320,192,38214,1,0,0:0:0:0:
64,192,38449,1,0,0:0:0:0:
448,192,38683,1,0,0:0:0:0:
64,192,38918,1,0,0:0:0:0:
192,192,38918,1,0,0:0:0:0:
320,192,39152,1,0,0:0:0:0:
448,192,39387,1,0,0:0:0:0:
64,192,39621,1,0,0:0:0:0:
192,192,39856,1,0,0:0:0:0:
320,192,39856,1,0,0:0:0:0:
64,192,40090,1,0,0:0:0:0:
448,192,40325,1,0,0:0:0:0:
64,192,40559,1,0,0:0:0:0:
192,192,40794,1,0,0:0:0:0:
320,192,40794,1,0,0:0:0:0:
448,192,41028,1,0,0:0:0:0:
320,192,41263,1,0,0:0:0:0:
64,192,41497,1,0,0:0:0:0:
192,192,41732,1,0,0:0:0:0:
320,192,41732,1,0,0:0:0:0:
64,192,41966,1,0,0:0:0:0:
320,192,42201,1,0,0:0:0:0:
448,192,42435,1,0,0:0:0:0:
320,192,42670,1,0,0:0:0:0:
192,192,42670,1,0,0:0:0:0:
448,192,42904,1,0,0:0:0:0:
64,192,43139,1,0,0:0:0:0:
192,192,43373,1,0,0:0:0:0:
320,192,43608,1,0,0:0:0:0:
448,192,43608,1,0,0:0:0:0:
192,192,43842,1,0,0:0:0:0:
64,192,44077,1,0,0:0:0:0:
320,192,44311,1,0,0:0:0:0:
448,192,44546,1,0,0:0:0:0:
64,192,44546,1,0,0:0:0:0:
192,192,44780,1,0,0:0:0:0:
320,192,45015,1,0,0:0:0:0:
448,192,45249,1,0,0:0:0:0:
320,192,45484,1,0,0:0:0:0:
64,192,45484,1,0,0:0:0:0:
192,192,45718,1,0,0:0:0:0:
320,192,45953,1,0,0:0:0:0:
448,192,46187,1,0,0:0:0:0:
192,192,46422,1,0,0:0:0:0:
320,192,46656,1,0,0:0:0:0:
448,192,46891,5,0,0:0:0:0:
192,192,46891,1,0,0:0:0:0:
64,192,46891,128,0,50643:0:0:0:0:
320,192,46891,1,0,0:0:0:0:
320,192,47125,1,0,0:0:0:0:
448,192,47360,1,0,0:0:0:0:
192,192,47360,1,0,0:0:0:0:
320,192,47594,1,0,0:0:0:0:
448,192,47829,1,0,0:0:0:0:
320,192,47829,1,0,0:0:0:0:
192,192,48063,1,0,0:0:0:0:
320,192,48298,1,0,0:0:0:0:
192,192,48298,1,0,0:0:0:0:
448,192,48532,1,0,0:0:0:0:
320,192,48767,1,0,0:0:0:0:
192,192,48767,1,0,0:0:0:0:
448,192,49001,1,0,0:0:0:0:
320,192,49236,1,0,0:0:0:0:
448,192,49236,1,0,0:0:0:0:
192,192,49470,1,0,0:0:0:0:
320,192,49705,1,0,0:0:0:0:
448,192,49705,1,0,0:0:0:0:
192,192,49939,1,0,0:0:0:0:
448,192,50174,1,0,0:0:0:0:
320,192,50174,1,0,0:0:0:0:
320,192,50408,1,0,0:0:0:0:
192,192,50643,1,0,0:0:0:0:
448,192,50643,1,0,0:0:0:0:
320,192,50643,128,0,54395:0:0:0:0:
192,192,50877,1,0,0:0:0:0:
64,192,51112,1,0,0:0:0:0:
448,192,51112,1,0,0:0:0:0:
448,192,51346,1,0,0:0:0:0:
192,192,51581,1,0,0:0:0:0:
448,192,51581,1,0,0:0:0:0:
64,192,51815,1,0,0:0:0:0:
192,192,52050,1,0,0:0:0:0:
64,192,52050,1,0,0:0:0:0:
448,192,52284,1,0,0:0:0:0:
448,192,52519,1,0,0:0:0:0:
192,192,52519,1,0,0:0:0:0:
192,192,52753,1,0,0:0:0:0:
64,192,52988,1,0,0:0:0:0:
192,192,52988,1,0,0:0:0:0:
448,192,53222,1,0,0:0:0:0:
448,192,53457,1,0,0:0:0:0:
192,192,53457,1,0,0:0:0:0:
448,192,53691,1,0,0:0:0:0:
64,192,53926,1,0,0:0:0:0:
448,192,53926,1,0,0:0:0:0:
192,192,54160,1,0,0:0:0:0:
448,192,54395,128,0,58147:0:0:0:0:
64,192,54395,1,0,0:0:0:0:
192,192,54629,1,0,0:0:0:0:
320,192,54864,1,0,0:0:0:0:
64,192,54864,1,0,0:0:0:0:
192,192,55098,1,0,0:0:0:0:
320,192,55333,1,0,0:0:0:0:
192,192,55333,1,0,0:0:0:0:
64,192,55567,1,0,0:0:0:0:
64,192,55802,1,0,0:0:0:0:
192,192,55802,1,0,0:0:0:0:
320,192,56036,1,0,0:0:0:0:
64,192,56271,1,0,0:0:0:0:
192,192,56271,1,0,0:0:0:0:
320,192,56505,1,0,0:0:0:0:
320,192,56740,1,0,0:0:0:0:
192,192,56740,1,0,0:0:0:0:
64,192,56974,1,0,0:0:0:0:
64,192,57209,1,0,0:0:0:0:
320,192,57209,1,0,0:0:0:0:
192,192,57443,1,0,0:0:0:0:
192,192,57678,1,0,0:0:0:0:
320,192,57678,1,0,0:0:0:0:
64,192,57912,1,0,0:0:0:0:
64,192,58147,128,0,61899:0:0:0:0:
192,192,58147,1,0,0:0:0:0:
320,192,58147,1,0,0:0:0:0:
448,192,58381,1,0,0:0:0:0:
192,192,58616,1,0,0:0:0:0:
448,192,58616,1,0,0:0:0:0:
320,192,58850,1,0,0:0:0:0:
192,192,59085,1,0,0:0:0:0:
448,192,59085,1,0,0:0:0:0:
320,192,59319,1,0,0:0:0:0:
192,192,59554,1,0,0:0:0:0:
320,192,59554,1,0,0:0:0:0:
448,192,59788,1,0,0:0:0:0:
448,192,60023,1,0,0:0:0:0:
320,192,60023,1,0,0:0:0:0:
320,192,60257,1,0,0:0:0:0:
192,192,60492,1,0,0:0:0:0:
448,192,60492,1,0,0:0:0:0:
448,192,60726,1,0,0:0:0:0:
320,192,60961,1,0,0:0:0:0:
192,192,60961,1,0,0:0:0:0:
192,192,61195,1,0,0:0:0:0:
320,192,61430,1,0,0:0:0:0:
448,192,61430,1,0,0:0:0:0:
192,192,61664,1,0,0:0:0:0:
448,192,61899,1,0,0:0:0:0:
320,192,61899,1,0,0:0:0:0:
192,192,61899,1,0,0:0:0:0:
64,192,62133,1,0,0:0:0:0:
192,192,62368,1,0,0:0:0:0:
320,192,62368,1,0,0:0:0:0:
448,192,62368,1,0,0:0:0:0:
64,192,62602,1,0,0:0:0:0:
320,192,62837,1,0,0:0:0:0:
192,192,62837,1,0,0:0:0:0:
448,192,62837,1,0,0:0:0:0:
64,192,63071,1,0,0:0:0:0:
192,192,63306,1,0,0:0:0:0:
320,192,63306,1,0,0:0:0:0:
448,192,63306,1,0,0:0:0:0:
448,192,63540,1,0,0:0:0:0:
192,192,63775,1,0,0:0:0:0:
320,192,63775,1,0,0:0:0:0:
64,192,63775,1,0,0:0:0:0:
448,192,64009,1,0,0:0:0:0:
192,192,64244,1,0,0:0:0:0:
320,192,64244,1,0,0:0:0:0:
64,192,64244,1,0,0:0:0:0:
448,192,64478,1,0,0:0:0:0:
320,192,64713,1,0,0:0:0:0:
192,192,64713,1,0,0:0:0:0:
64,192,64713,1,0,0:0:0:0:
448,192,64948,1,0,0:0:0:0:
64,192,65182,1,0,0:0:0:0:
192,192,65182,1,0,0:0:0:0:
320,192,65182,1,0,0:0:0:0:
448,192,65417,1,0,0:0:0:0:
64,192,65651,1,0,0:0:0:0:
320,192,65651,1,0,0:0:0:0:
448,192,65651,1,0,0:0:0:0:
320,192,65886,1,0,0:0:0:0:
192,192,66003,1,0,0:0:0:0:
320,192,66120,1,0,0:0:0:0:
64,192,66120,1,0,0:0:0:0:
448,192,66120,1,0,0:0:0:0:
448,192,66355,1,0,0:0:0:0:
192,192,66472,1,0,0:0:0:0:
448,192,66589,1,0,0:0:0:0:
320,192,66589,1,0,0:0:0:0:
64,192,66589,1,0,0:0:0:0:
192,192,66824,1,0,0:0:0:0:
320,192,66941,1,0,0:0:0:0:
64,192,67058,1,0,0:0:0:0:
448,192,67058,1,0,0:0:0:0:
192,192,67058,1,0,0:0:0:0:
192,192,67293,1,0,0:0:0:0:
320,192,67410,1,0,0:0:0:0:
64,192,67527,1,0,0:0:0:0:
192,192,67527,1,0,0:0:0:0:
448,192,67527,1,0,0:0:0:0:
448,192,67762,1,0,0:0:0:0:
192,192,67879,1,0,0:0:0:0:
320,192,67996,1,0,0:0:0:0:
448,192,67996,1,0,0:0:0:0:
64,192,67996,1,0,0:0:0:0:
64,192,68231,1,0,0:0:0:0:
448,192,68348,1,0,0:0:0:0:
320,192,68465,1,0,0:0:0:0:
192,192,68465,1,0,0:0:0:0:
64,192,68465,1,0,0:0:0:0:
448,192,68700,1,0,0:0:0:0:
64,192,68817,1,0,0:0:0:0:
192,192,68934,1,0,0:0:0:0:
320,192,68934,1,0,0:0:0:0:
448,192,68934,1,0,0:0:0:0:
64,192,69169,1,0,0:0:0:0:
448,192,69286,1,0,0:0:0:0:
320,192,69403,1,0,0:0:0:0:
192,192,69403,1,0,0:0:0:0:
448,192,69520,1,0,0:0:0:0:
64,192,69638,1,0,0:0:0:0:
192,192,69638,1,0,0:0:0:0:
320,192,69755,1,0,0:0:0:0:
448,192,69872,1,0,0:0:0:0:
192,192,69872,1,0,0:0:0:0:
320,192,69989,1,0,0:0:0:0:
192,192,70107,1,0,0:0:0:0:
64,192,70107,1,0,0:0:0:0:
448,192,70224,1,0,0:0:0:0:
192,192,70341,1,0,0:0:0:0:
320,192,70341,1,0,0:0:0:0:
64,192,70458,1,0,0:0:0:0:
448,192,70576,1,0,0:0:0:0:
320,192,70576,1,0,0:0:0:0:
192,192,70693,1,0,0:0:0:0:
320,192,70810,1,0,0:0:0:0:
64,192,70810,1,0,0:0:0:0:
192,192,70927,1,0,0:0:0:0:
448,192,71045,1,0,0:0:0:0:
320,192,71045,1,0,0:0:0:0:
64,192,71162,1,0,0:0:0:0:
192,192,71279,1,0,0:0:0:0:
320,192,71279,1,0,0:0:0:0:
64,192,71396,1,0,0:0:0:0:
448,192,71514,1,0,0:0:0:0:
320,192,71514,1,0,0:0:0:0:
192,192,71631,1,0,0:0:0:0:
320,192,71748,1,0,0:0:0:0:
64,192,71748,1,0,0:0:0:0:
448,192,71865,1,0,0:0:0:0:
64,192,71983,1,0,0:0:0:0:
192,192,71983,1,0,0:0:0:0:
320,192,72100,1,0,0:0:0:0:
448,192,72217,1,0,0:0:0:0:
192,192,72217,1,0,0:0:0:0:
320,192,72334,1,0,0:0:0:0:
64,192,72452,1,0,0:0:0:0:
192,192,72452,1,0,0:0:0:0:
448,192,72569,1,0,0:0:0:0:
320,192,72686,1,0,0:0:0:0:
192,192,72686,1,0,0:0:0:0:
448,192,72803,1,0,0:0:0:0:
192,192,72921,1,0,0:0:0:0:
64,192,72921,1,0,0:0:0:0:
320,192,73038,1,0,0:0:0:0:
192,192,73155,1,0,0:0:0:0:
64,192,73155,1,0,0:0:0:0:
448,192,73272,1,0,0:0:0:0:
320,192,73272,1,0,0:0:0:0:
64,192,73390,1,0,0:0:0:0:
192,192,73390,1,0,0:0:0:0:
320,192,73507,1,0,0:0:0:0:
448,192,73507,1,0,0:0:0:0:
64,192,73624,1,0,0:0:0:0:
192,192,73624,1,0,0:0:0:0:
320,192,73741,1,0,0:0:0:0:
448,192,73741,1,0,0:0:0:0:
192,192,73859,1,0,0:0:0:0:
64,192,73859,1,0,0:0:0:0:
320,192,73976,1,0,0:0:0:0:
448,192,73976,1,0,0:0:0:0:
64,192,74093,1,0,0:0:0:0:
192,192,74093,1,0,0:0:0:0:
320,192,74210,1,0,0:0:0:0:
448,192,74210,1,0,0:0:0:0:
192,192,74328,1,0,0:0:0:0:
64,192,74328,1,0,0:0:0:0:
320,192,74445,1,0,0:0:0:0:
448,192,74445,1,0,0:0:0:0:
64,192,74562,1,0,0:0:0:0:
192,192,74562,1,0,0:0:0:0:
320,192,74679,1,0,0:0:0:0:
448,192,74679,1,0,0:0:0:0:
192,192,74797,1,0,0:0:0:0:
64,192,74797,1,0,0:0:0:0:
320,192,74914,1,0,0:0:0:0:
448,192,74914,1,0,0:0:0:0:
64,192,75031,1,0,0:0:0:0:
192,192,75266,1,0,0:0:0:0:
448,192,75500,1,0,0:0:0:0:
320,192,75735,1,0,0:0:0:0:
192,192,75969,1,0,0:0:0:0:
320,192,76204,1,0,0:0:0:0:
448,192,76438,5,0,0:0:0:0:
64,192,76438,1,0,0:0:0:0:
192,192,76438,1,0,0:0:0:0:
448,192,76907,1,0,0:0:0:0:
320,192,76907,1,0,0:0:0:0:
192,192,76907,1,0,0:0:0:0:
64,192,76907,1,0,0:0:0:0:
320,192,77142,1,0,0:0:0:0:
192,192,77376,1,0,0:0:0:0:
448,192,77376,1,0,0:0:0:0:
64,192,77376,1,0,0:0:0:0:
320,192,77611,1,0,0:0:0:0:
64,192,77845,1,0,0:0:0:0:
192,192,77845,1,0,0:0:0:0:
448,192,77845,1,0,0:0:0:0:
448,192,78080,1,0,0:0:0:0:
320,192,78314,1,0,0:0:0:0:
192,192,78314,1,0,0:0:0:0:
448,192,78314,1,0,0:0:0:0:
64,192,78549,1,0,0:0:0:0:
320,192,78783,1,0,0:0:0:0:
448,192,78783,1,0,0:0:0:0:
192,192,78783,1,0,0:0:0:0:
192,192,79018,1,0,0:0:0:0:
64,192,79252,1,0,0:0:0:0:
320,192,79252,1,0,0:0:0:0:
448,192,79252,1,0,0:0:0:0:
448,192,79487,1,0,0:0:0:0:
320,192,79721,1,0,0:0:0:0:
192,192,79721,1,0,0:0:0:0:
64,192,79721,1,0,0:0:0:0:
448,192,79956,1,0,0:0:0:0:
320,192,80190,1,0,0:0:0:0:
192,192,80190,1,0,0:0:0:0:
448,192,80190,1,0,0:0:0:0:
320,192,80425,1,0,0:0:0:0:
64,192,80659,1,0,0:0:0:0:
448,192,80659,1,0,0:0:0:0:
192,192,80659,1,0,0:0:0:0:
320,192,80894,1,0,0:0:0:0:
448,192,81128,1,0,0:0:0:0:
320,192,81128,1,0,0:0:0:0:
192,192,81128,1,0,0:0:0:0:
64,192,81363,1,0,0:0:0:0:
192,192,81597,1,0,0:0:0:0:
64,192,81597,1,0,0:0:0:0:
320,192,81597,1,0,0:0:0:0:
448,192,81832,1,0,0:0:0:0:
320,192,82066,1,0,0:0:0:0:
448,192,82066,1,0,0:0:0:0:
64,192,82066,1,0,0:0:0:0:
192,192,82301,1,0,0:0:0:0:
64,192,82535,1,0,0:0:0:0:
192,192,82535,1,0,0:0:0:0:
448,192,82535,1,0,0:0:0:0:
320,192,82770,1,0,0:0:0:0:
448,192,83004,1,0,0:0:0:0:
320,192,83004,1,0,0:0:0:0:
192,192,83004,1,0,0:0:0:0:
64,192,83239,1,0,0:0:0:0:
192,192,83473,1,0,0:0:0:0:
320,192,83473,1,0,0:0:0:0:
448,192,83473,1,0,0:0:0:0:
320,192,83708,1,0,0:0:0:0:
64,192,83942,1,0,0:0:0:0:
192,192,83942,1,0,0:0:0:0:
448,192,83942,1,0,0:0:0:0:
192,192,84177,1,0,0:0:0:0:
320,192,84411,1,0,0:0:0:0:
448,192,84411,1,0,0:0:0:0:
64,192,84411,1,0,0:0:0:0:
192,192,84646,1,0,0:0:0:0:
320,192,84880,1,0,0:0:0:0:
448,192,84880,1,0,0:0:0:0:
192,192,84880,1,0,0:0:0:0:
