osu file format v14

[General]
AudioFilename: Take Me Away - Min.mp3
AudioLeadIn: 0
PreviewTime: 62458
Countdown: 0
SampleSet: Soft
StackLeniency: 0.4
Mode: 0
LetterboxInBreaks: 0
WidescreenStoryboard: 0

[Editor]
Bookmarks: 12864,25664,38464,51264,57464,57864,58264,58664,59064,59464,59864,60264,64364,64664,64964,65264,65564,65864,66164,70464
DistanceSpacing: 1
BeatDivisor: 4
GridSize: 32
TimelineZoom: 3.599999

[Metadata]
Title:TAKE ME AWAY
TitleUnicode:TAKE ME AWAY
Artist:MIN
ArtistUnicode:MIN
Creator:Yamicchi
Version:Hard
Source:
Tags:pop vietnamese vpop st319 Khac Hung cut
BeatmapID:1365433
BeatmapSetID:644181

[Difficulty]
HPDrainRate:6
CircleSize:4
OverallDifficulty:7
ApproachRate:7.8
SliderMultiplier:1.5
SliderTickRate:1

[Events]
//Background and Video events
0,0,"bg.jpg",0,0
//Break Periods
//Storyboard Layer 0 (Background)
//Storyboard Layer 1 (Fail)
//Storyboard Layer 2 (Pass)
//Storyboard Layer 3 (Foreground)
//Storyboard Sound Samples

[TimingPoints]
58,400,4,2,1,60,1,0
12858,-125,4,2,1,60,0,0
49858,-125,4,2,1,62,0,0
50058,-125,4,2,1,65,0,0
50258,-125,4,2,1,67,0,0
50458,-125,4,2,1,70,0,0
50658,-125,4,2,1,72,0,0
50858,-125,4,2,1,75,0,0
51058,-125,4,2,1,78,0,0
51258,-100,4,2,2,70,0,0
62458,-100,4,2,1,50,0,0
64058,-100,4,2,1,80,0,1
76458,-100,4,2,1,80,0,0
76858,-100,4,2,1,80,0,1
88458,-100,4,2,1,82,0,1
88858,-100,4,2,1,85,0,1
89258,-100,4,2,1,87,0,1
89658,-100,4,2,1,80,0,0

[Colours]
Combo1 : 22,147,248
Combo2 : 250,29,84
Combo3 : 121,232,255
Combo4 : 250,190,80

[HitObjects]
256,192,9658,12,0,12458,0:0:0:0:
48,128,12858,5,4,0:0:0:0:
168,108,13258,1,0,0:0:0:0:
245,201,13658,1,0,0:0:0:0:
365,181,14058,1,0,0:0:0:0:
240,40,14458,2,0,P|150:12|80:60,2,180,4|0|0,0:0|0:0|0:0,0:0:0:0:
245,201,16058,6,0,P|220:264|233:329,1,120,4|0,0:0|0:0,0:0:0:0:
316,328,16658,2,0,P|341:265|328:200,2,120,0|0|0,0:0|0:0|0:0,0:0:0:0:
200,348,17658,2,0,L|76:336,1,120,4|0,0:0|0:0,0:0:0:0:
40,256,18258,2,0,L|164:244,2,120,0|0|0,0:0|0:0|0:0,0:0:0:0:
89,146,19258,5,4,0:0:0:0:
159,244,19658,1,0,0:0:0:0:
209,135,20058,1,0,0:0:0:0:
139,37,20458,1,0,0:0:0:0:
159,244,20858,2,0,B|113:235|92:188|92:188|52:200|39:264,2,180,4|0|0,0:0|0:0|0:0,0:0:0:0:
232,68,22458,6,0,P|304:72|368:72,1,120,4|0,0:0|0:0,0:0:0:0:
392,152,23058,2,0,P|451:152|511:156,2,120,0|0|0,0:0|0:0|0:0,0:0:0:0:
264,192,24058,2,0,P|244:248|260:316,1,120,4|0,0:0|0:0,0:0:0:0:
320,364,24658,1,0,0:0:0:0:
392,316,24858,2,0,P|428:312|456:316,2,60,0|0|0,0:0|0:0|0:0,0:0:0:0:
320,364,25458,1,0,0:0:0:0:
232,312,25658,6,0,B|188:304|188:304|104:312,1,120,6|2,0:2|0:0,0:0:0:0:
8,188,26458,2,0,B|52:196|52:196|136:188,1,120,2|2,0:0|0:0,0:0:0:0:
264,52,27258,2,0,P|240:108|256:180,1,120,6|2,0:2|0:0,0:0:0:0:
436,184,28058,2,0,P|460:128|444:56,1,120,2|2,0:0|0:0,0:0:0:0:
264,188,28858,6,0,P|216:180|132:168,1,120,6|2,0:2|0:0,0:0:0:0:
136,356,29658,2,0,P|166:318|219:251,1,120,2|2,0:0|0:0,0:0:0:0:
55,162,30458,2,0,P|72:207|103:286,1,120,6|2,0:2|0:0,0:0:0:0:
136,356,31058,1,0,0:0:0:0:
176,268,31258,2,0,P|160:224|148:188,2,60,2|0|2,0:0|0:0|0:0,0:0:0:0:
233,347,31858,1,0,0:0:0:0:
348,268,32058,6,0,P|408:252|476:268,1,120,6|2,0:2|0:0,0:0:0:0:
271,205,32858,2,0,P|211:221|143:205,1,120,2|2,0:0|0:0,0:0:0:0:
357,155,33658,2,0,P|369:213|347:268,1,120,6|2,0:2|0:0,0:0:0:0:
186,254,34458,2,0,P|173:196|195:141,1,120,2|2,0:0|0:0,0:0:0:0:
256,192,35258,12,0,38058,0:0:0:0:
340,144,38458,6,0,B|380:143|380:143|427:155|427:155|464:156,2,120,4|8|8,0:1|0:0|0:0,0:0:0:0:
156,144,39658,1,8,0:0:0:0:
116,224,39858,1,0,0:0:0:0:
166,299,40058,1,8,0:0:0:0:
256,294,40258,1,0,0:0:0:0:
296,214,40458,1,8,0:0:0:0:
132,128,40858,6,0,P|116:92|120:52,1,60,8|0,0:0|0:0,0:0:0:0:
202,78,41258,1,8,0:0:0:0:
210,164,41458,1,0,0:0:0:0:
139,213,41658,6,0,B|98:212|98:212|51:224|51:224|15:225,2,120,8|8|8,0:0|0:0|0:0,0:0:0:0:
320,216,42858,1,8,0:0:0:0:
304,308,43058,1,0,0:0:0:0:
375,367,43258,1,8,0:0:0:0:
391,275,43458,1,0,0:0:0:0:
320,216,43658,1,8,0:0:0:0:
490,94,44058,6,0,L|494:158,1,60,8|0,0:0|0:0,0:0:0:0:
407,185,44458,1,8,0:0:0:0:
336,125,44658,1,0,0:0:0:0:
249,157,44858,6,0,P|248:96|284:47,2,120,8|8|8,0:0|0:0|0:0,0:0:0:0:
360,288,46058,1,8,0:0:0:0:
268,276,46258,1,0,0:0:0:0:
212,350,46458,1,8,0:0:0:0:
120,338,46658,1,0,0:0:0:0:
85,253,46858,1,8,0:0:0:0:
197,107,47258,6,0,P|201:71|201:43,2,60,8|0|8,0:0|0:0|0:0,0:0:0:0:
141,180,47858,1,0,0:0:0:0:
216,232,48058,6,0,P|264:228|344:228,1,120,8|8,0:0|0:0,0:0:0:0:
400,288,48658,2,0,P|424:237|356:140,1,180,0|8,0:0|0:0,0:0:0:0:
276,152,49458,1,0,0:0:0:0:
240,44,49658,6,0,L|304:40,1,60,8|0,0:0|0:0,0:0:0:0:
164,52,50058,2,0,L|228:56,1,60,8|0,0:0|0:0,0:0:0:0:
68,104,50458,5,8,0:0:0:0:
140,182,50658,1,0,0:0:0:0:
44,112,50858,1,8,0:0:0:0:
32,231,51058,1,0,0:0:0:0:
127,321,51258,6,0,L|208:312,2,75,8|0|0,1:2|0:0|0:0,0:0:0:0:
208,236,51858,2,0,L|289:245,2,75,8|0|0,1:2|0:0|0:0,0:0:0:0:
289,321,52458,2,0,L|370:312,1,75,8|0,1:2|0:0,0:0:0:0:
425,255,52858,6,0,P|445:295|441:343,2,75,8|0|0,1:2|0:0|0:0,0:0:0:0:
428,140,53458,2,0,P|452:102|496:82,2,75,8|0|0,1:2|0:0|0:0,0:0:0:0:
327,195,54058,2,0,P|282:192|242:164,1,75,8|8,1:2|0:0,0:0:0:0:
244,168,54358,1,8,0:0:0:0:
231,159,54458,6,0,L|223:83,2,75,8|0|0,1:2|0:0|0:0,0:0:0:0:
176,264,55058,2,0,L|183:338,2,75,8|0|0,1:2|0:0|0:0,0:0:0:0:
100,172,55658,2,0,L|92:97,1,75,8|8,1:2|0:0,0:0:0:0:
216,48,56058,6,0,P|256:40|300:48,2,75,8|0|0,1:2|0:0|0:0,0:0:0:0:
304,128,56658,2,0,P|344:136|388:128,2,75,8|0|0,1:2|0:0|0:0,0:0:0:0:
392,48,57258,2,0,P|432:40|476:48,1,75,8|8,1:2|0:0,0:0:0:0:
480,52,57558,1,8,0:0:0:0:
492,60,57658,5,8,1:2:0:0:
484,152,57858,1,0,1:2:0:0:
404,204,58058,1,8,1:2:0:0:
412,296,58258,1,0,1:2:0:0:
344,364,58458,2,0,P|304:360|260:360,1,75,8|0,1:2|1:2,0:0:0:0:
152,284,58858,2,0,P|192:288|236:288,1,75,8|0,1:2|1:2,0:0:0:0:
320,188,59258,5,8,1:2:0:0:
308,96,59458,1,0,1:2:0:0:
216,108,59658,1,8,1:2:0:0:
228,200,59858,1,0,1:2:0:0:
340,192,60058,5,8,1:2:0:0:
426,228,60258,1,0,1:2:0:0:
391,314,60458,1,8,1:2:0:0:
305,278,60658,1,0,1:0:0:0:
305,278,60758,1,0,0:0:0:0:
305,278,60858,6,0,L|249:274,3,37.5,0|0|0|0,0:0|0:0|0:0|0:0,0:0:0:0:
236,296,61258,2,0,L|180:292,3,37.5,0|0|0|0,0:0|0:0|0:0|0:0,0:0:0:0:
167,314,61658,2,0,L|111:310,3,37.5,0|0|0|0,0:0|0:0|0:0|0:0,0:0:0:0:
98,332,62058,2,0,L|42:328,3,37.5,0|0|0|0,0:0|0:0|0:0|0:0,0:0:0:0:
29,350,62458,6,0,B|0:272|40:208|40:208|80:144|40:64,1,300,0|0,0:0|0:0,0:0:0:0:
104,136,63458,1,0,0:0:0:0:
104,136,63558,1,0,0:0:0:0:
104,136,63658,2,0,L|176:128,3,37.5,2|0|0|0,0:1|0:0|0:0|0:0,0:0:0:0:
172,152,64058,6,0,L|300:144,1,112.5,0|0,1:0|0:0,0:0:0:0:
320,160,64458,2,0,P|340:200|340:244,1,75,0|0,1:0|0:0,0:0:0:0:
256,292,64858,2,0,P|236:252|236:208,1,75,0|0,1:0|0:0,0:0:0:0:
320,160,65258,2,0,L|448:152,1,112.5,0|0,1:0|0:0,0:0:0:0:
468,140,65658,6,0,P|488:100|488:56,1,75,0|0,1:0|0:0,0:0:0:0:
408,20,66058,1,2,1:3:0:0:
388,23,66158,1,0,0:0:0:0:
368,26,66258,1,2,0:3:0:0:
348,30,66358,1,0,0:0:0:0:
329,33,66458,2,0,L|272:46,3,37.5,2|0|2|0,1:3|0:0|0:3|0:0,0:0:0:0:
272,72,66858,2,0,P|212:64|136:64,1,112.5,0|0,1:0|0:0,0:0:0:0:
124,72,67258,6,0,P|92:120|92:176,1,112.5,0|0,1:0|0:0,0:0:0:0:
104,208,67658,2,0,L|184:200,1,75,0|0,1:0|0:0,0:0:0:0:
252,276,68058,2,0,L|177:283,1,75,0|0,1:0|0:0,0:0:0:0:
120,372,68458,2,0,L|248:360,1,112.5,0|0,1:0|0:0,0:0:0:0:
270,358,68858,6,0,L|358:350,1,75,2|0,1:3|0:0,0:0:0:0:
440,304,69258,1,2,1:3:0:0:
392,208,69458,1,2,0:3:0:0:
451,118,69658,1,2,1:3:0:0:
451,118,69858,1,2,0:3:0:0:
344,112,70058,1,2,1:3:0:0:
344,112,70158,1,2,0:3:0:0:
344,112,70258,1,2,0:3:0:0:
400,228,70458,6,0,P|296:216|276:216,1,112.5,0|0,1:0|0:0,0:0:0:0:
252,228,70858,2,0,L|256:312,1,75,0|0,1:0|0:0,0:0:0:0:
152,328,71258,2,0,L|148:253,1,75,0|0,1:0|0:0,0:0:0:0:
72,180,71658,2,0,P|124:152|188:156,1,112.5,0|0,1:0|0:0,0:0:0:0:
212,140,72058,6,0,P|248:148|292:140,1,75,0|0,1:0|0:0,0:0:0:0:
352,60,72458,1,0,1:0:0:0:
389,158,72658,1,0,0:0:0:0:
323,240,72858,1,2,1:3:0:0:
360,338,73058,2,0,L|408:332,5,37.5,2|0|2|0|2|0,0:3|0:0|1:3|0:0|0:3|0:0,0:0:0:0:
432,352,73658,6,0,L|448:232,1,112.5,0|0,1:0|0:0,0:0:0:0:
454,203,74058,2,0,L|468:116,1,75,0|0,1:0|0:0,0:0:0:0:
360,120,74458,2,0,L|374:207,1,75,0|0,1:0|0:0,0:0:0:0:
304,276,74858,2,0,P|248:288|184:272,1,112.5,0|0,1:0|0:0,0:0:0:0:
160,264,75258,6,0,P|152:220|152:184,1,75,2|0,1:3|0:0,0:0:0:0:
168,84,75658,1,2,1:3:0:0:
168,84,75858,2,0,P|202:55|233:37,1,75,2|0,0:3|1:0,0:0:0:0:
327,0,76258,1,2,0:3:0:0:
327,0,76458,2,0,P|369:15|400:33,1,75,2|0,1:3|0:0,0:0:0:0:
452,144,76858,6,0,P|432:200|432:260,1,112.5,0|0,1:0|0:0,0:0:0:0:
436,288,77258,2,0,P|476:276|516:272,1,75,2|0,1:1|0:0,0:0:0:0:
376,356,77658,2,0,P|336:368|296:372,1,75,0|0,1:0|0:0,0:0:0:0:
200,296,78058,2,0,P|180:348|116:380,1,112.5,2|0,1:1|0:0,0:0:0:0:
100,360,78458,6,0,P|100:316|112:276,1,75,0|0,1:0|0:0,0:0:0:0:
164,188,78858,1,2,1:1:0:0:
184,190,78958,1,0,0:0:0:0:
204,192,79058,1,0,0:0:0:0:
224,194,79158,1,0,0:0:0:0:
245,196,79258,2,0,L|285:204,3,37.5,0|0|0|0,1:0|0:0|0:0|0:0,0:0:0:0:
316,224,79658,2,0,L|308:108,1,112.5,2|0,1:1|0:0,0:0:0:0:
288,76,80058,6,0,P|236:56|168:52,1,112.5,0|0,1:0|0:0,0:0:0:0:
144,68,80458,2,0,P|100:76|56:72,1,75,2|0,1:1|0:0,0:0:0:0:
20,176,80858,2,0,P|64:168|108:172,1,75,0|0,1:1|0:0,0:0:0:0:
200,208,81258,2,0,P|189:262|147:306,1,112.5,2|0,1:1|0:0,0:0:0:0:
152,344,81658,6,0,L|228:336,1,75,0|0,1:0|0:0,0:0:0:0:
320,280,82058,1,2,1:1:0:0:
375,372,82258,1,0,0:0:0:0:
428,279,82458,1,0,1:0:0:0:
428,279,82658,1,0,0:0:0:0:
320,280,82858,1,2,1:1:0:0:
320,280,82958,1,0,0:0:0:0:
320,280,83058,1,0,0:0:0:0:
424,196,83258,6,0,B|396:196|372:216|372:216|348:196|308:196,1,112.5,0|0,1:0|0:0,0:0:0:0:
280,204,83658,2,0,P|248:232|236:288,1,75,2|0,1:1|0:0,0:0:0:0:
148,302,84058,2,0,P|177:325|192:360,1,75,0|0,1:0|0:0,0:0:0:0:
44,320,84458,2,0,P|48:264|93:209,1,112.5,2|0,1:1|0:0,0:0:0:0:
112,196,84858,6,0,L|192:184,1,75,0|0,1:0|0:0,0:0:0:0:
227,87,85258,1,2,1:1:0:0:
292,172,85458,1,0,0:0:0:0:
333,73,85658,1,0,1:0:0:0:
398,158,85858,2,0,L|448:152,5,37.5,0|0|2|0|0|0,0:0|0:0|1:1|0:0|0:0|0:0,0:0:0:0:
476,148,86458,5,0,1:0:0:0:
464,256,86658,1,0,1:0:0:0:
365,300,86858,2,0,L|288:292,1,75,2|0,1:1|1:0,0:0:0:0:
180,280,87258,5,0,1:0:0:0:
114,369,87458,1,0,1:0:0:0:
4,357,87658,2,0,L|12:280,1,75,2|0,1:1|1:0,0:0:0:0:
32,164,88058,5,0,1:0:0:0:
48,152,88158,1,0,1:0:0:0:
64,140,88258,1,0,1:0:0:0:
80,128,88358,1,0,1:0:0:0:
96,116,88458,2,0,L|128:92,3,37.5,2|0|0|0,1:1|1:0|1:0|1:0,0:0:0:0:
164,84,88858,2,0,L|200:100,3,37.5,0|0|0|0,1:0|1:0|1:0|1:0,0:0:0:0:
238,96,89258,2,0,L|270:72,3,37.5,2|0|0|0,1:1|1:0|1:0|1:0,0:0:0:0:
306,64,89658,5,4,0:0:0:0:
