osu file format v14

[General]
AudioFilename: Take Me Away - Min.mp3
AudioLeadIn: 0
PreviewTime: 62458
Countdown: 0
SampleSet: Soft
StackLeniency: 0.4
Mode: 0
LetterboxInBreaks: 0
WidescreenStoryboard: 0

[Editor]
Bookmarks: 12864,25664,38464,51264,57464,57864,58264,58664,59064,59464,59864,60264,64364,64664,64964,65264,65564,65864,66164,70464
DistanceSpacing: 1
BeatDivisor: 4
GridSize: 32
TimelineZoom: 1.7

[Metadata]
Title:TAKE ME AWAY
TitleUnicode:TAKE ME AWAY
Artist:MIN
ArtistUnicode:MIN
Creator:Yamicchi
Version:Normal
Source:
Tags:pop vietnamese vpop st319 Khac Hung cut
BeatmapID:1365477
BeatmapSetID:644181

[Difficulty]
HPDrainRate:4
CircleSize:3.5
OverallDifficulty:4
ApproachRate:5
SliderMultiplier:1.1
SliderTickRate:1

[Events]
//Background and Video events
0,0,"bg.jpg",0,0
//Break Periods
//Storyboard Layer 0 (Background)
//Storyboard Layer 1 (Fail)
//Storyboard Layer 2 (Pass)
//Storyboard Layer 3 (Foreground)
//Storyboard Sound Samples

[TimingPoints]
58,400,4,2,1,60,1,0
12858,-100,4,2,1,60,0,0
49658,-100,4,2,1,64,0,0
50058,-100,4,2,1,68,0,0
50458,-100,4,2,1,72,0,0
50858,-100,4,2,1,76,0,0
51258,-100,4,2,2,70,0,0
62458,-100,4,2,1,50,0,0
64058,-100,4,2,1,80,0,1
76458,-100,4,2,1,80,0,0
76858,-100,4,2,1,80,0,1
89658,-100,4,2,1,80,0,0

[Colours]
Combo1 : 22,147,248
Combo2 : 250,29,84
Combo3 : 121,232,255
Combo4 : 250,190,80

[HitObjects]
40,128,12858,6,0,L|168:116,1,110,4|0,0:0|0:0,0:0:0:0:
252,160,13658,2,0,L|361:149,1,110,0|0,0:0|0:0,0:0:0:0:
432,64,14458,2,0,P|472:140|444:224,2,165,4|0|0,0:0|0:0|0:0,0:0:0:0:
328,32,16058,6,0,B|288:48|248:36|248:36|204:24|164:40,1,165,4|0,0:0|0:0,0:0:0:0:
64,80,17058,1,0,0:0:0:0:
27,183,17458,1,0,0:0:0:0:
27,183,17658,6,0,P|108:181|165:124,1,165,4|0,0:0|0:0,0:0:0:0:
256,60,18658,1,0,0:0:0:0:
344,125,19058,1,0,0:0:0:0:
344,125,19258,6,0,L|336:244,1,110,4|0,0:0|0:0,0:0:0:0:
440,268,20058,2,0,L|447:158,1,110,0|0,0:0|0:0,0:0:0:0:
424,52,20858,2,0,P|352:16|276:40,2,165,4|0|0,0:0|0:0|0:0,0:0:0:0:
481,146,22458,6,0,B|485:178|478:206|478:206|481:234|489:254|489:254|493:290|485:322,1,165,4|0,0:0|0:0,0:0:0:0:
388,356,23458,1,0,0:0:0:0:
296,300,23858,1,0,0:0:0:0:
296,300,24058,2,0,P|224:264|136:304,1,165,4|0,0:0|0:0,0:0:0:0:
100,316,24858,2,0,P|76:272|80:196,1,110,0|0,0:0|0:0,0:0:0:0:
136,120,25658,6,0,L|248:128,1,110,6|2,0:2|0:0,0:0:0:0:
344,76,26458,2,0,P|356:128|332:200,1,110,2|2,0:0|0:0,0:0:0:0:
284,276,27258,2,0,L|396:268,1,110,6|2,0:2|0:0,0:0:0:0:
492,320,28058,2,0,P|504:268|480:196,1,110,2|2,0:0|0:0,0:0:0:0:
448,112,28858,5,6,0:2:0:0:
344,76,29258,1,2,0:0:0:0:
261,149,29658,2,0,P|236:104|240:40,1,110,2|2,0:0|0:0,0:0:0:0:
344,76,30458,1,6,0:2:0:0:
366,185,30858,1,2,0:0:0:0:
283,258,31258,2,0,P|231:257|178:221,1,110,2|2,0:0|0:0,0:0:0:0:
132,128,32058,6,0,L|16:120,1,110,6|2,0:2|0:0,0:0:0:0:
0,228,32858,2,0,L|109:235,1,110,2|2,0:0|0:0,0:0:0:0:
214,201,33658,2,0,P|268:184|333:200,1,110,6|2,0:2|0:0,0:0:0:0:
378,284,34458,2,0,P|324:301|259:285,1,110,2|2,0:0|0:0,0:0:0:0:
256,192,35258,12,0,36858,0:0:0:0:
368,132,38458,5,4,0:1:0:0:
392,240,38858,2,0,L|508:216,2,110,8|8|8,0:0|0:0|0:0,0:0:0:0:
337,250,39858,2,0,L|348:313,2,55,0|8|0,0:0|0:0|0:0,0:0:0:0:
282,260,40458,1,8,0:0:0:0:
172,280,40858,2,0,P|175:223|217:169,1,110,8|8,0:0|0:0,0:0:0:0:
284,104,41658,5,8,0:0:0:0:
391,124,42058,2,0,P|389:69|360:24,2,110,8|8|8,0:0|0:0|0:0,0:0:0:0:
384,180,43058,2,0,L|444:192,2,55,0|8|0,0:0|0:0|0:0,0:0:0:0:
377,236,43658,1,8,0:0:0:0:
363,348,44058,2,0,L|247:335,1,110,8|8,0:0|0:0,0:0:0:0:
144,364,44858,5,8,0:0:0:0:
80,276,45258,2,0,P|46:318|37:375,2,110,8|8|8,0:0|0:0|0:0,0:0:0:0:
96,224,46258,2,0,P|80:196|60:180,2,55,0|8|0,0:0|0:0|0:0,0:0:0:0:
133,264,46858,1,8,0:0:0:0:
240,248,47258,2,0,L|352:232,1,110,8|8,0:0|0:0,0:0:0:0:
432,160,48058,6,0,B|468:108|440:48|440:48|384:36,2,165,8|0|8,0:0|0:0|0:0,0:0:0:0:
348,232,49658,1,8,0:0:0:0:
327,123,50058,1,8,0:0:0:0:
244,196,50458,1,8,0:0:0:0:
223,87,50858,1,8,0:0:0:0:
140,160,51258,6,0,P|80:104|-16:104,2,165,8|8|8,1:2|1:2|1:2,0:0:0:0:
244,196,52858,2,0,P|322:172|370:88,2,165,8|8|8,1:2|1:2|1:2,0:0:0:0:
160,268,54458,6,0,B|96:240|96:240|-4:264,2,165,8|8|8,1:2|1:2|1:2,0:0:0:0:
264,308,56058,2,0,B|328:336|328:336|428:312,2,165,8|8|8,1:2|1:2|1:2,0:0:0:0:
247,198,57658,6,0,L|240:88,1,110,8|8,1:2|1:2,0:0:0:0:
348,80,58458,2,0,L|355:190,1,110,8|8,1:2|1:2,0:0:0:0:
307,287,59258,1,8,1:2:0:0:
247,198,59658,1,8,1:2:0:0:
140,206,60058,1,8,1:2:0:0:
93,303,60458,1,8,1:2:0:0:
256,192,60858,12,0,62458,0:0:0:0:
16,132,64058,6,0,P|24:85|68:41,1,110,0|0,1:0|1:0,0:0:0:0:
123,41,64658,1,0,0:0:0:0:
123,41,64858,2,0,P|174:56|226:40,1,110,0|0,1:0|1:0,0:0:0:0:
332,72,65658,5,0,1:0:0:0:
432,24,66058,1,2,1:3:0:0:
480,124,66458,1,2,1:3:0:0:
380,172,66858,1,0,1:0:0:0:
270,164,67258,6,0,P|270:218|264:280,1,110,0|0,1:0|1:0,0:0:0:0:
224,312,67858,1,0,0:0:0:0:
224,312,68058,2,0,P|167:312|108:306,1,110,0|0,1:0|1:0,0:0:0:0:
32,232,68858,6,0,P|20:188|44:120,1,110,2|2,1:3|1:3,0:0:0:0:
76,88,69458,1,2,0:3:0:0:
76,88,69658,2,0,L|140:80,1,55,2|2,1:3|0:3,0:0:0:0:
184,96,70058,1,2,1:3:0:0:
280,44,70458,6,0,P|292:104|272:160,1,110,0|0,1:0|1:0,0:0:0:0:
260,200,71058,1,0,0:0:0:0:
260,200,71258,2,0,P|248:260|268:316,1,110,0|0,1:0|1:0,0:0:0:0:
354,360,72058,5,0,1:0:0:0:
463,362,72458,1,0,1:0:0:0:
465,254,72858,1,2,1:3:0:0:
356,252,73258,1,2,1:3:0:0:
261,305,73658,6,0,P|204:304|145:301,1,110,0|0,1:0|1:0,0:0:0:0:
120,256,74258,1,0,0:0:0:0:
120,256,74458,2,0,P|120:198|124:140,1,110,0|0,1:0|1:0,0:0:0:0:
180,52,75258,6,0,B|240:72|296:48|296:48|352:24|400:40|424:88|392:152|320:128,1,330,2|2,1:3|1:3,0:0:0:0:
232,160,76858,6,0,P|224:216|248:272,1,110,0|2,1:0|1:1,0:0:0:0:
284,300,77458,1,0,0:0:0:0:
284,300,77658,2,0,P|340:308|396:284,1,110,0|2,1:0|1:1,0:0:0:0:
444,196,78458,5,0,1:0:0:0:
428,88,78858,1,2,1:1:0:0:
327,48,79258,1,0,1:0:0:0:
242,116,79658,1,2,1:1:0:0:
141,77,80058,6,0,P|135:133|158:184,1,110,0|2,1:0|1:1,0:0:0:0:
196,220,80658,1,0,0:0:0:0:
196,220,80858,2,0,P|252:214|303:237,1,110,0|2,1:0|1:1,0:0:0:0:
344,336,81658,6,0,B|398:342|398:342|450:325,1,110,0|2,1:0|1:1,0:0:0:0:
496,292,82258,1,0,0:0:0:0:
496,292,82458,2,0,L|504:224,1,55,0|0,1:0|0:0,0:0:0:0:
496,184,82858,1,2,1:1:0:0:
424,100,83258,6,0,P|376:80|316:88,1,110,0|2,1:0|1:1,0:0:0:0:
248,172,84058,2,0,P|200:192|140:184,1,110,0|2,1:0|1:1,0:0:0:0:
80,96,84858,5,0,1:0:0:0:
188,88,85258,1,2,1:1:0:0:
296,80,85658,1,0,1:0:0:0:
404,72,86058,1,2,1:1:0:0:
256,192,86458,12,4,89658,0:0:0:0:
