osu file format v14

[General]
AudioFilename: Take Me Away - Min.mp3
AudioLeadIn: 0
PreviewTime: 62458
Countdown: 0
SampleSet: Soft
StackLeniency: 0.4
Mode: 0
LetterboxInBreaks: 0
WidescreenStoryboard: 0

[Editor]
Bookmarks: 12864,25664,38464,51264,57464,57864,58264,58664,59064,59464,59864,60264,64364,64664,64964,65264,65564,65864,66164,70464
DistanceSpacing: 1
BeatDivisor: 4
GridSize: 4
TimelineZoom: 1.8

[Metadata]
Title:TAKE ME AWAY
TitleUnicode:TAKE ME AWAY
Artist:MIN
ArtistUnicode:MIN
Creator:Yamicchi
Version:Advanced
Source:
Tags:pop vietnamese vpop st319 Khac Hung cut
BeatmapID:1368723
BeatmapSetID:644181

[Difficulty]
HPDrainRate:5
CircleSize:3.7
OverallDifficulty:5
ApproachRate:6.5
SliderMultiplier:1.3
SliderTickRate:1

[Events]
//Background and Video events
0,0,"bg.jpg",0,0
//Break Periods
//Storyboard Layer 0 (Background)
//Storyboard Layer 1 (Fail)
//Storyboard Layer 2 (Pass)
//Storyboard Layer 3 (Foreground)
//Storyboard Sound Samples

[TimingPoints]
58,400,4,2,1,60,1,0
12858,-100,4,2,1,60,0,0
49658,-100,4,2,1,64,0,0
50058,-100,4,2,1,68,0,0
50458,-100,4,2,1,72,0,0
50858,-100,4,2,1,76,0,0
51258,-100,4,2,2,70,0,0
62458,-100,4,2,1,50,0,0
64058,-100,4,2,1,80,0,1
76458,-100,4,2,1,80,0,0
76858,-100,4,2,1,80,0,1
89658,-100,4,2,1,80,0,0

[Colours]
Combo1 : 22,147,248
Combo2 : 250,29,84
Combo3 : 121,232,255
Combo4 : 250,190,80

[HitObjects]
328,56,12858,5,4,0:0:0:0:
432,44,13258,1,0,0:0:0:0:
444,148,13658,1,0,0:0:0:0:
340,160,14058,1,0,0:0:0:0:
328,56,14458,2,0,B|264:40|208:72|208:72|172:40|128:40,2,195,4|0|0,0:0|0:0|0:0,0:0:0:0:
340,160,16058,6,0,P|332:224|328:296,1,130,4|0,0:0|0:0,0:0:0:0:
364,328,16658,2,0,P|428:304|500:316,2,130,0|0|0,0:0|0:0|0:0,0:0:0:0:
311,340,17658,1,4,0:0:0:0:
212,304,18058,1,0,0:0:0:0:
159,316,18258,2,0,P|95:340|23:328,2,130,0|0|0,0:0|0:0|0:0,0:0:0:0:
176,266,19258,5,4,0:0:0:0:
156,164,19658,1,0,0:0:0:0:
246,113,20058,1,0,0:0:0:0:
323,184,20458,1,0,0:0:0:0:
279,279,20858,2,0,B|320:300|368:280|368:280|416:260|468:284,2,195,4|0|0,0:0|0:0|0:0,0:0:0:0:
176,266,22458,6,0,P|160:220|180:140,1,130,4|0,0:0|0:0,0:0:0:0:
220,112,23058,2,0,L|364:104,2,130,0|0|0,0:0|0:0|0:0,0:0:0:0:
172,89,24058,2,0,P|110:70|48:86,1,130,4|0,0:0|0:0,0:0:0:0:
27,134,24658,1,0,0:0:0:0:
34,185,24858,2,0,L|44:252,1,65,0|0,0:0|0:0,0:0:0:0:
92,270,25258,2,0,L|102:337,1,65,0|0,0:0|0:0,0:0:0:0:
148,360,25658,6,0,P|220:352|284:352,1,130,6|2,0:2|0:0,0:0:0:0:
360,288,26458,2,0,P|290:267|227:256,1,130,2|2,0:0|0:0,0:0:0:0:
148,200,27258,2,0,P|212:167|273:145,1,130,6|2,0:2|0:0,0:0:0:0:
356,96,28058,2,0,P|297:53|242:21,1,130,2|2,0:0|0:0,0:0:0:0:
144,36,28858,5,6,0:2:0:0:
40,52,29258,1,2,0:0:0:0:
2,151,29658,1,2,0:0:0:0:
106,135,30058,1,2,0:0:0:0:
171,217,30458,6,0,L|164:360,1,130,6|2,0:2|0:0,0:0:0:0:
264,312,31258,2,0,L|268:228,1,65,2|0,0:0|0:0,0:0:0:0:
300,204,31658,2,0,L|296:120,1,65,2|0,0:0|0:0,0:0:0:0:
264,100,32058,6,0,P|328:112|392:116,1,130,6|2,0:2|0:0,0:0:0:0:
488,156,32858,2,0,P|445:205|410:258,1,130,2|2,0:0|0:0,0:0:0:0:
327,321,33658,2,0,P|305:259|276:202,1,130,6|2,0:2|0:0,0:0:0:0:
172,188,34458,2,0,P|129:237|94:290,1,130,2|2,0:0|0:0,0:0:0:0:
256,192,35258,12,0,36858,0:0:0:0:
100,96,38458,5,4,0:1:0:0:
228,88,38858,1,8,0:0:0:0:
298,194,39258,1,8,0:0:0:0:
426,186,39658,2,0,P|432:216|428:256,1,65,8|0,0:0|0:0,0:0:0:0:
405,310,40058,2,0,P|382:330|345:346,1,65,8|0,0:0|0:0,0:0:0:0:
286,345,40458,1,8,0:0:0:0:
156,332,40858,2,0,L|72:344,2,65,8|0|8,0:0|0:0|0:0,0:0:0:0:
196,280,41458,1,0,0:0:0:0:
200,216,41658,5,8,0:0:0:0:
176,88,42058,1,8,0:0:0:0:
275,4,42458,1,8,0:0:0:0:
398,48,42858,2,0,P|408:88|408:120,1,65,8|0,0:0|0:0,0:0:0:0:
356,148,43258,2,0,P|346:188|346:220,1,65,8|0,0:0|0:0,0:0:0:0:
360,276,43658,1,8,0:0:0:0:
444,376,44058,2,0,L|516:364,2,65,8|0|8,0:0|0:0|0:0,0:0:0:0:
380,376,44658,1,0,0:0:0:0:
316,372,44858,5,8,0:0:0:0:
231,273,45258,1,8,0:0:0:0:
132,358,45658,1,8,0:0:0:0:
47,259,46058,2,0,P|36:224|40:188,1,65,8|0,0:0|0:0,0:0:0:0:
60,136,46458,2,0,P|84:108|117:94,1,65,8|0,0:0|0:0,0:0:0:0:
174,88,46858,1,8,0:0:0:0:
272,172,47258,2,0,L|344:164,2,65,8|0|8,0:0|0:0|0:0,0:0:0:0:
216,204,47858,6,0,B|172:224|152:272|152:272|160:328|224:360,1,195,0|8,0:0|0:0,0:0:0:0:
271,360,48658,2,0,B|323:355|350:306|350:306|349:254|315:220,1,195,0|8,0:0|0:0,0:0:0:0:
272,172,49458,1,0,0:0:0:0:
216,140,49658,6,0,P|204:108|204:76,1,65,8|0,0:0|0:0,0:0:0:0:
236,20,50058,2,0,P|268:8|300:8,1,65,8|0,0:0|0:0,0:0:0:0:
368,44,50458,5,8,0:0:0:0:
368,44,50658,1,0,0:0:0:0:
400,116,50858,1,8,0:0:0:0:
400,116,51058,1,0,0:0:0:0:
384,192,51258,6,0,B|372:244|372:244|384:344,1,130,8|0,1:2|0:0,0:0:0:0:
304,332,51858,2,0,B|294:255|294:255|270:208,1,130,8|0,1:2|0:0,0:0:0:0:
227,142,52458,2,0,P|203:166|191:202,1,65,8|0,1:2|0:0,0:0:0:0:
212,272,52858,6,0,L|76:264,1,130,8|0,1:2|0:0,0:0:0:0:
80,344,53458,2,0,L|209:351,1,130,8|0,1:2|0:0,0:0:0:0:
278,313,54058,1,8,1:2:0:0:
340,360,54258,1,8,0:0:0:0:
408,321,54458,6,0,P|437:271|456:200,1,130,8|0,1:2|0:0,0:0:0:0:
408,140,55058,2,0,P|350:139|279:158,1,130,8|0,1:2|0:0,0:0:0:0:
208,184,55658,2,0,P|172:192|136:192,1,65,8|8,1:2|0:0,0:0:0:0:
84,140,56058,6,0,P|94:201|104:276,1,130,8|0,1:2|0:0,0:0:0:0:
166,314,56658,2,0,P|213:273|273:228,1,130,8|0,1:2|0:0,0:0:0:0:
344,220,57258,1,8,1:2:0:0:
420,232,57458,1,8,0:0:0:0:
488,192,57658,6,0,P|496:160|488:116,1,65,8|0,1:2|1:2,0:0:0:0:
462,56,58058,2,0,P|438:33|396:18,1,65,8|0,1:2|1:2,0:0:0:0:
331,10,58458,2,0,P|299:19|265:48,1,65,8|0,1:2|1:2,0:0:0:0:
225,100,58858,2,0,P|217:132|225:176,1,65,8|0,1:2|1:2,0:0:0:0:
240,240,59258,5,8,1:2:0:0:
240,240,59458,1,0,1:2:0:0:
312,272,59658,2,0,L|384:260,1,65,8|0,1:2|1:2,0:0:0:0:
440,216,60058,1,8,1:2:0:0:
440,216,60258,1,0,1:2:0:0:
368,184,60458,2,0,L|296:196,1,65,8|0,1:2|1:0,0:0:0:0:
256,192,60858,12,0,62458,0:0:0:0:
303,194,63458,5,0,0:0:0:0:
303,194,63558,1,0,0:0:0:0:
303,194,63658,2,0,L|312:129,1,65,2|0,0:1|0:0,0:0:0:0:
299,51,64058,6,0,P|355:63|391:131,1,130,0|0,1:0|1:0,0:0:0:0:
382,200,64658,1,0,0:0:0:0:
337,266,64858,2,0,P|304:272|264:264,1,65,0|0,1:0|0:0,0:0:0:0:
212,316,65258,2,0,P|179:310|139:318,1,65,0|0,1:0|0:0,0:0:0:0:
72,332,65658,5,0,1:0:0:0:
39,261,65858,1,0,0:0:0:0:
50,183,66058,2,0,P|38:135|-2:55,2,130,2|2|0,1:3|1:3|1:0,0:0:0:0:
198,237,67258,6,0,B|244:232|244:232|284:240|284:240|336:235,1,130,0|0,1:0|1:0,0:0:0:0:
384,184,67858,1,0,0:0:0:0:
452,224,68058,2,0,P|460:256|464:296,1,65,0|0,1:0|0:0,0:0:0:0:
416,352,68458,2,0,P|384:360|344:364,1,65,0|0,1:0|0:0,0:0:0:0:
284,328,68858,6,0,P|220:316|156:344,1,130,2|2,1:3|1:3,0:0:0:0:
96,384,69458,1,2,0:3:0:0:
96,384,69658,2,0,P|84:355|84:320,1,65,2|2,1:3|0:3,0:0:0:0:
128,256,70058,2,0,L|168:252,2,32.5,2|2|2,1:3|0:3|0:3,0:0:0:0:
76,196,70458,6,0,B|56:132|56:132|80:60,1,130,0|0,1:0|1:0,0:0:0:0:
137,25,71058,1,0,0:0:0:0:
176,92,71258,2,0,L|152:160,1,65,0|0,1:0|0:0,0:0:0:0:
229,177,71658,2,0,L|250:115,1,65,0|0,1:0|0:0,0:0:0:0:
310,64,72058,6,0,P|377:51|437:78,1,130,0|0,1:0|1:0,0:0:0:0:
418,229,72858,2,0,P|350:241|290:214,1,130,2|2,1:3|1:3,0:0:0:0:
229,177,73458,1,2,0:3:0:0:
159,213,73658,6,0,B|148:256|148:256|156:352,1,130,0|0,1:0|1:0,0:0:0:0:
232,360,74258,1,0,0:0:0:0:
308,376,74458,2,0,P|340:375|371:367,1,65,0|0,1:0|0:0,0:0:0:0:
433,318,74858,2,0,P|448:289|456:258,1,65,0|0,1:0|0:0,0:0:0:0:
440,180,75258,6,0,P|412:136|416:56,1,130,2|2,1:3|1:3,0:0:0:0:
344,24,75858,2,0,P|285:51|253:106,1,130,2|2,0:3|0:3,0:0:0:0:
268,184,76458,2,0,P|306:178|348:176,1,65,2|0,1:3|0:0,0:0:0:0:
388,232,76858,6,0,B|400:264|388:296|388:296|400:332|388:368,1,130,0|2,1:0|1:1,0:0:0:0:
316,332,77458,1,0,0:0:0:0:
258,384,77658,2,0,P|242:353|244:305,1,65,0|0,1:0|0:0,0:0:0:0:
257,246,78058,2,0,P|269:214|261:166,1,65,2|0,1:1|0:0,0:0:0:0:
256,104,78458,5,0,1:0:0:0:
184,72,78658,1,0,0:0:0:0:
112,40,78858,2,0,P|51:79|38:151,2,130,2|0|2,1:1|1:0|1:1,0:0:0:0:
256,104,80058,6,0,P|328:100|376:44,1,130,0|2,1:0|1:1,0:0:0:0:
436,24,80658,1,0,0:0:0:0:
496,76,80858,2,0,L|492:144,1,65,0|0,1:0|0:0,0:0:0:0:
436,196,81258,2,0,L|432:264,1,65,2|0,1:1|0:0,0:0:0:0:
496,304,81658,6,0,L|348:300,1,130,0|2,1:0|1:1,0:0:0:0:
288,300,82258,1,0,0:0:0:0:
227,351,82458,2,0,P|212:323|209:291,1,65,0|0,1:0|0:0,0:0:0:0:
255,227,82858,2,0,L|288:216,2,32.5,2|0|0,1:1|0:0|0:0,0:0:0:0:
176,218,83258,6,0,L|100:240,1,65,0|0,1:0|0:0,0:0:0:0:
44,200,83658,2,0,L|22:124,1,65,2|0,1:1|0:0,0:0:0:0:
62,68,84058,2,0,L|138:46,1,65,0|0,1:0|0:0,0:0:0:0:
194,86,84458,2,0,L|216:162,1,65,2|0,1:1|0:0,0:0:0:0:
253,213,84858,6,0,P|284:224|324:224,1,65,0|0,1:0|0:0,0:0:0:0:
392,252,85258,2,0,P|402:221|402:181,1,65,2|0,1:1|0:0,0:0:0:0:
430,113,85658,2,0,P|399:102|359:102,1,65,0|0,1:0|0:0,0:0:0:0:
291,74,86058,2,0,P|280:104|280:144,1,65,2|0,1:1|0:0,0:0:0:0:
253,213,86458,5,0,1:0:0:0:
253,213,86658,1,0,1:0:0:0:
260,292,86858,1,2,1:1:0:0:
260,292,87058,1,0,1:0:0:0:
195,337,87258,1,0,1:0:0:0:
195,337,87458,1,0,1:0:0:0:
124,304,87658,1,2,1:1:0:0:
124,304,87858,1,0,1:0:0:0:
256,192,88058,12,4,89658,0:0:0:0:
