osu file format v14

[General]
AudioFilename: Rokka no Yuusha () Cry for the Truth OP-1.mp3
AudioLeadIn: 0
PreviewTime: 55506
Countdown: 0
SampleSet: Normal
StackLeniency: 0.7
Mode: 0
LetterboxInBreaks: 0
WidescreenStoryboard: 1

[Editor]
Bookmarks: 3136
DistanceSpacing: 0.9
BeatDivisor: 2
GridSize: 4
TimelineZoom: 1.2

[Metadata]
Title:Cry for the Truth (TV Size)
TitleUnicode:Cry for the Truth (TV Size)
Artist:MICHI
ArtistUnicode:MICHI
Creator:AwisaRawwrrr
Version:Normal
Source:Rokka: Braves of the Six Flowers
Tags:adlet mayer nashetania opening op1 op rokka no yuusha
BeatmapID:752523
BeatmapSetID:340220

[Difficulty]
HPDrainRate:4
CircleSize:3.3
OverallDifficulty:4.3
ApproachRate:4
SliderMultiplier:1
SliderTickRate:1

[Events]
//Background and Video events
0,0,"Rokka no Yuusha Edited BG.jpg",0,0
//Break Periods
//Storyboard Layer 0 (Background)
//Storyboard Layer 1 (Fail)
//Storyboard Layer 2 (Pass)
//Storyboard Layer 3 (Foreground)
//Storyboard Sound Samples

[TimingPoints]
20,346.820809248555,4,2,0,80,1,0
366,-100,4,1,1,60,0,0
16320,-133.333333333333,4,1,1,15,0,0
28112,-100,4,1,1,50,0,0
39557,-100,4,1,1,53,0,0
45106,-100,4,1,1,55,0,0
55511,-100,4,1,1,90,0,1
61407,-100,4,1,1,90,0,0
66956,-100,4,1,1,90,0,1
72158,-100,4,1,1,95,0,0
84817,-100,4,1,1,90,0,0
85858,-100,4,1,1,30,0,0
86551,-100,4,1,1,20,0,0
87245,-100,4,1,1,15,0,0

[Colours]
Combo1 : 255,164,119
Combo2 : 214,143,243
Combo3 : 128,185,255
Combo4 : 128,238,160
Combo5 : 252,135,135

[HitObjects]
348,72,3141,5,10,0:0:0:0:
176,124,3835,2,0,P|132:104|96:52,2,100,2|10|2,0:0|0:0|0:0,0:0:0:0:
244,184,4875,1,2,0:0:0:0:
332,196,5222,2,0,P|376:188|429:197,1,100,2|10,0:0|0:0,0:0:0:0:
368,264,5915,6,0,P|292:272|256:264,1,100,12|2,0:0|0:0,0:0:0:0:
224,264,6436,1,10,0:0:0:0:
136,244,6783,2,0,B|144:192|144:128,1,100,10|4,0:0|0:0,0:0:0:0:
228,180,7476,1,0,0:0:0:0:
272,176,7650,2,0,P|320:192|376:180,1,100
460,224,8343,6,0,P|464:164|436:116,1,100,12|2,0:0|0:0,0:0:0:0:
352,96,9037,2,0,L|304:64,1,50
220,28,9557,2,0,B|180:44|140:16|104:48,1,100,10|14,0:0|0:0,0:0:0:0:
56,112,10251,1,10,0:0:0:0:
88,148,10424,2,0,P|144:136|192:176,1,100,2|10,0:0|0:0,0:0:0:0:
124,240,11118,1,0,0:0:0:0:
124,240,11465,6,0,B|176:296|224:292,1,100,8|8,0:0|0:0,0:0:0:0:
288,248,12158,1,10,0:0:0:0:
364,204,12505,2,8,P|424:216|468:204,1,100
420,128,13199,2,0,P|368:120|308:132,1,100,2|8,0:0|0:0,0:0:0:0:
240,164,13892,6,0,P|184:176|124:160,1,100,2|8,0:0|0:0,0:0:0:0:
84,108,14586,1,8,0:0:0:0:
84,108,14759,1,12,0:0:0:0:
68,148,14933,2,0,P|68:220|108:256,1,100
128,252,15453,1,0,0:0:0:0:
172,244,15626,2,0,P|188:200|160:140,1,100
152,88,16320,6,0,P|208:100|244:80,1,75.0000028610231
280,60,17014,2,0,P|316:44|364:52,1,75.0000028610231,4|2,0:0|0:0,0:0:0:0:
380,108,17707,2,0,B|412:96|420:60|420:32,2,75.0000028610231,2|8|2,0:0|0:0|0:0,0:0:0:0:
304,220,19095,2,0,P|256:224|224:208,1,75.0000028610231,2|8,0:0|0:0,0:0:0:0:
184,200,19788,2,0,P|140:204|104:224,1,75.0000028610231,8|2,0:0|0:0,0:0:0:0:
88,244,20309,2,0,P|52:288|52:320,1,75.0000028610231
124,316,21002,2,0,B|172:360|251:344|251:344|316:344,1,187.500007152558
216,184,22216,6,0,P|204:219|212:256,2,75.0000028610231,2|8|2,0:0|0:0|0:0,0:0:0:0:
248,172,23083,2,0,P|296:192|332:188,1,75.0000028610231,2|8,0:0|0:0,0:0:0:0:
388,200,23777,1,0,0:0:0:0:
388,200,23950,2,0,P|412:164|404:116,1,75.0000028610231
396,104,24470,2,0,P|336:72|308:80,1,75.0000028610231
264,80,25164,1,2,0:0:0:0:
264,80,25337,2,0,P|212:92|184:132,2,75.0000028610231,10|8|0,0:0|0:0|0:0,0:0:0:0:
88,120,28112,6,0,P|92:184|68:224,2,100,2|8|2,0:0|0:0|0:0,0:0:0:0:
172,176,29152,2,0,P|220:188|284:176,1,100,2|8,0:0|0:0,0:0:0:0:
360,228,29846,6,0,P|368:164|356:124,2,100,2|10|2,0:0|0:0|0:0,0:0:0:0:
284,296,30887,2,0,P|252:260|200:244,2,100,2|8|2,0:0|0:0|0:0,0:0:0:0:
188,320,31927,2,0,L|88:312,1,100,8|2,0:0|0:0,0:0:0:0:
124,220,32621,1,0,0:0:0:0:
320,248,33314,6,0,L|328:136,1,100,2|0,0:0|0:0,0:0:0:0:
276,64,34008,2,0,P|324:51|373:62,2,100,2|8|2,0:0|0:0|0:0,0:0:0:0:
244,160,35048,2,0,P|176:168|132:160,1,100,2|0,0:0|0:0,0:0:0:0:
52,128,35742,2,0,L|44:240,1,100,2|2,0:0|0:0,0:0:0:0:
256,192,36436,12,2,37476,0:0:0:0:
196,276,37823,6,0,L|144:168,1,100
244,148,38517,2,0,P|280:192|344:212,2,100,2|2|2,0:0|0:0|0:0,0:0:0:0:
200,148,39384,1,0,0:0:0:0:
156,148,39557,6,0,P|120:152|40:220,2,100,2|6|2,0:0|0:0|0:0,0:0:0:0:
112,244,40598,2,0,P|96:312|100:356,1,100,6|10,0:0|0:0,0:0:0:0:
144,364,41118,1,8,0:0:0:0:
196,348,41291,2,0,P|204:296|200:240,1,100,2|10,0:0|0:0,0:0:0:0:
172,152,41985,6,4,P|208:120|268:108,1,100,4|2,0:0|0:0,0:0:0:0:
308,116,42505,2,0,P|372:152|404:192,2,100,2|12|2,0:0|0:0|0:0,0:0:0:0:
284,160,43372,2,0,L|224:208,1,50,2|2,0:0|0:0,0:0:0:0:
256,240,43719,2,0,P|268:304|252:376,2,100,2|8|2,0:0|0:0|0:0,0:0:0:0:
168,220,44759,1,4,0:0:0:0:
92,256,45106,6,0,P|120:288|200:288,2,100,2|2|6,0:0|0:0|0:0,0:0:0:0:
88,204,45973,1,2,0:0:0:0:
104,156,46147,2,0,P|124:112|200:80,1,100,2|2,0:0|0:0,0:0:0:0:
196,124,46667,2,0,P|244:132|308:108,1,100,8|8,0:0|0:0,0:0:0:0:
304,68,47187,2,0,P|352:60|428:84,1,100,2|2,0:0|0:0,0:0:0:0:
364,152,47881,6,0,P|412:196|452:204,2,100,2|2|2,0:0|0:0|0:0,0:0:0:0:
324,176,48748,1,8,0:0:0:0:
296,208,48921,2,8,P|244:224|188:220,1,100
124,272,49615,1,8,0:0:0:0:
84,192,49962,1,8,0:0:0:0:
152,132,50309,1,10,0:0:0:0:
228,84,50655,2,0,P|276:76|348:92,2,100,2|2|2,0:0|0:0|0:0,0:0:0:0:
152,132,51696,5,10,0:0:0:0:
216,196,52043,1,10,0:0:0:0:
292,148,52389,1,10,0:0:0:0:
372,188,52736,2,0,P|352:220|260:220,2,100,2|8|2,0:0|0:0|0:0,0:0:0:0:
256,192,53777,12,0,54817,0:0:0:0:
88,128,55511,5,2,0:0:0:0:
88,128,55858,2,4,P|160:68|204:64,1,100,2|0,0:0|0:0,0:0:0:0:
248,124,56551,2,0,L|360:112,1,100,8|2,0:0|0:0,0:0:0:0:
304,204,57245,2,0,P|232:224|168:216,1,100,2|2,0:0|0:0,0:0:0:0:
12,184,58285,6,0,P|56:236|72:276,2,100,2|0|2,0:0|0:0|0:0,0:0:0:0:
76,144,59152,1,2,0:0:0:0:
76,144,59326,2,0,P|36:112|24:44,1,100,2|2,0:0|0:0,0:0:0:0:
108,72,59846,1,2,0:0:0:0:
108,72,60020,2,0,B|152:124|152:124|176:224|216:204|256:160,1,200,2|8,0:0|0:0,0:0:0:0:
420,100,61407,6,0,B|328:48|328:48|344:144,1,200,2|2,0:0|0:0,0:0:0:0:
256,188,62447,1,2,0:0:0:0:
156,216,62794,2,0,B|156:316|156:316|68:252,1,200,4|2,0:0|0:0,0:0:0:0:
80,156,63835,1,2,0:0:0:0:
176,124,64181,6,0,P|240:80|304:88,2,100,2|8|2,0:0|0:0|0:0,0:0:0:0:
216,164,65048,2,0,P|212:232|228:280,1,100,2|6,0:0|0:0,0:0:0:0:
280,280,65569,2,0,P|340:292|480:240,1,200,2|2,0:0|0:0,0:0:0:0:
300,68,66956,6,0,P|200:92|96:68,1,200,6|8,0:0|0:0,0:0:0:0:
132,168,67996,2,0,L|272:176,1,100,8|2,0:0|0:0,0:0:0:0:
288,252,68690,2,0,L|412:244,1,100,2|8,0:0|0:0,0:0:0:0:
432,156,69384,6,0,L|480:88,2,50,2|2|2,0:0|0:0|0:0,0:0:0:0:
344,148,70077,2,0,P|320:120|296:104,1,50
264,112,70424,2,0,P|244:112|168:148,1,100
184,188,70944,2,0,P|116:212|64:184,2,100,4|2|2,0:0|0:0|0:0,0:0:0:0:
228,204,71811,2,0,L|300:212,1,50,2|0,0:0|0:0,0:0:0:0:
324,216,72158,1,2,0:0:0:0:
444,192,72505,6,0,P|420:128|424:84,2,100,8|8|8,0:0|0:0|0:0,0:0:0:0:
348,220,73546,2,0,P|300:268|288:336,2,100,8|2|8,0:0|0:0|0:0,0:0:0:0:
256,184,74586,2,0,P|244:144|180:120,2,100,8|8|10,0:0|0:0|0:0,0:0:0:0:
168,204,75626,1,10,0:0:0:0:
88,240,75973,1,10,0:0:0:0:
144,312,76320,1,10,0:0:0:0:
232,336,76667,1,10,0:0:0:0:
320,340,77014,5,4,0:0:0:0:
368,264,77361,2,0,B|160:160|152:92|152:92|192:44|256:20|256:20|316:44|356:92|356:92|344:164|120:284,1,800,2|0,0:0|0:0,0:0:0:0:
88,168,80482,5,2,0:0:0:0:
88,168,80655,1,4,0:0:0:0:
336,136,81522,2,0,L|404:164,1,50,2|2,0:0|0:0,0:0:0:0:
404,200,81869,2,0,P|364:236|352:240,1,50,2|2,0:0|0:0,0:0:0:0:
240,308,82563,6,0,P|200:294|164:248,2,100,2|2|2,0:0|0:0|0:0,0:0:0:0:
292,308,83430,1,0,0:0:0:0:
372,184,83950,2,0,L|264:172,1,100,2|2,0:0|0:0,0:0:0:0:
176,152,84644,1,2,0:0:0:0:
176,152,84817,1,4,0:0:0:0:
256,192,84991,12,4,87765,0:0:0:0:
