osu file format v5

[General]
AudioFilename: 05 Kids.mp3
AudioLeadIn: 0
PreviewTime: -1
Countdown: 1
SampleSet: Normal
StackLeniency: 0.7
Mode: 0
LetterboxInBreaks: 1
EditorBookmarks: 21436,54363,84119,116314,146802,155338,178265

[Metadata]
Title:Kids
Artist:MGMT
Creator:mrtn
Version:Normal
Source:
Tags:

[Difficulty]
HPDrainRate:4
CircleSize:4
OverallDifficulty:5
SliderMultiplier:1.4
SliderTickRate:1

[Events]
//Background and Video events
0,0,"bg.jpg"
//Break Periods
2,41707,53234
2,63414,64453
2,113657,115429
2,121218,123234
2,125609,126892
2,160365,162258
//Storyboard Layer 0 (Background)
//Storyboard Layer 1 (Failing)
//Storyboard Layer 2 (Passing)
//Storyboard Layer 3 (Foreground)
//Storyboard Sound Samples
//Background Colour Transformations
3,100,163,162,255

[TimingPoints]
22240,487.80487804878,4,1,0,100,1
116386,3000,4,2,0,100,0
146874,3000,4,1,0,100,0

[HitObjects]
136,112,22239,2,0,B|136:280,2,140
232,192,23702,2,0,B|181:209|352:264,1,140
336,128,24678,1,0
336,128,24921,1,0
232,56,25409,1,0
128,120,25897,2,0,B|40:224|264:160|96:336|168:336|392:320|424:184|408:136,1,490
344,136,27848,6,0,B|272:136,3,70
176,208,29068,2,0,B|152:280|280:304,1,140
320,304,29800,2,0,B|400:296|384:272,1,70
320,176,30531,5,0
224,88,31019,1,0
144,184,31507,2,0,B|96:232|184:312,1,140
296,288,32482,2,0,B|314:262|376:296,1,70,0|0
440,192,33214,1,0
328,128,33702,1,0
328,128,33946,6,0,B|328:208,2,70
216,197,34921,6,0,B|216:117,2,70
104,264,35897,5,4
104,264,36141,1,4
104,136,36629,2,4,B|176:72,1,70
216,88,37117,2,4,B|296:88,2,70
216,152,37848,5,0
216,280,38336,2,0,B|245:329|360:272,3,140
376,160,40287,1,0
312,160,40531,1,0
200,96,41019,1,0
200,224,41507,1,0
88,80,54434,5,0
152,80,54678,2,0,B|232:80,2,70
376,296,56385,6,0,B|376:216,1,70
376,160,56873,1,0
376,160,57117,1,0
376,160,57360,1,0
144,56,58337,6,0,B|139:109|184:192,1,140,0|0
304,192,59312,5,0
208,112,59800,1,0
80,112,60287,2,0,B|80:184,2,70
152,216,61263,1,0
264,264,61751,6,0,B|344:296,1,70
392,296,62239,2,0,B|440:304|440:224,1,70
456,192,62726,1,0
368,96,63214,1,0
72,80,65653,5,0
72,80,65897,1,0
72,80,66141,1,0
72,80,66385,1,0
72,80,66629,2,0,B|48:160|200:112,1,140
296,112,67604,6,0,B|384:96|376:232,1,140
360,256,68336,1,4
296,256,68580,1,4
168,256,69068,6,0,B|115:183|176:120,1,140,0|0
296,112,70043,1,0
360,112,70287,1,0
424,112,70531,1,0
424,240,71019,2,0,B|360:296|296:288,1,140
232,280,71751,6,0,B|152:264,3,70
96,160,72970,2,0,B|200:160|232:160|224:96,1,140
320,48,73946,2,0,B|406:48|352:88|456:72,1,140,0|0
456,200,74921,5,0
392,200,75165,1,0
328,200,75409,1,0
104,304,77117,5,0
168,304,77360,2,0,B|248:256,1,70
280,232,77848,2,0,B|232:224|272:152,1,70
288,120,78336,1,0
168,72,78824,1,0
224,184,79312,5,0
352,184,79800,2,4,B|352:272,3,70
456,184,81019,6,0,B|440:104,3,70
392,80,81995,1,0
328,80,82239,2,0,B|232:80,2,70,0|0|0
200,80,83214,1,0
456,328,84678,5,0
360,248,85165,1,0
304,208,85409,6,0,B|248:208|240:272,1,70
224,304,85897,1,0
224,304,86141,1,0
448,80,87360,5,0
448,80,87604,2,0,B|368:80,1,70
312,80,88092,1,0
248,80,88336,1,0
184,80,88580,2,0,B|96:120|224:232|208:272,1,210
272,272,89556,6,0,B|320:264|240:216|352:160,1,140
392,128,90287,5,4
272,80,90775,1,4
272,80,91019,1,4
144,80,91507,2,0,B|144:152,4,70
176,264,93214,5,0
176,264,93458,2,0,B|272:264,1,70
304,248,93946,1,0
304,120,94434,2,0,B|296:72|224:168|200:40|104:80,1,210,0|0
88,136,95409,2,0,B|36:175|132:223|52:247,1,105
280,136,96629,5,0
280,136,96873,1,0
376,216,97360,2,0,B|328:328,1,105,0|0
192,248,98336,6,0,B|176:208|208:184,1,70,0|0
112,96,99068,2,4,B|72:96,2,35
176,96,99556,2,4,B|256:96,2,70
176,160,100287,6,0,B|168:224|304:176,1,140
352,168,101019,6,0,B|400:240,3,70
264,256,102239,5,0
192,152,102726,2,0,B|240:144|272:168,1,70
376,104,103458,1,0
248,80,103946,2,0,B|160:64|104:72|64:112|56:144|56:256|96:272|136:312|256:312|296:240|296:168,1,560
400,104,106385,5,0
400,104,106629,1,0
400,232,107117,2,0,B|400:312,2,70
296,152,108092,1,0
168,152,108580,1,0
168,280,109068,6,0,B|80:280,2,70,0|0|0
296,288,110043,1,0
416,248,110531,2,0,B|432:192|392:160,1,70
328,80,111263,2,0,B|168:80,1,140
336,200,112482,6,0,B|344:296|432:264,2,140,0|0|0
352,208,116629,6,0,B|380:249|344:280,2,70,0|0|0
304,160,117360,1,0
240,136,117604,1,0
440,312,118824,5,0
440,312,119068,1,0
440,312,119312,2,0,B|440:224,1,70
440,176,119800,2,0,B|392:184|360:88|272:168|248:216,1,210,0|0
216,248,120775,2,0,B|163:252|144:208,1,70
80,168,124434,5,0
80,168,124678,2,0,B|136:224,1,70
176,264,125165,1,0
240,264,125409,1,0
240,160,128092,6,0,B|240:232,2,70
368,160,129068,1,0
368,160,129312,2,0,B|368:248,1,70
288,280,129922,1,0
248,192,130287,5,0
248,192,130531,2,0,B|248:96|184:64|136:72|104:128|152:216,1,280
328,176,132239,6,0,B|408:176,2,70,0|0|0
264,176,132970,1,0
200,176,133214,1,0
416,296,134190,5,0
416,296,134434,2,0,B|328:296,1,70
280,296,134921,2,0,B|200:256,1,70
160,232,135409,2,0,B|256:160|248:104|312:104|336:128|336:152,1,210,0|0
376,96,136385,1,0
280,120,136752,1,0
320,272,137360,6,0,B|368:304|472:256|416:176|464:144,1,210
452,155,138336,1,0
264,112,139068,6,0,B|184:112,3,70
128,112,140043,2,0,B|128:184,3,70,0|0|0|0
208,280,141263,1,0
208,280,141507,6,0,B|312:280,1,70
368,192,142239,1,0
368,192,142482,6,0,B|272:192,1,70
208,96,143214,1,0
96,248,143946,5,0
96,248,144190,2,0,B|96:176,1,70
96,112,144678,2,0,B|168:112,3,70,0|0|0|2
224,112,145653,1,2
320,192,146141,6,4,B|360:192,2,35,4|4|4
320,256,146629,1,4
80,56,147848,6,0,B|80:136,1,70,0|0
80,184,148336,2,0,B|168:184,1,70
432,320,149800,6,0,B|360:280,2,70,0|0|0
448,256,150531,1,0
448,192,150775,1,0
448,128,151019,2,0,B|440:72|320:56|320:152|248:128,1,210
208,104,151995,2,0,B|152:96|144:248,1,140
320,280,153214,5,0
320,280,153458,1,0
320,152,153946,2,0,B|232:152,4,70
184,288,155653,5,0
128,256,155897,2,0,B|128:168,1,70
184,168,156385,1,0
288,104,156873,2,0,B|328:80|280:192|416:72|456:80|448:208,1,210
440,240,157848,2,0,B|392:336|312:312,1,140
176,208,159068,5,0
176,208,159312,1,0
176,80,159800,2,0,B|296:80,1,105
256,72,163458,5,0
256,72,163702,1,0
256,72,163946,2,0,B|256:160,1,70
72,320,165409,5,0
72,320,165653,1,0
72,320,165897,1,0
72,320,166141,2,0,B|72:224,1,70
72,184,166629,2,0,B|152:136|224:176,1,140
328,160,167605,2,0,B|368:218|320:264,1,105
232,264,168336,5,0
104,256,168824,2,0,B|88:184,1,70
192,112,169556,2,0,B|112:112,4,70,0|0|0|0|0
336,104,171019,6,0,B|416:168|416:240,1,140
312,296,171995,2,0,B|232:304|168:224,1,140
120,136,172970,1,0
120,136,173214,1,0
240,96,173702,2,0,B|312:72|344:176,1,140
448,232,174678,6,0,B|448:144,1,70,0|0
328,112,175409,2,0,B|288:88|192:152,1,140
128,248,176385,5,0
128,248,176629,1,0
256,248,177117,2,4,B|304:248,2,35
256,184,177604,2,4,B|256:104,2,70
