osu file format v9

[General]
AudioFilename: LapFox Trax - ON Trax Vol. 2 - 12 Future Destination.mp3
AudioLeadIn: 2007
PreviewTime: -1
Countdown: 0
SampleSet: Normal
StackLeniency: 0.7
Mode: 0
LetterboxInBreaks: 1

[Editor]
Bookmarks: 17996,32618,40791
DistanceSpacing: 1
BeatDivisor: 4
GridSize: 16

[Metadata]
Title:Future Destination
Artist:MGD Sound Team
Creator:Amphe
Version:Insane
Source:
Tags:Renard Queenston MGD Sound Team Unfa1r

[Difficulty]
HPDrainRate:7
CircleSize:4
OverallDifficulty:7
ApproachRate:8
SliderMultiplier:2
SliderTickRate:1

[Events]
//Background and Video events
0,0,"BG.jpg"
//Break Periods
2,28843,32843
2,79234,83233
//Storyboard Layer 0 (Background)
//Storyboard Layer 1 (Fail)
//Storyboard Layer 2 (Pass)
//Storyboard Layer 3 (Foreground)
//Storyboard Sound Samples
//Background Colour Transformations
3,100,163,162,255

[TimingPoints]
0,299.9400119976,4,1,0,100,1,0
0,-133.333333333333,4,1,0,100,0,0
19161,-100,4,1,0,100,0,0
47990,-100,4,1,0,100,0,1
57588,-100,4,1,0,100,0,0
64787,-100,4,1,0,100,0,1
74910,-100,4,1,0,100,0,0
74985,-100,4,1,0,100,0,1
75059,-100,4,1,0,100,0,0
75209,-100,4,1,0,100,0,1
75284,-100,4,1,0,100,0,0
75434,-100,4,1,0,100,0,1
75509,-100,4,1,0,100,0,0
75584,-100,4,1,0,100,0,1
77309,-100,4,1,0,100,0,0
77384,-100,4,1,0,100,0,1
77459,-100,4,1,0,100,0,0
77609,-100,4,1,0,100,0,1
77684,-100,4,1,0,100,0,0
77834,-100,4,1,0,100,0,1
77909,-133.333333333333,4,1,0,100,0,0
92081,-100,4,1,0,100,0,0

[Colours]
Combo1 : 240,5,5
Combo2 : 5,240,5
Combo3 : 5,5,240

[HitObjects]
368,128,0,1,0
144,128,449,1,0
256,320,899,1,0
358,251,2249,2,0,B|323:259|289:225,1,74.9999977648259
153,251,2549,2,0,B|188:259|222:225,1,74.9999977648259
256,160,2849,2,0,B|256:80,1,74.9999977648259
256,85,3299,1,0
368,256,4799,5,0
144,256,5248,1,0
256,64,5698,1,0
358,132,7048,2,0,B|323:124|289:158,1,74.9999977648259
153,132,7348,2,0,B|188:124|222:158,1,74.9999977648259
256,224,7648,2,0,B|256:304,1,74.9999977648259
256,299,8098,1,0
144,192,9598,6,0,B|144:80|256:80,1,149.999995529652
224,82,10047,1,0
352,272,10497,1,0
48,48,11247,5,0
48,48,11322,1,0
48,48,11397,1,0
128,48,11547,2,0,B|176:48|176:96,1,74.9999977648259
176,176,11847,2,0,B|112:176|112:112,2,74.9999977648259
256,176,12297,2,0,B|304:176|304:112,1,74.9999977648259
384,128,12597,2,0,B|383:80|431:80,1,74.9999977648259
428,80,12897,1,0
480,128,13047,1,0
480,128,13122,1,0
480,128,13197,1,0
480,128,13497,1,0
368,192,14247,5,0
368,192,14322,1,0
368,192,14397,2,0,B|368:304|256:304,1,149.999995529652
288,302,14846,1,0
160,112,15296,1,0
464,336,16046,5,0
464,336,16121,1,0
464,336,16196,1,0
384,336,16346,2,0,B|336:336|336:288,1,74.9999977648259
336,208,16646,2,0,B|400:208|400:272,2,74.9999977648259
256,208,17096,2,0,B|208:208|208:272,1,74.9999977648259
128,256,17396,2,0,B|128:303|80:303,1,74.9999977648259
83,303,17696,1,0
256,192,17996,12,0,18896
64,64,19196,5,8
64,64,19346,1,8
144,288,19646,5,8
144,288,19796,1,8
288,96,20087,5,8
288,96,20237,1,8
352,320,20536,5,8
352,320,20695,1,8
192,192,20995,2,0,B|128:112,1,100,0|2
224,64,21295,2,0,B|288:144,1,100,0|2
368,80,21595,2,2,B|400:48|464:48,2,100,2|2|2
464,128,22045,1,8
460,207,22195,2,2,B|400:208|368:176,3,100
320,256,22795,1,0
240,304,22945,1,0
240,208,23095,1,0
160,256,23245,1,0
64,208,23395,6,10,B|32:176|32:112,1,100
128,96,23695,2,10,B|160:128|160:192,1,100
304,256,23995,2,8,B|416:256,1,100
352,336,24444,2,8,B|464:336,1,100
208,128,24895,2,8,B|96:128,1,100
160,48,25344,2,8,B|48:48,1,100
256,48,25794,5,0
352,80,25944,1,0
416,160,26094,1,0
448,256,26244,1,0
352,256,26394,5,2
256,256,26544,1,2
64,192,26844,1,2
160,192,26994,1,2
352,144,27294,1,2
256,144,27444,1,2
64,64,27744,1,2
160,64,27894,1,2
416,48,28194,6,10,B|448:80|448:144,1,100
352,160,28494,2,10,B|320:128|320:64,1,100
48,64,33593,5,0
448,112,34193,1,0
48,176,34793,1,0
448,224,35392,1,0
48,288,35992,5,0
192,144,36292,1,0
256,336,36592,1,0
320,144,36892,1,0
464,288,37192,5,0
464,288,37342,1,0
416,208,37492,1,0
416,208,37642,1,0
320,160,37792,5,8
320,160,37867,1,8
320,160,37942,1,8
320,160,38017,1,8
320,160,38092,1,8
320,160,38167,1,8
320,160,38242,1,8
320,160,38317,1,8
320,160,38392,1,8
256,48,38692,6,2,B|144:48,1,100
48,48,38992,1,0
48,96,39067,1,0
48,144,39142,1,0
144,144,39292,2,2,B|256:144,1,100
352,144,39592,2,0,B|384:96|448:96,1,100,0|2
352,144,39892,2,0,B|400:176|400:240,1,100,0|2
352,144,40191,2,0,B|320:192|256:192,1,100,0|2
352,144,40491,2,0,B|304:112|304:48,1,100,0|2
208,48,40791,6,0,B|96:48|96:192,1,200
96,183,41241,1,2
128,272,41391,2,0,B|160:240|224:240,1,100,0|2
291,240,41691,2,0,B|352:240|384:272,1,100,0|2
432,192,41991,5,0
432,144,42066,1,0
416,96,42141,1,0
384,48,42216,1,0
336,48,42291,1,0
288,64,42366,1,0
240,96,42441,1,0
224,144,42516,1,0
256,192,42591,5,0
288,240,42666,1,0
272,288,42741,1,0
224,320,42816,1,0
176,336,42891,1,0
128,336,42966,1,0
96,288,43041,1,0
80,240,43116,1,0
80,192,43191,1,0
80,96,43341,6,2,B|80:48|64:32|0:32,2,100
176,96,43791,1,0
224,96,43866,1,0
272,96,43941,1,0
320,96,44016,1,0
368,96,44091,1,0
368,96,44241,1,2
368,240,44391,6,0,B|368:208|336:176|304:176,1,100,0|2
207,304,44691,2,0,B|239:304|271:272|272:240,1,100,0|2
144,144,44991,2,0,B|144:176|176:208|209:209,1,100,0|2
304,80,45290,2,0,B|272:80|240:112|240:144,1,100,0|2
304,80,45590,5,0
400,80,45740,1,0
448,96,45815,1,0
480,128,45890,1,0
480,224,46040,1,0
383,271,46190,2,0,B|352:240|291:240,1,100,0|2
220,240,46490,2,0,B|160:240|128:272,1,100,0|2
80,192,46790,5,0
80,144,46865,1,0
96,96,46940,1,0
128,64,47015,1,0
176,48,47090,1,0
224,64,47165,1,0
272,96,47240,1,0
288,144,47315,1,0
256,192,47390,5,0
224,240,47465,1,0
240,288,47540,1,0
288,320,47615,1,0
336,336,47690,1,0
384,336,47765,1,0
416,288,47840,1,0
432,240,47915,1,0
432,192,47990,6,0,B|416:112|368:64|272:48,1,200,0|8
208,48,48440,1,0
208,48,48515,1,0
208,48,48590,1,0
176,144,48740,2,0,B|192:224|240:272|336:288,1,200,0|8
480,192,49340,5,0
480,96,49490,2,0,B|368:96,1,100,2|0
368,192,49790,2,0,B|256:192,1,100,2|0
272,96,50089,2,0,B|160:96,1,100,2|0
64,96,50389,6,8,B|64:32|128:32,2,100
64,192,50839,1,8
160,192,50989,2,0,B|272:192,1,100,2|0
256,96,51289,2,0,B|384:96,1,100,2|0
464,96,51589,6,8,B|464:35|400:35,2,100
464,192,52039,1,0
384,240,52189,2,0,B|384:192|304:192,1,100,2|0
208,160,52489,2,0,B|208:112|128:112,1,100,2|0
80,192,52789,6,0,B|96:272|144:320|240:336,1,200,0|8
304,336,53239,1,0
304,336,53314,1,0
304,336,53389,1,0
336,240,53539,2,0,B|320:160|272:112|176:96,1,200,0|8
32,192,54139,5,0
32,288,54289,2,0,B|144:288,1,100,2|0
144,192,54589,2,0,B|256:192,1,100,2|0
240,288,54888,2,0,B|352:288,1,100,2|0
448,288,55188,6,8,B|448:352|384:352,2,100
448,192,55638,1,8
352,192,55788,2,0,B|240:192,1,100,2|0
256,288,56088,2,0,B|128:288,1,100,2|0
48,288,56388,6,8,B|47:348|111:348,2,100
48,192,56838,1,0
128,144,56988,2,0,B|128:192|208:192,1,100,2|0
304,224,57288,2,0,B|304:272|384:272,1,100,2|0
448,192,57588,6,0,B|448:112|400:64|320:64,1,200
224,64,58038,1,0
128,64,58188,2,0,B|96:64|48:96|48:128,2,100
64,192,58788,6,0,B|64:272|112:320|192:320,1,200
288,320,59238,1,0
384,320,59388,2,0,B|416:320|464:288|464:256,2,100
320,128,59988,6,0,B|320:16,1,100,0|2
400,96,60287,2,0,B|400:208,1,100,0|2
208,160,60737,1,0
208,256,60887,1,0
192,128,61187,6,0,B|192:16,1,100,0|2
112,96,61486,2,0,B|112:208,1,100,0|2
304,160,61936,1,0
304,256,62086,1,0
256,192,62387,12,0,63287
256,192,63587,12,0,64187
256,192,64487,5,0
64,128,64787,2,0,B|64:64|144:64,1,100,0|2
224,64,65086,2,0,B|336:64,1,100,0|2
416,96,65386,1,0
416,96,65461,1,0
416,96,65536,1,0
384,192,65686,1,0
384,192,65761,1,0
384,192,65836,1,0
448,256,65986,6,0,B|448:320|368:320,1,100,0|2
288,320,66285,2,0,B|176:320,1,100,0|2
96,288,66585,1,0
96,288,66660,1,0
96,288,66735,1,0
128,192,66885,1,0
128,192,66960,1,0
128,192,67035,1,0
256,192,67186,5,0
256,192,67336,1,0
352,192,67486,1,0
352,192,67636,1,0
352,96,67786,2,0,B|400:96|448:48,1,100,0|2
464,160,68086,2,0,B|464:208|416:256,1,100,0|2
256,192,68386,5,0
256,192,68536,1,0
160,192,68686,1,0
160,192,68836,1,0
160,96,68986,2,0,B|112:96|64:48,1,100,0|2
48,160,69286,2,0,B|48:208|96:256,1,100,0|2
160,320,69586,5,0
208,320,69661,1,0
256,320,69736,1,0
304,320,69811,1,0
352,320,69886,1,0
352,320,70035,1,2
432,256,70185,2,0,B|465:222|465:154,1,100,0|2
465,164,70485,1,0
368,160,70635,1,2
352,64,70785,5,0
304,64,70860,1,0
256,64,70935,1,0
208,64,71010,1,0
160,64,71085,1,0
160,64,71234,1,2
80,128,71384,2,0,B|46:161|46:229,1,100,0|2
46,219,71685,1,0
144,224,71834,1,2
240,224,71985,6,0,B|272:256|336:256,1,100,0|2
432,256,72285,1,0
432,160,72435,1,2
336,144,72585,6,0,B|304:112|240:112,1,100,0|2
144,96,72885,1,0
144,192,73035,1,2
112,288,73185,5,2
208,336,73335,1,2
304,336,73485,1,2
400,288,73635,1,2
400,96,73785,5,2
304,48,73935,1,2
208,48,74085,1,2
112,96,74235,1,2
160,192,74385,5,8
256,192,74535,1,8
352,192,74685,1,8
256,64,74985,5,0
112,320,75209,1,0
416,320,75434,1,0
480,240,75584,5,0
480,240,75659,1,0
480,240,75734,1,0
480,240,75884,1,0
480,240,75959,1,0
480,240,76034,1,0
448,144,76184,1,0
448,144,76259,1,0
448,144,76334,1,0
448,144,76484,1,0
448,144,76559,1,0
448,144,76634,1,0
352,192,76784,5,8
256,192,76934,1,8
160,192,77084,1,8
256,320,77384,5,0
400,64,77608,1,0
96,64,77833,1,0
32,144,77984,5,0
32,144,78059,1,0
32,144,78134,1,0
32,144,78284,1,0
32,144,78359,1,0
32,144,78434,1,0
64,240,78584,1,0
64,240,78659,1,0
64,240,78734,1,0
64,240,78884,1,0
64,240,78959,1,0
64,240,79034,1,0
368,128,83983,5,0
144,128,84432,1,0
256,320,84882,1,0
358,251,86232,6,0,B|323:259|289:225,1,74.9999977648259
153,251,86532,2,0,B|188:259|222:225,1,74.9999977648259
256,160,86832,2,0,B|256:80,1,74.9999977648259
256,85,87282,1,0
368,256,88782,5,0
144,256,89231,1,0
256,64,89681,1,0
358,132,91031,2,0,B|323:124|289:158,1,74.9999977648259
153,132,91331,2,0,B|188:124|222:158,1,74.9999977648259
256,224,91631,2,0,B|256:304,1,74.9999977648259
256,299,92081,1,0
256,192,92381,12,0,93281
96,192,93581,6,0,B|96:80|240:80,1,200
231,80,94031,1,0
416,192,94481,6,0,B|416:304|272:304,1,200
280,303,95080,1,0
256,352,95380,1,0
256,352,95530,1,0
256,352,95680,1,0
256,192,95980,5,0
256,32,96280,1,0
256,32,96430,1,0
256,32,96580,1,0
448,96,96880,2,0,B|496:192|448:288,1,200
447,288,97330,1,0
447,288,97480,1,0
256,192,97780,5,0
256,192,97930,1,0
256,192,98080,1,0
64,95,98380,6,0,B|16:192|64:288,1,200
64,288,98830,1,0
160,320,99280,6,0,B|256:368|352:320,1,200
352,320,99880,1,0
352,320,100179,1,0
352,320,100329,1,0
352,320,100479,1,0
256,192,100779,1,0
352,64,101079,6,0,B|255:15|159:63,1,200
160,64,101679,1,0
256,192,101979,12,0,102879
