osu file format v6

[General]
AudioFilename: CandyBoy.mp3
AudioLeadIn: 3000
PreviewTime: -1
Countdown: 1
SampleSet: Soft
StackLeniency: 0.7
Mode: 0
LetterboxInBreaks: 1

[Editor]
DistanceSpacing: 0.800000011920929
BeatDivisor: 4
GridSize: 32

[Metadata]
Title:CandyBoy
Artist:MEILIN
Creator:freefish
Version:Hard
Source:
Tags:

[Difficulty]
HPDrainRate:5
CircleSize:5
OverallDifficulty:7
SliderMultiplier:1.7
SliderTickRate:0.5

[Events]
//Background and Video events
0,0,"Candy Boy.jpg"
//Break Periods
2,70848,77436
2,121768,139196
2,147606,186461
//Storyboard Layer 0 (Background)
//Storyboard Layer 1 (Fail)
//Storyboard Layer 2 (Pass)
//Storyboard Layer 3 (Foreground)
//Storyboard Sound Samples
//Background Colour Transformations
3,100,255,128,255

[TimingPoints]
192,504.159314343332,4,2,0,73,1,0

[HitObjects]
32,32,696,1,0
96,64,948,1,0
32,96,1200,1,0
96,128,1452,1,0
96,160,1578,1,0
32,160,1830,1,0
32,192,1956,1,0
160,32,2586,5,0
224,64,2838,1,0
160,96,3090,1,0
224,128,3342,1,0
224,160,3469,1,0
160,320,3847,1,0
224,320,4099,1,0
288,32,4603,5,0
352,64,4855,1,0
288,96,5107,1,0
352,128,5359,1,0
352,160,5485,1,0
288,192,5737,1,0
288,224,5863,1,0
256,288,6409,2,0,B|128:288,2,113.333333333333
128,64,7502,5,0
224,64,7880,1,0
320,64,8258,1,0
480,32,8888,5,0
416,64,9140,1,0
480,96,9392,1,0
416,128,9644,1,0
416,160,9771,1,0
480,160,10023,1,0
480,192,10149,1,0
352,32,10527,5,0
288,64,10779,1,0
352,96,11031,1,0
352,128,11157,1,0
352,160,11283,1,0
288,160,11661,1,0
352,224,12039,2,0,B|192:224,2,127.5
256,192,13804,12,0,17711
160,160,18719,5,0
192,160,18845,1,0
224,160,18971,1,0
256,160,19097,1,0
288,160,19224,1,0
256,192,19854,12,0,24517
128,160,25273,5,0
192,160,25526,1,0
256,160,25778,1,0
320,160,26030,1,0
192,256,26660,1,0
224,256,26786,1,0
256,256,26912,1,0
288,256,27038,1,0
320,256,27164,1,0
96,32,27920,5,0
96,96,28172,2,0,B|96:192,2,85
160,32,28929,5,0
160,96,29181,2,0,B|160:192,2,85
224,32,29937,5,0
224,96,30357,2,0,B|224:288,1,170
384,32,31870,5,0
384,96,32122,2,0,B|384:192,2,85
320,32,32878,5,0
320,96,33130,2,0,B|320:192,2,85
256,32,33886,5,0
256,96,34138,2,0,B|256:256,1,141.666666666667
192,224,34810,1,0
192,160,35063,2,0,B|192:0,1,141.666666666667
128,128,35861,5,0
192,128,36113,1,0
192,192,36365,1,0
256,192,36617,1,0
320,128,36869,5,0
384,128,37121,1,0
448,128,37373,1,0
416,288,37625,1,0
96,288,38129,1,0
96,64,38634,1,0
416,64,39138,1,0
224,128,39516,6,0,B|224:224,2,85
288,128,40272,2,0,B|288:224,2,85
256,192,40776,12,0,42289
256,192,42541,5,0
256,192,42919,1,0
64,64,43297,5,0
192,64,43801,1,0
320,64,44305,1,0
128,160,44810,1,0
160,160,44936,1,0
192,160,45062,1,0
288,160,45440,6,0,B|288:224,1,42.5
384,160,45818,1,0
384,224,46070,1,0
288,256,46448,1,0
256,256,46574,1,0
224,256,46700,1,0
192,256,46826,1,0
160,256,46952,1,0
256,192,47330,12,0,50481
128,96,51112,5,0
160,96,51238,1,0
192,96,51364,1,0
224,96,51490,1,0
256,96,51616,1,0
352,96,52246,6,0,B|448:96,2,85
64,64,53254,5,0
96,64,53380,1,0
128,64,53506,1,0
192,64,53758,1,0
256,64,54011,1,0
320,64,54263,1,0
352,64,54389,1,0
384,64,54515,1,0
96,128,54893,6,0,B|416:128,1,297.5
96,192,56153,5,0
128,192,56279,1,0
160,192,56405,1,0
224,192,56657,1,0
288,192,56909,1,0
352,192,57162,1,0
384,192,57288,1,0
416,192,57414,1,0
96,256,57792,6,0,B|448:256,1,297.5
416,64,59178,2,0,B|416:160,2,85
352,64,60060,6,0,B|352:128,1,42.5
352,192,60565,1,0
352,224,60691,1,0
352,256,60817,1,0
64,64,61321,5,0
64,96,61447,1,0
64,128,61573,1,0
64,192,61825,1,0
64,256,62077,1,0
64,320,62329,1,0
64,352,62455,1,0
64,384,62581,1,0
128,64,62959,6,0,B|128:224|128:192,3,127.5
128,256,64472,1,0
128,320,64724,1,0
128,320,64850,1,0
192,64,65228,6,0,B|192:224,2,170
256,64,66614,1,0
256,64,66867,1,0
256,128,67119,1,0
256,192,67371,1,0
256,224,67497,1,0
256,256,67623,1,0
320,64,68001,5,0
320,128,68253,1,0
320,256,68505,6,0,B|320:352,4,85
256,192,69892,12,0,70648
0,96,78336,5,0
64,96,78714,1,0
128,96,79092,1,0
0,160,79471,5,0
64,160,79723,2,0,B|224:160,1,127.5
0,224,80479,5,0
64,224,80731,2,0,B|128:224|96:224,1,42.5
192,224,81361,1,0
448,224,81739,5,0
384,224,81991,2,0,B|224:224,1,127.5
224,224,83126,1,0
160,224,83378,1,0
160,160,83630,1,0
192,160,83756,1,0
224,160,83882,1,0
288,160,84134,5,0
320,160,84260,1,0
352,160,84386,1,0
192,96,84638,5,0
224,96,84764,1,0
256,96,84890,1,0
288,96,85016,1,0
320,96,85142,1,0
416,96,85520,5,0
480,96,85899,1,0
480,160,86151,2,0,B|480:256,1,85
448,160,86655,2,0,B|384:256,1,85
320,224,87285,5,0
256,224,87663,1,0
192,224,88041,1,0
256,160,88419,2,0,B|256:64,2,85
192,160,89302,2,0,B|96:160,2,85
256,160,90058,5,0
256,224,90436,2,0,B|256:320,1,85
320,320,91066,5,0
320,256,91444,2,0,B|320:160,1,85
256,192,91948,12,0,93965
224,32,94217,5,0
416,160,94595,1,0
224,352,94973,1,0
32,192,95352,1,0
64,192,95478,1,0
256,192,95730,12,0,96738
160,192,96990,6,0,B|320:192|288:192,2,127.5
64,64,97998,5,0
128,64,98250,1,0
192,64,98503,1,0
256,64,98755,1,0
96,128,99007,5,0
128,128,99133,1,0
160,128,99259,1,0
192,128,99385,1,0
224,128,99511,1,0
224,192,100519,1,0
256,192,101275,12,0,102410
256,192,102788,12,0,103922
96,96,104174,5,0
160,96,104552,1,0
160,96,104679,1,0
160,96,104805,1,0
224,96,105057,5,0
288,96,105309,1,0
288,96,105435,1,0
288,96,105561,1,0
352,96,105813,5,0
352,160,106065,2,0,B|352:320|352:288,2,127.5
288,160,107199,5,0
160,160,107830,1,0
160,288,108460,1,0
288,288,109090,1,0
384,288,109468,5,0
384,224,109846,1,0
384,160,110224,1,0
384,160,110350,1,0
384,160,110476,1,0
384,96,110854,1,0
384,96,110981,1,0
384,96,111107,1,0
96,128,111611,5,0
96,128,111989,2,0,B|192:64,1,85
96,160,112619,2,0,B|288:96,2,255
32,160,114510,5,0
32,128,114636,1,0
32,96,114762,1,0
32,64,114888,1,0
32,32,115014,1,0
128,32,115392,5,0
192,32,115770,1,0
256,32,116148,1,0
320,32,116526,1,0
288,96,116904,1,0
224,96,117283,1,0
160,96,117661,1,0
96,160,118039,5,0
192,160,118543,1,0
288,160,119047,1,0
288,224,119425,2,0,B|160:224,1,85
128,224,120055,1,0
128,224,120181,1,0
128,224,120307,1,0
256,192,120686,12,0,121568
96,64,140096,5,0
96,160,140474,5,0
96,256,140852,5,0
96,352,141230,5,0
160,352,141734,5,0
160,320,141860,1,0
160,288,141986,2,0,B|160:64,1,212.5
160,64,143247,1,0
256,64,143751,5,0
256,160,144129,5,0
256,256,144507,5,0
256,352,144885,5,0
352,320,145263,5,0
352,192,145641,5,0
352,96,146020,5,0
416,96,146146,6,0,B|416:320,2,212.5
