osu file format v9

[General]
AudioFilename: KAITOMEIKO.mp3
AudioLeadIn: 1000
PreviewTime: 53817
Countdown: 0
SampleSet: Soft
StackLeniency: 0.7
Mode: 0
LetterboxInBreaks: 1

[Editor]
DistanceSpacing: 1
BeatDivisor: 4
GridSize: 4

[Metadata]
Title:A Whole New World
Artist:MEIKO & KAITO
Creator:val0108
Version:Hard
Source:Vocaloid
Tags:konkiP Disney Aladdin

[Difficulty]
HPDrainRate:6
CircleSize:4
OverallDifficulty:6
ApproachRate:7
SliderMultiplier:1.7
SliderTickRate:1

[Events]
//Background and Video events
0,0,"BG.jpg"
//Break Periods
//Storyboard Layer 0 (Background)
//Storyboard Layer 1 (Fail)
//Storyboard Layer 2 (Pass)
//Storyboard Layer 3 (Foreground)
//Storyboard Sound Samples
//Background Colour Transformations
3,100,163,162,255

[TimingPoints]
1046,481.927710843374,4,2,1,30,1,0
26106,-200,4,2,1,30,0,0
27552,-100,4,2,1,30,0,0
29961,-200,4,2,1,30,0,0
31889,-100,4,2,1,30,0,0
39600,-100,4,2,1,40,0,1
43455,-200,4,2,1,40,0,1
44660,-100,4,2,1,40,0,1
51166,-100,4,2,1,30,0,0
55021,-100,4,2,1,40,0,1
59600,-200,4,2,1,40,0,1
60805,-100,4,2,1,40,0,1
66588,-200,4,2,1,30,0,0
70443,-100,4,2,1,5,0,0
72009,-100,4,2,1,10,0,0
72612,-100,4,2,1,20,0,0
73094,-100,4,2,1,30,0,0
73576,-100,4,2,1,30,0,0
74299,-100,4,2,1,30,0,0
80082,-200,4,2,1,30,0,0
81527,-100,4,2,1,30,0,0
86106,-100,4,2,1,30,0,0
89720,-100,4,2,1,40,0,1
101286,-100,4,2,1,30,0,0
107070,-100,4,2,1,40,0,1
111166,-200,4,2,1,40,0,1
111648,-100,4,2,1,40,0,1
113576,-200,4,2,1,40,0,1
114539,-100,4,2,1,40,0,1
116708,-100,4,2,1,40,0,0
118636,-200,4,2,1,40,0,0
123094,-100,4,2,1,30,0,0
124419,-200,4,2,1,30,0,0
124901,-100,4,2,1,30,0,0
126347,-200,4,2,1,30,0,0
126829,-100,4,2,1,30,0,0
128274,-200,4,2,1,30,0,0
128756,-100,4,2,1,30,0,0
130202,-200,4,2,1,30,0,0
130684,-100,4,2,1,30,0,0
132130,-200,4,2,1,30,0,0
132612,-100,4,2,1,30,0,0
134058,-200,4,2,1,30,0,0
135237,923.076923076923,4,2,1,30,1,0
137177,923.076923076923,4,2,1,30,1,0
143407,-200,4,2,1,30,0,0

[Colours]
Combo1 : 128,0,255
Combo2 : 255,6,6
Combo3 : 34,34,251
Combo4 : 128,0,128

[HitObjects]
192,328,1046,1,0
120,288,1286,1,0
120,200,1527,1,0
192,248,1768,2,0,B|280:184|272:80|192:8,1,255,2|0
64,112,2973,5,0
152,128,3214,1,0
240,120,3455,1,0
328,128,3696,1,2
392,176,3937,2,0,B|448:208|480:240,1,85
394,357,4419,2,0,B|432:352|464:312,1,85,0|2
384,284,4901,38,0,B|264:332|104:276,1,255,0|2
256,168,6106,1,0
320,224,6347,1,0
188,224,6588,1,0
164,144,6829,2,0,B|180:90|208:45|312:45|333:96|356:168,1,255,0|2
339,224,7792,2,0,B|259:252|163:220,1,170
56,104,8756,6,0,B|80:176|176:224,1,170
55,339,9479,2,0,B|79:268|172:222,1,170,2|0
216,296,10202,2,0,B|258:263|258:175|206:147,1,170
156,80,10925,37,2
240,64,11166,1,0
304,120,11407,1,0
368,176,11648,2,0,B|412:188|464:176,1,85,2|0
368,272,12130,2,0,B|322:266|272:272,1,85,2|0
160,224,12612,6,0,B|256:184|256:80,1,170,2|0
351,224,13335,2,0,B|255:184|255:80,1,170,2|0
180,56,14058,1,0
96,72,14299,1,2
48,144,14539,2,0,B|32:232|72:320|200:352,1,255,0|2
168,256,15503,1,0
168,256,15985,1,0
332,340,16467,38,0,B|326:232|228:176,1,170,2|0
180,340,17190,2,0,B|186:232|284:176,1,170,2|0
320,136,17913,1,0
256,80,18154,1,2
192,136,18395,5,0
320,136,18877,1,2
128,192,19359,1,0
376,192,19841,1,2
128,192,20323,38,0,B|168:272|256:304,1,170,2|0
324,252,21046,2,0,B|328:156|256:64,1,170,2|0
196,60,21768,1,0
200,144,22009,2,0,B|312:120|400:136,1,170,2|0
368,131,22732,1,0
368,131,22973,1,0
440,176,23214,6,0,B|448:232|432:280,1,85,2|0
356,384,23696,2,0,B|348:328|356:288,1,85,2|0
360,216,24178,38,0,B|352:160|256:144|256:240,1,170,2|0
152,216,24901,2,0,B|160:160|256:144|256:240,1,170,2|0
256,320,25624,1,0
256,320,25865,1,2
352,368,26106,6,0,B|366:336|336:307|352:264,1,85,0|2
168,368,26829,2,0,B|153:336|184:307|168:264,1,85,0|2
254,216,27552,1,2
118,127,28033,38,0,B|163:206|257:217,1,170,2|0
391,128,28756,2,0,B|346:206|254:217,1,170,2|0
212,292,29479,1,0
296,292,29720,1,2
136,272,29961,6,0,B|104:224|56:208,1,85,0|2
364,272,30925,2,0,B|396:224|444:208,2,85,0|2|2
280,216,32130,37,0
296,132,32371,1,0
236,72,32612,2,0,B|156:48|60:72,1,170,2|0
100,148,33335,1,0
104,232,33576,1,2
48,299,33817,6,0,B|96:323|144:331,1,85
48,165,34299,2,0,B|96:141|144:133,1,85,2|0
200,272,34780,2,0,B|243:274|288:288,1,85
200,188,35262,2,0,B|243:186|288:172,1,85,2|2
336,232,35744,37,0
408,272,35985,2,0,B|432:232|408:184,1,85,2|0
336,152,36467,2,0,B|288:160|248:208,1,85,2|0
264,280,36949,2,0,B|288:312|360:320,1,85,2|0
336,232,37431,2,0,B|416:216|440:152|440:152|440:88,2,170,2|0|0
256,264,38636,6,0,B|256:160,1,85,2|0
256,179,39118,2,0,B|256:64,1,85,2|2
256,192,39600,12,4,41527
256,40,42250,37,0
256,128,42491,1,0
200,192,42732,2,0,B|200:261|313:261|312:184,1,170,2|0
336,112,43455,2,0,B|364:149|408:176,1,85,0|2
176,112,44178,2,0,B|147:149|104:176,1,85,0|2
256,252,44901,6,0,B|272:196|234:141|260:76,1,170,2|0
184,40,45624,1,0
104,72,45865,1,0
56,140,46106,1,0
60,224,46347,37,2
152,136,46708,1,2
268,84,47070,1,2
244,164,47311,6,0,B|276:268|372:284,2,170,4|0|4
404,48,48515,1,2
464,112,48756,1,2
404,48,48997,1,2
464,112,49238,38,0,B|432:184|328:216,1,170,4|0
280,280,49961,2,0,B|240:360|112:360|64:280,1,255,4|2
64,200,50925,1,2
136,248,51166,6,0,B|200:296|224:192|304:200,2,170,0|2|0
160,168,52371,1,2
232,128,52612,2,0,B|280:104|336:120,1,85
368,184,53094,1,2
368,272,53335,2,0,B|336:320|288:328,1,85,2|0
256,256,53817,37,0
256,256,54058,2,0,B|256:160,1,85,2|0
256,171,54539,2,0,B|256:80,2,85,2|2|4
256,192,55262,12,0,56949
197,255,57672,5,0
197,255,57913,2,0,B|213:183|301:183|317:271,2,170,2|0|2
214,338,59118,1,0
299,338,59359,1,0
214,338,59600,38,0,B|160:320|136:288,1,85
298,338,60323,2,0,B|352:320|376:288,1,85
312,232,61045,1,0
256,168,61286,1,0
192,112,61527,1,0
160,192,61768,5,2
256,280,62130,1,2
352,192,62491,1,2
256,192,62732,38,0,B|200:104|104:104,2,170,4|0|4
320,248,63937,1,2
392,200,64178,1,0
368,120,64419,1,2
280,112,64660,2,0,B|296:64|344:32|400:40,1,127.5,4|0
416,40,65142,1,2
440,120,65383,2,0,B|376:128|336:176|336:248,1,170,4|0
400,288,66106,1,0
344,352,66347,1,2
280,288,66588,6,0,B|176:288,1,85,2|2
40,216,67552,2,0,B|128:216,1,85,2|2
272,128,68515,2,0,B|176:128,1,85,2|0
40,40,69479,2,0,B|128:40,2,85,2|0|2
32,128,70684,38,0,B|56:176|112:216,1,85,2|0
31,259,71166,2,0,B|55:212|84:194,1,85,2|0
83,194,71648,1,2
83,194,71889,1,0
136,128,72130,6,0,B|184:176|264:200,1,127.5,4|0
136,258,72612,2,0,B|183:210|244:193,1,127.5,4|0
304,120,73094,38,0,B|368:176|432:192,1,127.5,4|0
282,294,73576,2,0,B|332:227|412:186,1,170,4|0
432,80,74299,6,0,B|312:104|248:104,1,170,4|2
278,187,75021,2,0,B|216:192|160:128|182:51,1,170
92,84,75744,2,0,B|-20:84,1,85,2|0
24,168,76226,2,0,B|24:320|200:360,2,255,2|2|2
88,104,77913,1,0
104,184,78154,38,4,B|168:240|256:256,1,170,2|0
407,184,78877,2,4,B|343:239|255:255,1,170,2|0
256,168,79600,1,2
256,80,79841,1,0
368,136,80082,6,0,B|328:152|272:160,1,85,2|0
256,240,80805,1,0
144,136,81045,2,0,B|184:152|240:160,1,85,2|2
256,240,81768,1,0
168,320,82009,38,0,B|216:288|296:352|336:320,1,170,2|0
360,240,82732,2,0,B|344:192|344:144,1,85,2|0
404,44,83214,2,0,B|420:84|420:140,1,85
472,196,83696,1,0
432,272,83937,5,2
432,272,84178,1,0
376,336,84419,1,2
376,336,84660,1,0
288,336,84901,2,0,B|232:320|200:272,1,85,2|0
144,336,85383,2,0,B|104:296|88:248,2,85,2|2|0
217,293,86106,38,0,B|240:248|281:221,1,85,2|0
352,200,86588,2,0,B|328:160|288:144,1,85,2|0
208,120,87070,2,0,B|216:64|264:32,1,85,2|0
332,44,87552,2,0,B|396:44|436:96|436:160,2,170,2|2|2
256,96,88756,6,0,B|256:192,1,85,2|0
256,181,89238,2,0,B|288:240|200:296|264:352,1,170,2|4
256,192,89961,12,2,91648
112,120,92371,37,0
200,128,92612,2,0,B|256:152|296:144,1,85,2|0
280,232,93094,2,0,B|224:232|184:256,1,85,0|0
112,264,93576,2,0,B|64:240|64:136|112:120,1,170,2|0
160,192,94299,2,0,B|336:192,1,170,0|2
384,128,95021,1,0
304,104,95262,2,0,B|323:74|324:40|294:6|255:-3|216:6|186:35|177:74|208:112,1,255,2|0
256,168,96226,1,0
176,200,96467,5,2
256,304,96829,1,2
328,200,97190,1,2
352,280,97431,38,0,B|432:256|456:184|440:112,2,170,4|0|4
312,360,98636,1,2
256,296,98877,1,2
200,360,99118,1,2
160,280,99359,2,0,B|80:256|56:184|72:112,1,170,4|0
67,152,100082,2,0,B|144:184|248:176,1,170,4|0
320,176,100805,1,2
408,176,101046,1,2
496,176,101286,5,0
344,96,101768,1,2
176,96,102250,1,0
24,176,102732,1,2
144,296,103214,38,0,B|192:272|208:208,1,85,2|0
368,296,103696,2,0,B|320:272|304:208,1,85,2|0
256,168,104178,2,0,B|256:80,2,85
256,256,104901,2,0,B|288:320|344:344|432:344,1,170,2|0
440,272,105624,5,0
424,192,105865,1,0
336,208,106106,2,0,B|276:192|208:140,2,127.5,0|2|0
256,192,107070,12,2,108997
176,96,109479,38,0,B|212:126|232:176,1,85
312,184,109961,1,2
344,304,110323,1,2
216,328,110684,1,2
144,288,110925,1,0
144,288,111166,2,0,B|104:272|72:216,1,85,2|0
81,231,111889,22,0,B|151:207|209:135,2,127.5,2|2|2
56,152,112853,1,4
64,64,113094,1,0
144,32,113335,1,2
208,88,113576,2,0,B|256:120|296:136,2,85,4|2|0
296,56,114780,6,0,B|288:184|344:256,1,170,4|0
156,254,115503,2,0,B|224:224|322:221,1,170,4|0
404,243,116226,1,2
356,311,116467,1,2
192,352,116708,38,0,B|272:312|368:312,1,170,0|2
192,264,117672,2,0,B|288:232|376:232,1,170,0|2
226,170,118636,6,0,B|264:157|314:154,1,85,0|2
256,88,119600,2,0,B|304:80|352:80,1,85,0|2
340,80,120323,1,0
256,192,120564,12,2,122491
80,152,123214,21,0
80,152,123455,2,0,B|120:200|152:208,1,85,2|0
216,152,123937,2,0,B|256:128|307:153,1,85,0|0
368,200,124419,2,0,B|416:216|464:200,1,85,0|2
451,118,125142,37,0
451,118,125383,2,0,B|416:88|352:88,1,85,2|0
304,144,125865,2,0,B|256:160|208:140,1,85,0|0
168,80,126347,2,0,B|120:72|80:80,1,85,0|2
83,164,127070,5,0
40,240,127311,2,0,B|72:272|120:280,1,85,2|0
192,240,127792,2,0,B|208:288|192:328,1,85,0|0
279,323,128274,2,0,B|327:336|375:325,1,85,0|2
328,248,128997,37,0
256,200,129238,2,0,B|288:168|336:160,1,85,2|0
416,152,129720,2,2,B|432:104|416:64,1,85,0|0
332,68,130202,2,0,B|247:68,1,85,0|2
160,64,130925,5,0
214,131,131166,2,0,B|272:152|336:160|392:152,1,170,2|0
424,150,131768,2,0,B|431:203|418:269,1,85,2|0
416,280,132130,2,0,B|416:328|395:373,1,85,0|2
312,296,132853,37,0
224,296,133094,2,0,B|168:304|104:288,1,85,2|0
56,296,133576,2,0,B|40:248|56:200,1,85,2|0
136,216,134058,2,0,B|160:176|200:152|256:144,1,127.5,0|2
256,192,135237,12,0,137177
256,192,137638,12,6,143638
