osu file format v14

[General]
AudioFilename: REDSHiFT Vocaloid Project - Inikah Cinta.mp3
AudioLeadIn: 0
PreviewTime: 109617
Countdown: 0
SampleSet: Soft
StackLeniency: 0.7
Mode: 3
LetterboxInBreaks: 0
SpecialStyle: 0
WidescreenStoryboard: 0

[Editor]
Bookmarks: 49851
DistanceSpacing: 0.5
BeatDivisor: 4
GridSize: 8
TimelineZoom: 1.6

[Metadata]
Title:Inikah Cinta (REDSHiFT Remix)
TitleUnicode:Inikah Cinta (REDSHiFT Remix)
Artist:ME
ArtistUnicode:ME
Creator:[ A v a l o n ]
Version:Hard
Source:
Tags:Is this Love Hatsune Miku feat. Megurine Luka 初音ミク 巡音ルカ Vocaloid Bahasa Indonesia crash rikuu kuroha ai Denny Saba Terbuka under Creative Commons License
BeatmapID:728289
BeatmapSetID:328356

[Difficulty]
HPDrainRate:7.5
CircleSize:4
OverallDifficulty:7.5
ApproachRate:5
SliderMultiplier:1.4
SliderTickRate:1

[Events]
//Background and Video events
0,0,"miku luka redshift.jpg",0,0
//Break Periods
//Storyboard Layer 0 (Background)
//Storyboard Layer 1 (Fail)
//Storyboard Layer 2 (Pass)
//Storyboard Layer 3 (Foreground)
//Storyboard Sound Samples

[TimingPoints]
2508,468.75,4,2,1,45,1,0
2508,-111.111111111111,4,2,1,45,0,0
17508,-100,4,2,1,35,0,0
34383,-100,4,2,1,40,0,1
49383,-100,4,2,1,35,0,0
64383,-100,4,2,1,45,0,0
71883,-100,4,2,1,30,0,0
79383,-100,4,2,1,35,0,0
111258,-100,4,2,1,40,0,1
126258,-100,4,2,1,35,0,0
141258,-111.111111111111,4,2,1,45,0,0
158133,-100,4,2,1,35,0,0
173601,-100,4,2,1,40,0,1
188133,-100,4,2,1,35,0,0
218133,-100,4,2,1,40,0,0

[HitObjects]
192,192,2508,5,4,0:0:0:0:
320,192,2508,1,0,0:0:0:50:VFX1 Hits & Explode 26.wav
448,192,2508,1,0,0:0:0:0:
64,192,2742,1,0,0:0:0:0:
192,192,2976,1,0,0:0:0:0:
448,192,3211,1,0,0:0:0:0:
320,192,3445,1,0,0:0:0:0:
64,192,3679,1,0,0:0:0:0:
192,192,3914,1,0,0:0:0:0:
320,192,4148,1,0,0:0:0:0:
448,192,4383,1,0,0:0:0:0:
192,192,4617,1,0,0:0:0:0:
320,192,4851,1,0,0:0:0:0:
64,192,5086,1,0,0:0:0:0:
192,192,5320,1,0,0:0:0:0:
448,192,5554,1,0,0:0:0:0:
320,192,5789,1,0,0:0:0:0:
192,192,6023,1,0,0:0:0:0:
64,192,6258,1,0,0:0:0:0:
320,192,6492,1,0,0:0:0:0:
448,192,6726,1,0,0:0:0:0:
192,192,6961,1,0,0:0:0:0:
320,192,7195,1,0,0:0:0:0:
64,192,7429,1,0,0:0:0:0:
192,192,7664,1,0,0:0:0:0:
320,192,7898,1,0,0:0:0:0:
448,192,8133,1,0,0:0:0:0:
192,192,8367,1,0,0:0:0:0:
320,192,8601,1,0,0:0:0:0:
64,192,8836,1,0,0:0:0:0:
192,192,9070,1,0,0:0:0:0:
448,192,9304,1,0,0:0:0:0:
320,192,9539,1,0,0:0:0:0:
192,192,9773,1,0,0:0:0:0:
64,192,10008,1,0,0:0:0:0:
320,192,10242,1,0,0:0:0:0:
192,192,10476,1,0,0:0:0:0:
448,192,10711,1,0,0:0:0:0:
320,192,10945,1,0,0:0:0:0:
64,192,11179,1,0,0:0:0:0:
192,192,11414,1,0,0:0:0:0:
320,192,11648,1,0,0:0:0:0:
448,192,11883,1,0,0:0:0:0:
192,192,12117,1,0,0:0:0:0:
320,192,12351,1,0,0:0:0:0:
64,192,12586,1,0,0:0:0:0:
192,192,12820,1,0,0:0:0:0:
320,192,13054,1,0,0:0:0:0:
448,192,13289,1,0,0:0:0:0:
64,192,13523,1,0,0:0:0:0:
320,192,13758,128,0,15633:0:0:0:0:
192,192,13758,1,0,0:0:0:0:
64,192,13992,1,0,0:0:0:0:
448,192,14226,1,0,0:0:0:0:
192,192,14461,1,0,0:0:0:0:
448,192,14695,1,0,0:0:0:0:
64,192,14929,1,0,0:0:0:0:
192,192,15164,1,0,0:0:0:0:
448,192,15398,1,0,0:0:0:0:
64,192,15633,128,0,17508:0:0:0:0:
192,192,15633,1,0,0:0:0:0:
448,192,15867,1,0,0:0:0:0:
320,192,16101,1,0,0:0:0:0:
192,192,16336,1,0,0:0:0:0:
320,192,16570,1,0,0:0:0:0:
448,192,16804,1,0,0:0:0:0:
320,192,17039,1,0,0:0:0:0:
192,192,17273,1,0,0:0:0:0:
320,192,17508,1,0,0:0:0:40:VFX1 Hits & Explode 26.wav
448,192,17508,1,4,0:0:0:0:
192,192,17859,1,0,0:0:0:0:
448,192,17976,1,8,0:0:0:0:
320,192,17976,1,0,0:0:0:0:
64,192,18211,1,0,0:0:0:0:
320,192,18445,1,0,0:0:0:0:
448,192,18445,1,8,0:0:0:0:
64,192,18562,1,0,0:0:0:0:
192,192,18914,1,0,0:0:0:0:
448,192,18914,1,8,0:0:0:0:
64,192,19148,1,0,0:0:0:0:
192,192,19383,1,0,0:0:0:0:
320,192,19383,1,8,0:0:0:0:
448,192,19734,1,0,0:0:0:0:
192,192,19851,1,8,0:0:0:0:
64,192,19851,1,0,0:0:0:0:
448,192,20086,1,0,0:0:0:0:
64,192,20320,1,0,0:0:0:0:
192,192,20320,1,8,0:0:0:0:
320,192,20437,1,0,0:0:0:0:
192,192,20789,1,0,0:0:0:0:
448,192,20789,1,8,0:0:0:0:
64,192,21023,1,0,0:0:0:0:
320,192,21258,1,0,0:0:0:0:
448,192,21258,1,8,0:0:0:0:
192,192,21609,1,0,0:0:0:0:
320,192,21726,1,0,0:0:0:0:
448,192,21726,1,8,0:0:0:0:
64,192,21961,1,0,0:0:0:0:
320,192,22195,1,0,0:0:0:0:
448,192,22195,1,8,0:0:0:0:
64,192,22312,1,0,0:0:0:0:
192,192,22664,1,0,0:0:0:0:
448,192,22664,1,8,0:0:0:0:
320,192,22898,1,0,0:0:0:0:
192,192,23133,1,0,0:0:0:0:
64,192,23133,1,8,0:0:0:0:
448,192,23484,1,0,0:0:0:0:
192,192,23601,1,0,0:0:0:0:
64,192,23601,1,8,0:0:0:0:
448,192,23836,1,0,0:0:0:0:
192,192,24070,1,0,0:0:0:0:
64,192,24070,1,8,0:0:0:0:
320,192,24187,1,0,0:0:0:0:
64,192,24539,1,0,0:0:0:0:
448,192,24539,1,8,0:0:0:0:
192,192,24773,1,0,0:0:0:0:
448,192,24773,1,8,0:0:0:0:
64,192,25008,1,0,0:0:0:0:
320,192,25008,1,8,0:0:0:0:
192,192,25242,1,0,0:0:0:40:hat.wav
64,192,25359,1,0,0:0:0:0:
320,192,25476,1,0,0:0:0:0:
448,192,25476,1,8,0:0:0:0:
64,192,25711,1,0,0:0:0:40:hat.wav
192,192,25828,1,0,0:0:0:0:
448,192,25945,1,0,0:0:0:0:
320,192,25945,1,0,0:0:0:40:Burst clap.wav
64,192,26062,1,0,0:0:0:0:
192,192,26297,1,0,0:0:0:0:
320,192,26297,1,0,0:0:0:40:Burst clap.wav
448,192,26414,1,8,0:0:0:0:
64,192,26414,1,0,0:0:0:0:
320,192,26648,1,0,0:0:0:40:Burst clap.wav
192,192,26648,1,0,0:0:0:40:hat.wav
64,192,26883,1,0,0:0:0:0:
448,192,26883,1,0,0:0:0:40:Burst clap.wav
320,192,27117,1,0,0:0:0:40:hat.wav
448,192,27234,1,0,0:0:0:0:
192,192,27351,1,8,0:0:0:0:
64,192,27351,1,0,0:0:0:0:
448,192,27586,1,0,0:0:0:40:hat.wav
320,192,27703,1,0,0:0:0:0:
192,192,27820,1,0,0:0:0:40:Burst clap.wav
64,192,27820,1,0,0:0:0:0:
448,192,27937,1,0,0:0:0:0:
320,192,28172,1,0,0:0:0:40:Burst clap.wav
192,192,28172,1,0,0:0:0:0:
448,192,28289,1,8,0:0:0:0:
64,192,28289,1,0,0:0:0:0:
320,192,28523,1,0,0:0:0:40:Burst clap.wav
192,192,28640,1,0,0:0:0:40:Burst clap.wav
64,192,28758,1,8,0:0:0:0:
448,192,28758,1,0,0:0:0:0:
320,192,28992,1,8,0:0:0:0:
192,192,28992,1,0,0:0:0:0:
448,192,29226,1,8,0:0:0:0:
64,192,29226,1,0,0:0:0:0:
64,192,29461,1,0,0:0:0:0:
320,192,29461,1,8,0:0:0:0:
192,192,29695,1,0,0:0:0:0:
448,192,29695,1,8,0:0:0:0:
64,192,29929,1,0,0:0:0:0:
448,192,29929,1,8,0:0:0:0:
320,192,30164,1,8,0:0:0:0:
64,192,30164,1,0,0:0:0:0:
192,192,30398,1,0,0:0:0:0:
448,192,30398,1,8,0:0:0:0:
448,192,30633,1,0,0:0:0:40:Burst clap.wav
320,192,30633,1,0,0:0:0:0:
64,192,30750,1,0,0:0:0:40:Burst clap.wav
320,192,30867,1,0,0:0:0:40:Burst clap.wav
192,192,30984,1,0,0:0:0:40:Burst clap.wav
448,192,31101,1,0,0:0:0:40:Burst clap.wav
64,192,31218,1,0,0:0:0:40:Burst clap.wav
320,192,31336,1,0,0:0:0:40:Burst clap.wav
192,192,31453,1,0,0:0:0:40:Burst clap.wav
448,192,31570,128,0,32508:0:0:0:40:Burst clap.wav
64,192,31570,128,0,32508:0:0:0:0:
192,192,32508,1,0,0:0:0:0:
448,192,33914,128,0,34383:0:0:0:0:
64,192,34383,1,4,0:0:0:0:
192,192,34383,1,0,0:0:0:40:VFX1 Hits & Explode 26.wav
320,192,34383,1,0,0:0:0:0:
64,192,34617,1,0,0:0:0:50:hat.wav
192,192,34734,1,0,0:0:0:0:
320,192,34851,1,0,0:0:0:0:
448,192,34851,1,8,0:0:0:0:
192,192,35086,1,0,0:0:0:50:hat.wav
64,192,35203,1,0,0:0:0:0:
448,192,35320,1,2,0:0:0:0:
192,192,35320,1,0,0:0:0:0:
320,192,35437,1,0,0:0:0:0:
64,192,35554,1,0,0:0:0:50:hat.wav
192,192,35672,1,0,0:0:0:0:
64,192,35789,1,0,0:0:0:0:
320,192,35789,1,8,0:0:0:0:
448,192,36023,1,0,0:0:0:50:hat.wav
192,192,36140,1,0,0:0:0:0:
320,192,36258,1,0,0:0:0:0:
448,192,36258,1,2,0:0:0:0:
192,192,36492,1,0,0:0:0:50:hat.wav
320,192,36609,1,0,0:0:0:0:
448,192,36726,1,8,0:0:0:0:
64,192,36726,1,0,0:0:0:0:
192,192,36961,1,0,0:0:0:50:hat.wav
320,192,37195,1,0,0:0:0:0:
448,192,37195,1,2,0:0:0:0:
64,192,37429,1,0,0:0:0:0:
320,192,37664,1,0,0:0:0:0:
448,192,37664,1,8,0:0:0:0:
192,192,37898,1,0,0:0:0:50:hat.wav
448,192,38133,1,2,0:0:0:0:
320,192,38133,128,0,38601:0:0:0:0:
64,192,38601,128,0,39070:0:0:0:0:
192,192,38601,1,8,0:0:0:0:
448,192,38836,1,0,0:0:0:50:hat.wav
192,192,39070,1,0,0:0:0:0:
320,192,39070,1,2,0:0:0:0:
448,192,39187,1,0,0:0:0:0:
192,192,39304,1,0,0:0:0:50:hat.wav
320,192,39422,1,0,0:0:0:0:
64,192,39539,1,0,0:0:0:0:
448,192,39539,1,8,0:0:0:0:
320,192,39656,1,0,0:0:0:0:
64,192,39773,1,0,0:0:0:50:hat.wav
192,192,39890,1,0,0:0:0:0:
320,192,40008,1,0,0:0:0:0:
448,192,40008,1,2,0:0:0:0:
192,192,40242,1,0,0:0:0:50:hat.wav
448,192,40359,1,0,0:0:0:0:
64,192,40476,1,0,0:0:0:0:
320,192,40476,1,8,0:0:0:0:
192,192,40593,1,0,0:0:0:0:
448,192,40711,1,0,0:0:0:50:hat.wav
192,192,40945,1,2,0:0:0:0:
64,192,40945,1,0,0:0:0:0:
320,192,41062,1,0,0:0:0:0:
192,192,41297,1,0,0:0:0:0:
64,192,41414,1,0,0:0:0:0:
448,192,41414,1,8,0:0:0:0:
192,192,41648,1,0,0:0:0:50:hat.wav
64,192,41883,1,0,0:0:0:0:
320,192,41883,1,2,0:0:0:0:
448,192,42000,1,0,0:0:0:0:
192,192,42117,1,0,0:0:0:50:hat.wav
320,192,42234,1,0,0:0:0:0:
448,192,42351,1,8,0:0:0:0:
64,192,42351,1,0,0:0:0:0:
320,192,42586,1,0,0:0:0:50:hat.wav
192,192,42703,1,0,0:0:0:0:
448,192,42820,1,0,0:0:0:0:
64,192,42820,1,2,0:0:0:0:
320,192,42937,1,0,0:0:0:0:
192,192,43054,1,0,0:0:0:50:hat.wav
64,192,43172,1,0,0:0:0:0:
320,192,43289,1,0,0:0:0:0:
448,192,43289,1,8,0:0:0:0:
64,192,43523,1,0,0:0:0:50:hat.wav
192,192,43640,1,0,0:0:0:0:
320,192,43758,1,2,0:0:0:0:
448,192,43758,1,0,0:0:0:0:
192,192,43992,1,0,0:0:0:50:hat.wav
320,192,44109,1,0,0:0:0:0:
448,192,44226,1,8,0:0:0:0:
64,192,44226,1,0,0:0:0:0:
320,192,44461,1,0,0:0:0:50:hat.wav
192,192,44695,1,2,0:0:0:0:
448,192,44695,1,0,0:0:0:0:
64,192,44929,1,0,0:0:0:50:hat.wav
320,192,45164,1,0,0:0:0:0:
448,192,45164,1,8,0:0:0:0:
192,192,45398,1,0,0:0:0:50:hat.wav
64,192,45633,1,2,0:0:0:0:
448,192,45633,128,0,46101:0:0:0:0:
64,192,46101,128,0,46570:0:0:0:0:
320,192,46101,1,8,0:0:0:0:
448,192,46336,1,0,0:0:0:50:hat.wav
320,192,46570,1,2,0:0:0:0:
192,192,46570,1,0,0:0:0:0:
448,192,46687,1,0,0:0:0:0:
192,192,46804,1,0,0:0:0:50:hat.wav
320,192,46922,1,0,0:0:0:0:
64,192,47039,1,0,0:0:0:0:
448,192,47039,1,8,0:0:0:0:
320,192,47156,1,0,0:0:0:0:
192,192,47273,1,0,0:0:0:50:hat.wav
64,192,47390,1,0,0:0:0:0:
448,192,47508,1,2,0:0:0:0:
320,192,47508,1,0,0:0:0:0:
192,192,47742,1,0,0:0:0:50:hat.wav
320,192,47859,1,0,0:0:0:0:
64,192,47976,1,0,0:0:0:0:
448,192,47976,1,8,0:0:0:0:
192,192,48093,1,0,0:0:0:0:
320,192,48211,1,0,0:0:0:50:hat.wav
448,192,48445,1,2,0:0:0:0:
64,192,48445,1,0,0:0:0:0:
192,192,48562,1,0,0:0:0:0:
320,192,48797,1,0,0:0:0:0:
448,192,48914,1,8,0:0:0:0:
64,192,48914,1,0,0:0:0:0:
192,192,49148,1,0,0:0:0:50:hat.wav
320,192,49383,1,2,0:0:0:0:
64,192,49383,1,4,0:0:0:0:
448,192,49617,1,0,0:0:0:50:hat.wav
320,192,49734,1,0,0:0:0:0:
192,192,49851,1,8,0:0:0:0:
64,192,49851,1,0,0:0:0:0:
448,192,49968,1,0,0:0:0:0:
64,192,50203,1,0,0:0:0:0:
320,192,50320,1,0,0:0:0:0:
448,192,50320,1,2,0:0:0:0:
192,192,50437,1,0,0:0:0:0:
320,192,50672,1,0,0:0:0:0:
448,192,50789,1,8,0:0:0:0:
64,192,50789,1,0,0:0:0:0:
192,192,51023,1,0,0:0:0:50:hat.wav
320,192,51258,1,2,0:0:0:0:
448,192,51258,1,0,0:0:0:0:
192,192,51492,1,0,0:0:0:50:hat.wav
64,192,51609,1,0,0:0:0:0:
320,192,51726,1,0,0:0:0:0:
448,192,51726,1,8,0:0:0:0:
192,192,51843,1,0,0:0:0:0:
448,192,52078,1,0,0:0:0:0:
320,192,52195,1,2,0:0:0:0:
64,192,52195,1,0,0:0:0:0:
448,192,52312,1,0,0:0:0:0:
192,192,52429,1,0,0:0:0:50:hat.wav
320,192,52547,1,0,0:0:0:0:
448,192,52664,1,8,0:0:0:0:
64,192,52664,1,0,0:0:0:0:
320,192,52898,1,0,0:0:0:50:hat.wav
192,192,53133,1,2,0:0:0:0:
64,192,53133,1,0,0:0:0:0:
448,192,53367,1,0,0:0:0:50:hat.wav
320,192,53484,1,0,0:0:0:0:
192,192,53601,1,0,0:0:0:0:
64,192,53601,1,8,0:0:0:0:
448,192,53718,1,0,0:0:0:0:
192,192,53953,1,0,0:0:0:0:
320,192,54070,1,2,0:0:0:0:
64,192,54070,1,0,0:0:0:0:
448,192,54187,1,0,0:0:0:0:
320,192,54304,1,0,0:0:0:50:hat.wav
192,192,54422,1,0,0:0:0:0:
64,192,54539,1,0,0:0:0:0:
448,192,54539,1,8,0:0:0:0:
320,192,54656,1,0,0:0:0:0:
192,192,54773,1,0,0:0:0:50:hat.wav
64,192,55008,1,0,0:0:0:0:
448,192,55008,1,2,0:0:0:0:
320,192,55242,1,0,0:0:0:50:hat.wav
192,192,55359,1,0,0:0:0:0:
64,192,55476,1,0,0:0:0:0:
320,192,55476,1,8,0:0:0:0:
448,192,55593,1,0,0:0:0:0:
192,192,55711,1,0,0:0:0:50:hat.wav
320,192,55828,1,0,0:0:0:0:
64,192,55945,1,0,0:0:0:0:
448,192,55945,1,2,0:0:0:0:
192,192,56062,1,0,0:0:0:0:
448,192,56179,1,0,0:0:0:50:hat.wav
320,192,56297,1,0,0:0:0:0:
64,192,56414,1,8,0:0:0:0:
192,192,56414,1,0,0:0:0:0:
320,192,56648,1,0,0:0:0:50:hat.wav
64,192,56883,1,2,0:0:0:0:
448,192,56883,1,0,0:0:0:0:
192,192,57117,1,0,0:0:0:50:hat.wav
64,192,57234,1,0,0:0:0:0:
320,192,57351,1,0,0:0:0:0:
448,192,57351,1,8,0:0:0:0:
192,192,57468,1,0,0:0:0:0:
320,192,57703,1,0,0:0:0:0:
448,192,57820,1,2,0:0:0:0:
64,192,57820,1,0,0:0:0:0:
192,192,57937,1,0,0:0:0:0:
320,192,58172,1,0,0:0:0:0:
64,192,58289,1,0,0:0:0:0:
448,192,58289,1,8,0:0:0:0:
320,192,58523,1,0,0:0:0:50:hat.wav
192,192,58758,1,2,0:0:0:0:
64,192,58758,1,0,0:0:0:0:
448,192,58992,1,0,0:0:0:50:hat.wav
320,192,59109,1,0,0:0:0:0:
64,192,59226,1,0,0:0:0:0:
192,192,59226,1,8,0:0:0:0:
448,192,59343,1,0,0:0:0:0:
192,192,59578,1,0,0:0:0:0:
64,192,59695,1,2,0:0:0:0:
448,192,59695,1,0,0:0:0:0:
320,192,59812,1,0,0:0:0:0:
192,192,59929,1,0,0:0:0:50:hat.wav
64,192,60047,1,0,0:0:0:0:
448,192,60164,1,8,0:0:0:0:
320,192,60164,1,0,0:0:0:0:
192,192,60398,1,0,0:0:0:50:hat.wav
448,192,60633,1,0,0:0:0:0:
320,192,60633,1,2,0:0:0:0:
64,192,60867,1,0,0:0:0:50:hat.wav
192,192,60984,1,0,0:0:0:0:
448,192,61101,1,8,0:0:0:0:
320,192,61101,1,0,0:0:0:0:
64,192,61218,1,0,0:0:0:0:
320,192,61336,1,0,0:0:0:50:hat.wav
192,192,61453,1,0,0:0:0:0:
64,192,61570,1,0,0:0:0:0:
448,192,61570,1,2,0:0:0:0:
320,192,61687,1,0,0:0:0:0:
192,192,61804,1,0,0:0:0:50:hat.wav
448,192,61922,1,0,0:0:0:0:
64,192,62039,1,0,0:0:0:0:
320,192,62039,1,8,0:0:0:0:
192,192,62156,1,0,0:0:0:0:
448,192,62273,1,0,0:0:0:50:hat.wav
320,192,62390,1,0,0:0:0:0:
64,192,62508,1,0,0:0:0:0:
192,192,62625,1,0,0:0:0:0:
320,192,62742,1,0,0:0:0:0:
448,192,62859,1,0,0:0:0:0:
320,192,62976,1,0,0:0:0:0:
192,192,63093,1,0,0:0:0:0:
64,192,63211,1,0,0:0:0:0:
448,192,63328,1,0,0:0:0:0:
320,192,63445,1,0,0:0:0:0:
192,192,63562,1,0,0:0:0:0:
448,192,63797,1,0,0:0:0:0:
192,192,63914,1,0,0:0:0:0:
320,192,64031,1,0,0:0:0:0:
64,192,64148,1,0,0:0:0:0:
192,192,64265,1,0,0:0:0:0:
320,192,64383,1,0,0:0:0:40:VFX1 Hits & Explode 26.wav
448,192,64383,1,4,0:0:0:0:
64,192,64383,1,0,0:0:0:0:
192,192,64617,1,0,0:0:0:0:
320,192,64851,1,0,0:0:0:0:
64,192,65086,1,0,0:0:0:0:
192,192,65320,1,0,0:0:0:0:
448,192,65554,1,0,0:0:0:0:
320,192,65789,1,0,0:0:0:0:
192,192,66023,1,0,0:0:0:0:
320,192,66258,1,0,0:0:0:0:
64,192,66492,1,0,0:0:0:0:
192,192,66726,1,0,0:0:0:0:
448,192,66961,1,0,0:0:0:0:
320,192,67195,1,0,0:0:0:0:
192,192,67429,1,0,0:0:0:0:
320,192,67664,1,0,0:0:0:0:
448,192,67898,1,0,0:0:0:0:
192,192,68133,1,0,0:0:0:0:
320,192,68367,1,0,0:0:0:0:
64,192,68601,1,0,0:0:0:0:
192,192,68836,1,0,0:0:0:0:
320,192,69070,1,0,0:0:0:0:
192,192,69304,1,0,0:0:0:0:
64,192,69539,1,0,0:0:0:0:
320,192,69773,1,0,0:0:0:0:
192,192,70008,1,0,0:0:0:0:
448,192,70242,1,0,0:0:0:0:
320,192,70476,1,0,0:0:0:0:
192,192,70711,1,0,0:0:0:0:
64,192,70945,1,0,0:0:0:0:
192,192,71179,1,0,0:0:0:0:
320,192,71414,1,0,0:0:0:0:
448,192,71648,1,0,0:0:0:0:
192,192,71883,1,2,0:0:0:0:
64,192,71883,1,0,0:0:0:0:
448,192,72117,1,0,0:0:0:50:hat.wav
192,192,72351,1,2,0:0:0:0:
64,192,72351,1,0,0:0:0:0:
320,192,72586,1,0,0:0:0:50:hat.wav
192,192,72820,1,2,0:0:0:0:
64,192,72820,1,0,0:0:0:0:
320,192,73054,1,0,0:0:0:50:hat.wav
448,192,73289,1,2,0:0:0:0:
64,192,73289,1,0,0:0:0:0:
192,192,73523,1,0,0:0:0:50:hat.wav
320,192,73758,1,0,0:0:0:0:
448,192,73758,1,2,0:0:0:0:
192,192,73992,1,0,0:0:0:50:hat.wav
320,192,74226,1,0,0:0:0:0:
448,192,74226,1,2,0:0:0:0:
64,192,74461,1,0,0:0:0:50:hat.wav
320,192,74695,1,0,0:0:0:0:
448,192,74695,1,2,0:0:0:0:
192,192,74929,1,0,0:0:0:50:hat.wav
448,192,75164,1,0,0:0:0:0:
64,192,75164,1,2,0:0:0:0:
320,192,75398,1,0,0:0:0:50:hat.wav
64,192,75633,1,2,0:0:0:0:
192,192,75633,1,0,0:0:0:0:
448,192,75867,1,0,0:0:0:50:hat.wav
192,192,76101,1,0,0:0:0:0:
64,192,76101,1,2,0:0:0:0:
320,192,76336,1,0,0:0:0:50:hat.wav
192,192,76570,1,0,0:0:0:0:
64,192,76570,1,2,0:0:0:0:
448,192,76804,1,0,0:0:0:50:hat.wav
192,192,77039,1,0,0:0:0:0:
64,192,77039,1,2,0:0:0:0:
448,192,77156,1,0,0:0:0:0:
320,192,77273,1,0,0:0:0:50:hat.wav
64,192,77390,1,0,0:0:0:0:
192,192,77508,1,0,0:0:0:0:
448,192,77625,1,0,0:0:0:0:
320,192,77742,1,0,0:0:0:40:hat.wav
192,192,77859,1,0,0:0:0:0:
64,192,77976,1,0,0:0:0:0:
320,192,78211,1,0,0:0:0:40:hat.wav
64,192,78445,1,0,0:0:0:0:
320,192,78562,1,0,0:0:0:40:hat.wav
448,192,78679,1,0,0:0:0:40:hat.wav
192,192,78797,1,0,0:0:0:40:hat.wav
320,192,78914,1,0,0:0:0:40:hat.wav
64,192,79031,1,0,0:0:0:40:hat.wav
448,192,79148,1,0,0:0:0:40:hat.wav
192,192,79265,1,0,0:0:0:40:hat.wav
448,192,79383,1,2,0:0:0:0:
64,192,79383,1,0,0:0:0:40:VFX1 Hits & Explode 26.wav
320,192,79383,1,4,0:0:0:0:
192,192,79617,1,0,0:0:0:50:hat.wav
64,192,79851,1,0,0:0:0:0:
448,192,79851,1,8,0:0:0:0:
320,192,80086,1,0,0:0:0:50:hat.wav
192,192,80320,1,2,0:0:0:0:
448,192,80320,1,0,0:0:0:0:
64,192,80437,1,0,0:0:0:0:
320,192,80554,1,0,0:0:0:50:hat.wav
192,192,80672,1,0,0:0:0:0:
64,192,80789,1,0,0:0:0:0:
448,192,80789,1,8,0:0:0:0:
320,192,81023,1,0,0:0:0:50:hat.wav
192,192,81258,1,2,0:0:0:0:
448,192,81258,1,0,0:0:0:0:
320,192,81492,1,0,0:0:0:50:hat.wav
448,192,81726,1,8,0:0:0:0:
64,192,81726,1,0,0:0:0:0:
192,192,81843,1,0,0:0:0:0:
320,192,81961,1,0,0:0:0:50:hat.wav
64,192,82195,1,2,0:0:0:0:
448,192,82195,1,0,0:0:0:0:
192,192,82429,1,0,0:0:0:50:hat.wav
320,192,82664,1,0,0:0:0:0:
448,192,82664,1,8,0:0:0:0:
64,192,82781,1,0,0:0:0:0:
320,192,82898,1,0,0:0:0:50:hat.wav
448,192,83133,1,0,0:0:0:0:
64,192,83133,1,2,0:0:0:0:
192,192,83367,1,0,0:0:0:50:hat.wav
320,192,83484,1,0,0:0:0:0:
448,192,83601,1,8,0:0:0:0:
64,192,83601,1,0,0:0:0:0:
320,192,83836,1,0,0:0:0:50:hat.wav
192,192,84070,1,0,0:0:0:0:
64,192,84070,1,2,0:0:0:0:
448,192,84187,1,0,0:0:0:0:
192,192,84304,1,0,0:0:0:50:hat.wav
64,192,84539,1,0,0:0:0:0:
448,192,84539,1,8,0:0:0:0:
320,192,84773,1,0,0:0:0:50:hat.wav
64,192,85008,1,2,0:0:0:0:
448,192,85008,1,0,0:0:0:0:
192,192,85242,1,0,0:0:0:50:hat.wav
64,192,85476,1,0,0:0:0:0:
320,192,85476,1,8,0:0:0:0:
192,192,85711,1,0,0:0:0:50:hat.wav
64,192,85945,1,0,0:0:0:0:
448,192,85945,1,2,0:0:0:0:
320,192,86179,1,0,0:0:0:50:hat.wav
64,192,86414,1,0,0:0:0:0:
448,192,86414,1,8,0:0:0:0:
192,192,86531,1,0,0:0:0:0:
320,192,86648,1,0,0:0:0:50:hat.wav
448,192,86765,1,0,0:0:0:0:
192,192,86883,1,0,0:0:0:0:
64,192,86883,1,2,0:0:0:0:
320,192,87117,1,0,0:0:0:50:hat.wav
64,192,87351,1,8,0:0:0:0:
448,192,87351,1,0,0:0:0:0:
192,192,87586,1,0,0:0:0:50:hat.wav
320,192,87820,1,2,0:0:0:0:
64,192,87820,1,0,0:0:0:0:
448,192,87937,1,0,0:0:0:0:
192,192,88054,1,0,0:0:0:50:hat.wav
320,192,88172,1,0,0:0:0:0:
64,192,88289,1,0,0:0:0:0:
448,192,88289,1,8,0:0:0:0:
192,192,88523,1,0,0:0:0:50:hat.wav
64,192,88758,1,2,0:0:0:0:
448,192,88758,1,0,0:0:0:0:
320,192,88992,1,0,0:0:0:50:hat.wav
448,192,89226,1,8,0:0:0:0:
64,192,89226,1,0,0:0:0:0:
192,192,89343,1,0,0:0:0:0:
320,192,89461,1,0,0:0:0:50:hat.wav
448,192,89695,1,0,0:0:0:0:
64,192,89695,1,2,0:0:0:0:
192,192,89929,1,0,0:0:0:50:hat.wav
448,192,90164,1,8,0:0:0:0:
320,192,90164,1,0,0:0:0:0:
64,192,90281,1,0,0:0:0:0:
320,192,90398,1,0,0:0:0:50:hat.wav
448,192,90633,1,0,0:0:0:0:
192,192,90633,1,2,0:0:0:0:
320,192,90867,1,0,0:0:0:50:hat.wav
448,192,91101,1,8,0:0:0:0:
64,192,91101,1,0,0:0:0:0:
192,192,91336,1,0,0:0:0:50:hat.wav
448,192,91570,1,0,0:0:0:0:
64,192,91570,1,2,0:0:0:0:
320,192,91804,1,0,0:0:0:50:hat.wav
192,192,91922,1,0,0:0:0:0:
64,192,92039,1,0,0:0:0:0:
448,192,92039,1,8,0:0:0:0:
320,192,92156,1,0,0:0:0:0:
192,192,92273,1,0,0:0:0:50:hat.wav
64,192,92390,1,0,0:0:0:0:
320,192,92508,1,0,0:0:0:0:
192,192,92625,1,0,0:0:0:0:
448,192,92742,1,0,0:0:0:50:hat.wav
320,192,92859,1,0,0:0:0:0:
64,192,92976,1,0,0:0:0:0:
192,192,93211,1,0,0:0:0:50:hat.wav
320,192,93445,1,0,0:0:0:0:
448,192,93679,1,0,0:0:0:50:hat.wav
320,192,93914,1,0,0:0:0:0:
64,192,94148,1,0,0:0:0:50:hat.wav
448,192,94383,1,4,0:0:0:0:
192,192,94383,1,0,0:0:0:50:VFX1 Hits & Explode 26.wav
64,192,94500,1,0,0:0:0:0:
320,192,94617,1,0,0:0:0:50:hat.wav
192,192,94734,1,0,0:0:0:0:
448,192,94851,1,8,0:0:0:0:
64,192,94851,1,0,0:0:0:0:
320,192,95086,1,0,0:0:0:50:hat.wav
64,192,95320,1,0,0:0:0:0:
448,192,95320,1,8,0:0:0:0:
192,192,95437,1,0,0:0:0:0:
320,192,95789,1,8,0:0:0:0:
64,192,95789,1,0,0:0:0:0:
448,192,95906,1,0,0:0:0:0:
320,192,96023,1,0,0:0:0:50:hat.wav
192,192,96140,1,0,0:0:0:0:
64,192,96258,1,0,0:0:0:0:
448,192,96258,1,8,0:0:0:0:
320,192,96375,1,0,0:0:0:0:
192,192,96492,1,0,0:0:0:50:hat.wav
64,192,96609,1,0,0:0:0:0:
448,192,96726,1,8,0:0:0:0:
320,192,96726,1,0,0:0:0:0:
192,192,96961,1,0,0:0:0:50:hat.wav
448,192,97195,1,0,0:0:0:0:
64,192,97195,1,8,0:0:0:0:
320,192,97312,1,0,0:0:0:0:
192,192,97664,1,0,0:0:0:0:
448,192,97664,1,8,0:0:0:0:
64,192,97781,1,0,0:0:0:0:
192,192,97898,1,0,0:0:0:50:hat.wav
320,192,98015,1,0,0:0:0:0:
64,192,98133,1,0,0:0:0:0:
448,192,98133,1,8,0:0:0:0:
192,192,98250,1,0,0:0:0:0:
320,192,98367,1,0,0:0:0:50:hat.wav
448,192,98484,1,0,0:0:0:0:
192,192,98601,1,8,0:0:0:0:
64,192,98601,1,0,0:0:0:0:
320,192,98836,1,0,0:0:0:50:hat.wav
64,192,99070,1,0,0:0:0:0:
448,192,99070,1,8,0:0:0:0:
192,192,99187,1,0,0:0:0:0:
448,192,99539,1,8,0:0:0:0:
64,192,99539,1,0,0:0:0:0:
320,192,99773,1,0,0:0:0:50:hat.wav
192,192,99890,1,0,0:0:0:0:
64,192,100008,1,0,0:0:0:0:
448,192,100008,1,8,0:0:0:0:
320,192,100125,1,0,0:0:0:0:
192,192,100242,1,0,0:0:0:50:hat.wav
64,192,100359,1,0,0:0:0:0:
448,192,100476,1,8,0:0:0:0:
320,192,100476,1,0,0:0:0:0:
192,192,100711,1,0,0:0:0:50:hat.wav
448,192,100945,1,0,0:0:0:0:
64,192,100945,1,8,0:0:0:0:
320,192,101062,1,0,0:0:0:0:
192,192,101414,1,0,0:0:0:0:
448,192,101414,1,8,0:0:0:0:
64,192,101648,1,0,0:0:0:50:hat.wav
320,192,101648,1,8,0:0:0:0:
192,192,101883,1,0,0:0:0:0:
448,192,101883,1,8,0:0:0:0:
320,192,102117,1,0,0:0:0:50:hat.wav
192,192,102234,1,0,0:0:0:0:
64,192,102351,1,0,0:0:0:0:
448,192,102351,1,8,0:0:0:0:
320,192,102586,1,0,0:0:0:50:hat.wav
192,192,102820,1,0,0:0:0:40:Burst clap.wav
64,192,102820,1,0,0:0:0:0:
448,192,102937,1,0,0:0:0:0:
192,192,103172,1,0,0:0:0:40:Burst clap.wav
64,192,103172,1,0,0:0:0:0:
320,192,103289,1,8,0:0:0:0:
192,192,103523,1,0,0:0:0:50:hat.wav
448,192,103523,1,0,0:0:0:40:Burst clap.wav
320,192,103758,1,0,0:0:0:40:Burst clap.wav
64,192,103758,1,0,0:0:0:0:
448,192,103992,1,0,0:0:0:50:hat.wav
320,192,104109,1,0,0:0:0:0:
64,192,104226,1,0,0:0:0:0:
192,192,104226,1,8,0:0:0:0:
448,192,104461,1,0,0:0:0:50:hat.wav
192,192,104695,1,0,0:0:0:40:Burst clap.wav
64,192,104695,1,0,0:0:0:0:
320,192,104812,1,0,0:0:0:0:
64,192,105047,1,0,0:0:0:0:
192,192,105047,1,0,0:0:0:40:Burst clap.wav
448,192,105164,1,8,0:0:0:0:
192,192,105398,1,0,0:0:0:40:Burst clap.wav
320,192,105515,1,0,0:0:0:40:Burst clap.wav
448,192,105633,1,8,0:0:0:0:
64,192,105633,1,0,0:0:0:0:
192,192,105867,1,0,0:0:0:0:
320,192,105867,1,8,0:0:0:0:
448,192,106101,1,8,0:0:0:0:
64,192,106101,1,0,0:0:0:0:
64,192,106336,1,0,0:0:0:0:
320,192,106336,1,8,0:0:0:0:
192,192,106570,1,0,0:0:0:0:
448,192,106570,1,8,0:0:0:0:
448,192,106804,1,8,0:0:0:0:
64,192,106804,1,0,0:0:0:0:
64,192,107039,1,0,0:0:0:0:
320,192,107039,1,8,0:0:0:0:
320,192,107273,1,8,0:0:0:0:
192,192,107273,1,0,0:0:0:0:
64,192,107508,1,0,0:0:0:40:Burst clap.wav
448,192,107508,1,0,0:0:0:0:
192,192,107625,1,0,0:0:0:40:Burst clap.wav
320,192,107742,1,0,0:0:0:40:Burst clap.wav
64,192,107859,1,0,0:0:0:40:Burst clap.wav
448,192,107976,1,0,0:0:0:40:Burst clap.wav
192,192,108093,1,0,0:0:0:40:Burst clap.wav
320,192,108211,1,0,0:0:0:40:Burst clap.wav
64,192,108328,1,0,0:0:0:40:Burst clap.wav
448,192,108445,128,0,109383:0:0:0:0:
192,192,108445,128,0,109383:0:0:0:40:Burst clap.wav
64,192,109383,1,0,0:0:0:0:
64,192,110789,128,2,111258:0:0:0:0:
448,192,110789,1,8,0:0:0:0:
320,192,110789,1,0,0:0:0:0:
320,192,111258,1,2,0:0:0:0:
448,192,111258,1,4,0:0:0:0:
192,192,111258,1,0,0:0:0:40:VFX1 Hits & Explode 26.wav
448,192,111726,1,8,0:0:0:0:
64,192,111726,1,0,0:0:0:0:
192,192,111961,1,0,0:0:0:50:hat.wav
320,192,112078,1,0,0:0:0:0:
64,192,112195,1,0,0:0:0:0:
448,192,112195,1,2,0:0:0:0:
192,192,112312,1,0,0:0:0:0:
320,192,112429,1,0,0:0:0:50:hat.wav
448,192,112547,1,0,0:0:0:0:
64,192,112664,1,0,0:0:0:0:
192,192,112664,1,8,0:0:0:0:
448,192,112898,1,0,0:0:0:50:hat.wav
320,192,113015,1,0,0:0:0:0:
64,192,113133,1,0,0:0:0:0:
192,192,113133,1,2,0:0:0:0:
320,192,113367,1,0,0:0:0:50:hat.wav
192,192,113484,1,0,0:0:0:0:
448,192,113601,1,8,0:0:0:0:
64,192,113601,1,0,0:0:0:0:
320,192,113836,1,0,0:0:0:50:hat.wav
192,192,114070,1,0,0:0:0:0:
448,192,114070,1,2,0:0:0:0:
320,192,114304,1,0,0:0:0:50:hat.wav
192,192,114539,1,8,0:0:0:0:
64,192,114539,1,0,0:0:0:0:
448,192,114773,1,0,0:0:0:50:hat.wav
64,192,115008,1,2,0:0:0:0:
192,192,115008,128,0,115476:0:0:0:0:
448,192,115476,128,0,115945:0:0:0:0:
320,192,115476,1,8,0:0:0:0:
64,192,115711,1,0,0:0:0:50:hat.wav
192,192,115945,1,2,0:0:0:0:
320,192,115945,1,0,0:0:0:0:
64,192,116062,1,0,0:0:0:0:
320,192,116179,1,0,0:0:0:50:hat.wav
192,192,116297,1,0,0:0:0:0:
448,192,116414,1,8,0:0:0:0:
64,192,116414,1,0,0:0:0:0:
192,192,116531,1,0,0:0:0:0:
448,192,116648,1,0,0:0:0:50:hat.wav
320,192,116765,1,0,0:0:0:0:
64,192,116883,1,2,0:0:0:0:
192,192,116883,1,0,0:0:0:0:
320,192,117117,1,0,0:0:0:50:hat.wav
192,192,117234,1,0,0:0:0:0:
64,192,117351,1,0,0:0:0:0:
448,192,117351,1,8,0:0:0:0:
320,192,117468,1,0,0:0:0:0:
192,192,117586,1,0,0:0:0:50:hat.wav
64,192,117820,1,2,0:0:0:0:
448,192,117820,1,0,0:0:0:0:
320,192,117937,1,0,0:0:0:0:
192,192,118172,1,0,0:0:0:0:
64,192,118289,1,0,0:0:0:0:
448,192,118289,1,8,0:0:0:0:
320,192,118523,1,0,0:0:0:50:hat.wav
448,192,118758,1,2,0:0:0:0:
192,192,118758,1,0,0:0:0:0:
64,192,118875,1,0,0:0:0:0:
320,192,118992,1,0,0:0:0:50:hat.wav
192,192,119109,1,0,0:0:0:0:
448,192,119226,1,8,0:0:0:0:
64,192,119226,1,0,0:0:0:0:
192,192,119461,1,0,0:0:0:50:hat.wav
320,192,119578,1,0,0:0:0:0:
448,192,119695,1,2,0:0:0:0:
64,192,119695,1,0,0:0:0:0:
192,192,119812,1,0,0:0:0:0:
320,192,119929,1,0,0:0:0:50:hat.wav
448,192,120047,1,0,0:0:0:0:
64,192,120164,1,8,0:0:0:0:
192,192,120164,1,0,0:0:0:0:
320,192,120398,1,0,0:0:0:50:hat.wav
64,192,120515,1,0,0:0:0:0:
448,192,120633,1,2,0:0:0:0:
320,192,120633,1,0,0:0:0:0:
192,192,120867,1,0,0:0:0:50:hat.wav
320,192,120984,1,0,0:0:0:0:
448,192,121101,1,0,0:0:0:0:
64,192,121101,1,8,0:0:0:0:
192,192,121336,1,0,0:0:0:50:hat.wav
320,192,121570,1,0,0:0:0:0:
64,192,121570,1,2,0:0:0:0:
192,192,121804,1,0,0:0:0:50:hat.wav
64,192,122039,1,0,0:0:0:0:
448,192,122039,1,8,0:0:0:0:
320,192,122273,1,0,0:0:0:50:hat.wav
64,192,122508,1,2,0:0:0:0:
448,192,122508,128,0,122976:0:0:0:0:
64,192,122976,128,0,123445:0:0:0:0:
320,192,122976,1,8,0:0:0:0:
192,192,123211,1,0,0:0:0:50:hat.wav
448,192,123445,1,2,0:0:0:0:
320,192,123445,1,0,0:0:0:0:
192,192,123562,1,0,0:0:0:0:
448,192,123679,1,0,0:0:0:50:hat.wav
320,192,123797,1,0,0:0:0:0:
448,192,123914,1,8,0:0:0:0:
64,192,123914,1,0,0:0:0:0:
320,192,124031,1,0,0:0:0:0:
192,192,124148,1,0,0:0:0:50:hat.wav
64,192,124265,1,0,0:0:0:0:
320,192,124383,1,0,0:0:0:0:
192,192,124500,1,0,0:0:0:0:
448,192,124617,1,0,0:0:0:0:
320,192,124734,1,0,0:0:0:0:
64,192,124851,1,0,0:0:0:0:
192,192,124968,1,0,0:0:0:0:
320,192,125086,1,0,0:0:0:0:
448,192,125203,1,0,0:0:0:0:
192,192,125320,1,0,0:0:0:0:
320,192,125437,1,0,0:0:0:0:
64,192,125672,1,0,0:0:0:0:
320,192,125789,1,0,0:0:0:0:
192,192,125906,1,0,0:0:0:0:
448,192,126023,1,0,0:0:0:0:
64,192,126140,1,0,0:0:0:0:
192,192,126258,1,4,0:0:0:0:
320,192,126258,1,2,0:0:0:0:
448,192,126492,1,0,0:0:0:50:hat.wav
320,192,126609,1,0,0:0:0:0:
64,192,126726,1,0,0:0:0:0:
192,192,126726,1,8,0:0:0:0:
448,192,126843,1,0,0:0:0:0:
192,192,127078,1,0,0:0:0:0:
320,192,127195,1,0,0:0:0:0:
448,192,127195,1,2,0:0:0:0:
64,192,127312,1,0,0:0:0:0:
320,192,127429,1,0,0:0:0:50:hat.wav
192,192,127547,1,0,0:0:0:0:
64,192,127664,1,0,0:0:0:0:
448,192,127664,1,8,0:0:0:0:
192,192,127898,1,0,0:0:0:50:hat.wav
320,192,128133,1,2,0:0:0:0:
448,192,128133,1,0,0:0:0:0:
192,192,128367,1,0,0:0:0:50:hat.wav
320,192,128484,1,0,0:0:0:0:
192,192,128601,1,0,0:0:0:0:
448,192,128601,1,8,0:0:0:0:
64,192,128718,1,0,0:0:0:0:
192,192,128836,1,0,0:0:0:0:
320,192,128953,1,0,0:0:0:0:
448,192,129070,1,2,0:0:0:0:
64,192,129070,1,0,0:0:0:0:
192,192,129187,1,0,0:0:0:0:
320,192,129304,1,0,0:0:0:50:hat.wav
448,192,129422,1,0,0:0:0:0:
64,192,129539,1,8,0:0:0:0:
192,192,129539,1,0,0:0:0:0:
320,192,129773,1,0,0:0:0:50:hat.wav
64,192,130008,1,2,0:0:0:0:
192,192,130008,1,0,0:0:0:0:
448,192,130242,1,0,0:0:0:50:hat.wav
320,192,130359,1,0,0:0:0:0:
64,192,130476,1,0,0:0:0:0:
192,192,130476,1,8,0:0:0:0:
448,192,130593,1,0,0:0:0:0:
320,192,130828,1,0,0:0:0:0:
192,192,130945,1,0,0:0:0:0:
64,192,130945,1,2,0:0:0:0:
448,192,131062,1,0,0:0:0:0:
64,192,131179,1,0,0:0:0:50:hat.wav
192,192,131297,1,0,0:0:0:0:
448,192,131414,1,8,0:0:0:0:
320,192,131414,1,0,0:0:0:0:
192,192,131648,1,0,0:0:0:50:hat.wav
320,192,131765,1,0,0:0:0:0:
64,192,131883,1,0,0:0:0:0:
448,192,131883,1,2,0:0:0:0:
320,192,132117,1,0,0:0:0:50:hat.wav
192,192,132234,1,0,0:0:0:0:
64,192,132351,1,8,0:0:0:0:
448,192,132351,1,0,0:0:0:0:
320,192,132468,1,0,0:0:0:0:
192,192,132586,1,0,0:0:0:40:hat.wav
320,192,132703,1,0,0:0:0:0:
448,192,132820,1,0,0:0:0:0:
64,192,132820,1,2,0:0:0:0:
192,192,132937,1,0,0:0:0:0:
64,192,133054,1,0,0:0:0:50:hat.wav
192,192,133172,1,0,0:0:0:0:
320,192,133289,1,0,0:0:0:0:
448,192,133289,1,8,0:0:0:0:
192,192,133523,1,0,0:0:0:50:hat.wav
64,192,133758,1,2,0:0:0:0:
320,192,133758,1,0,0:0:0:0:
448,192,133992,1,0,0:0:0:50:hat.wav
320,192,134109,1,0,0:0:0:0:
64,192,134226,1,0,0:0:0:0:
192,192,134226,1,8,0:0:0:0:
448,192,134343,1,0,0:0:0:0:
192,192,134578,1,0,0:0:0:0:
320,192,134695,1,0,0:0:0:0:
448,192,134695,1,2,0:0:0:0:
64,192,134812,1,0,0:0:0:0:
320,192,134929,1,0,0:0:0:50:hat.wav
192,192,135047,1,0,0:0:0:0:
64,192,135164,1,0,0:0:0:0:
448,192,135164,1,8,0:0:0:0:
192,192,135398,1,0,0:0:0:50:hat.wav
320,192,135515,1,0,0:0:0:0:
64,192,135633,1,2,0:0:0:0:
448,192,135633,1,0,0:0:0:0:
320,192,135867,1,0,0:0:0:50:hat.wav
192,192,135984,1,0,0:0:0:0:
64,192,136101,1,0,0:0:0:0:
448,192,136101,1,8,0:0:0:0:
320,192,136218,1,0,0:0:0:0:
64,192,136336,1,0,0:0:0:50:hat.wav
192,192,136453,1,0,0:0:0:0:
448,192,136570,1,0,0:0:0:0:
320,192,136570,1,2,0:0:0:0:
64,192,136687,1,0,0:0:0:0:
320,192,136804,1,0,0:0:0:50:hat.wav
192,192,136922,1,0,0:0:0:0:
64,192,137039,1,0,0:0:0:0:
448,192,137039,1,8,0:0:0:0:
320,192,137273,1,0,0:0:0:50:hat.wav
192,192,137508,1,0,0:0:0:0:
448,192,137508,1,2,0:0:0:0:
64,192,137742,1,0,0:0:0:0:
448,192,137859,1,0,0:0:0:0:
192,192,137976,1,0,0:0:0:0:
320,192,138093,1,0,0:0:0:0:
448,192,138211,1,0,0:0:0:0:
64,192,138211,1,0,0:0:0:0:
192,192,138328,1,0,0:0:0:0:
320,192,138562,1,0,0:0:0:0:
448,192,138797,1,0,0:0:0:0:
192,192,138914,1,2,0:0:0:0:
64,192,138914,1,0,0:0:0:0:
320,192,139148,1,0,0:0:0:0:
448,192,139383,1,2,0:0:0:0:
64,192,139383,1,0,0:0:0:0:
192,192,139617,1,0,0:0:0:0:
320,192,139617,1,2,0:0:0:0:
64,192,139851,1,0,0:0:0:0:
448,192,139851,1,2,0:0:0:0:
192,192,140086,1,0,0:0:0:0:
448,192,140086,1,2,0:0:0:0:
320,192,140320,1,2,0:0:0:0:
64,192,140320,1,0,0:0:0:0:
448,192,140437,1,2,0:0:0:0:
192,192,140554,1,2,0:0:0:0:
320,192,140672,1,2,0:0:0:0:
64,192,140789,1,2,0:0:0:0:
320,192,140906,1,2,0:0:0:0:
192,192,141023,1,2,0:0:0:0:
448,192,141140,1,2,0:0:0:0:
64,192,141258,1,4,0:0:0:0:
320,192,141258,1,2,0:0:0:0:
448,192,141492,128,0,141726:0:0:0:0:
64,192,141726,128,0,142195:0:0:0:0:
320,192,142195,128,0,142664:0:0:0:0:
192,192,142429,128,0,142664:0:0:0:0:
448,192,142664,128,0,142898:0:0:0:0:
64,192,142898,128,0,143601:0:0:0:0:
448,192,143133,128,0,143601:0:0:0:0:
192,192,144304,1,0,0:0:0:0:
448,192,144539,128,0,144773:0:0:0:0:
64,192,144773,1,0,0:0:0:0:
320,192,145008,128,0,145242:0:0:0:0:
192,192,145242,1,0,0:0:0:0:
448,192,145476,128,0,145711:0:0:0:0:
64,192,145711,128,0,145945:0:0:0:0:
192,192,145945,128,0,146179:0:0:0:0:
320,192,146179,128,0,146414:0:0:0:0:
448,192,146414,128,0,146648:0:0:0:0:
64,192,146648,128,0,147586:0:0:0:0:
192,192,147117,128,0,147586:0:0:0:0:
448,192,147586,128,0,148523:0:0:0:0:
320,192,148054,128,0,148523:0:0:0:0:
192,192,148992,128,0,149461:0:0:0:0:
448,192,149226,128,0,149461:0:0:0:0:
64,192,149461,128,0,149695:0:0:0:0:
320,192,149695,128,0,149929:0:0:0:0:
192,192,149929,128,0,150164:0:0:0:0:
448,192,150164,128,0,151336:0:0:0:0:
64,192,150633,128,0,151336:0:0:0:0:
320,192,151804,128,0,152039:0:0:0:0:
448,192,152039,128,0,152273:0:0:0:0:
64,192,152273,128,0,152508:0:0:0:0:
320,192,152508,128,0,152742:0:0:0:0:
448,192,152742,128,0,152976:0:0:0:0:
192,192,152976,128,0,153211:0:0:0:0:
320,192,153211,128,0,153445:0:0:0:0:
64,192,153445,128,0,153679:0:0:0:0:
192,192,153679,128,0,153914:0:0:0:0:
320,192,153914,128,0,154148:0:0:0:0:
448,192,154148,128,0,154851:0:0:0:0:
320,192,154617,128,0,154851:0:0:0:0:
64,192,155086,128,0,155554:0:0:0:0:
64,192,155789,128,0,156258:0:0:0:0:
448,192,156258,1,0,0:0:0:40:VFX1 Hits & Explode 26.wav
320,192,156258,1,4,0:0:0:0:
64,192,156492,128,0,156961:0:0:0:0:
192,192,156492,1,0,0:0:0:0:
320,192,156726,1,0,0:0:0:0:
448,192,156961,1,0,0:0:0:0:
64,192,157195,128,0,158133:0:0:0:0:
320,192,157195,1,0,0:0:0:0:
192,192,157429,1,0,0:0:0:0:
448,192,157664,1,0,0:0:0:0:
320,192,157898,1,0,0:0:0:0:
192,192,158133,1,8,0:0:0:0:
448,192,158133,128,0,160008:0:0:0:0:
64,192,158601,1,0,0:0:0:0:
192,192,158601,1,8,0:0:0:0:
192,192,159070,1,8,0:0:0:0:
64,192,159070,1,0,0:0:0:0:
64,192,159422,1,0,0:0:0:0:
192,192,159539,1,8,0:0:0:0:
320,192,159539,1,0,0:0:0:0:
64,192,159773,1,0,0:0:0:0:
192,192,160008,1,0,0:0:0:0:
320,192,160008,1,8,0:0:0:0:
192,192,160476,1,0,0:0:0:0:
320,192,160476,1,8,0:0:0:0:
320,192,160945,1,8,0:0:0:0:
192,192,160945,1,0,0:0:0:0:
448,192,161297,1,0,0:0:0:0:
192,192,161414,1,8,0:0:0:0:
64,192,161414,1,0,0:0:0:0:
320,192,161648,1,0,0:0:0:0:
64,192,161883,1,0,0:0:0:0:
448,192,161883,1,8,0:0:0:0:
448,192,162351,1,8,0:0:0:0:
64,192,162351,1,0,0:0:0:0:
64,192,162820,1,0,0:0:0:0:
448,192,162820,1,8,0:0:0:0:
192,192,163172,1,0,0:0:0:0:
320,192,163289,1,0,0:0:0:0:
448,192,163289,1,8,0:0:0:0:
64,192,163523,1,0,0:0:0:0:
320,192,163758,1,0,0:0:0:0:
448,192,163758,1,8,0:0:0:0:
448,192,164226,1,8,0:0:0:0:
320,192,164226,1,0,0:0:0:0:
448,192,164695,1,0,0:0:0:0:
320,192,164695,1,8,0:0:0:0:
192,192,165047,1,0,0:0:0:0:
320,192,165164,1,0,0:0:0:0:
448,192,165164,1,8,0:0:0:0:
64,192,165398,1,0,0:0:0:0:
192,192,165398,1,8,0:0:0:0:
448,192,165633,1,8,0:0:0:0:
64,192,165633,1,0,0:0:0:0:
64,192,166101,1,0,0:0:0:0:
448,192,166101,1,8,0:0:0:0:
64,192,166570,1,0,0:0:0:0:
448,192,166570,1,8,0:0:0:0:
64,192,166922,1,0,0:0:0:0:
320,192,166922,1,8,0:0:0:0:
448,192,167273,1,8,0:0:0:0:
192,192,167273,1,0,0:0:0:0:
64,192,167508,1,0,0:0:0:0:
448,192,167508,1,8,0:0:0:0:
448,192,167976,1,8,0:0:0:0:
64,192,167976,1,0,0:0:0:0:
64,192,168445,1,0,0:0:0:0:
448,192,168445,1,8,0:0:0:0:
64,192,168797,1,0,0:0:0:0:
320,192,168797,1,8,0:0:0:0:
192,192,169148,1,8,0:0:0:0:
64,192,169148,1,0,0:0:0:0:
320,192,169265,1,8,0:0:0:0:
448,192,169265,1,0,0:0:0:0:
64,192,169383,1,0,0:0:0:0:
192,192,169383,1,8,0:0:0:0:
320,192,169617,1,8,0:0:0:0:
448,192,169617,1,0,0:0:0:0:
192,192,169851,1,0,0:0:0:0:
448,192,169851,1,8,0:0:0:0:
448,192,170086,1,8,0:0:0:0:
64,192,170086,1,0,0:0:0:0:
64,192,170320,1,0,0:0:0:0:
192,192,170320,1,8,0:0:0:0:
320,192,170554,1,0,0:0:0:0:
448,192,170554,1,8,0:0:0:0:
448,192,170789,1,8,0:0:0:0:
192,192,170789,1,0,0:0:0:0:
64,192,171023,1,0,0:0:0:0:
448,192,171023,1,8,0:0:0:0:
64,192,171258,1,0,0:0:0:40:Burst clap.wav
192,192,171258,1,0,0:0:0:0:
448,192,171375,1,0,0:0:0:40:Burst clap.wav
320,192,171492,1,0,0:0:0:40:Burst clap.wav
192,192,171609,1,0,0:0:0:40:Burst clap.wav
320,192,171726,1,0,0:0:0:40:Burst clap.wav
448,192,171843,1,0,0:0:0:40:Burst clap.wav
64,192,171961,1,0,0:0:0:40:Burst clap.wav
192,192,172078,1,0,0:0:0:40:Burst clap.wav
320,192,172195,128,0,173133:0:0:0:40:Burst clap.wav
448,192,172195,128,0,173133:0:0:0:0:
64,192,173133,1,0,0:0:0:0:
64,192,173601,1,0,0:0:0:40:VFX1 Hits & Explode 26.wav
192,192,173601,1,4,0:0:0:0:
448,192,173601,1,8,0:0:0:0:
320,192,173718,1,0,0:0:0:0:
448,192,173836,1,0,0:0:0:50:hat.wav
192,192,173953,1,0,0:0:0:0:
320,192,174070,1,2,0:0:0:0:
448,192,174070,1,0,0:0:0:0:
64,192,174187,1,0,0:0:0:0:
320,192,174304,1,0,0:0:0:50:hat.wav
192,192,174422,1,0,0:0:0:0:
64,192,174539,1,0,0:0:0:0:
448,192,174539,1,8,0:0:0:0:
320,192,174773,1,0,0:0:0:50:hat.wav
448,192,174890,1,0,0:0:0:0:
192,192,175008,1,2,0:0:0:0:
64,192,175008,1,0,0:0:0:0:
320,192,175242,1,0,0:0:0:50:hat.wav
192,192,175359,1,0,0:0:0:0:
64,192,175476,1,0,0:0:0:0:
448,192,175476,1,8,0:0:0:0:
320,192,175593,1,0,0:0:0:0:
64,192,175711,1,0,0:0:0:50:hat.wav
192,192,175828,1,0,0:0:0:0:
320,192,175945,1,0,0:0:0:0:
448,192,175945,1,2,0:0:0:0:
64,192,176062,1,0,0:0:0:0:
448,192,176179,1,0,0:0:0:50:hat.wav
320,192,176297,1,0,0:0:0:0:
64,192,176414,1,0,0:0:0:0:
192,192,176414,1,8,0:0:0:0:
448,192,176648,128,0,176883:0:0:0:50:hat.wav
320,192,176883,1,2,0:0:0:0:
64,192,176883,1,0,0:0:0:0:
192,192,177117,1,0,0:0:0:50:hat.wav
64,192,177234,1,0,0:0:0:0:
320,192,177351,1,0,0:0:0:0:
448,192,177351,1,8,0:0:0:0:
192,192,177468,1,0,0:0:0:0:
448,192,177586,1,0,0:0:0:50:hat.wav
320,192,177703,1,0,0:0:0:0:
448,192,177820,1,2,0:0:0:0:
64,192,177820,1,0,0:0:0:0:
320,192,177937,1,0,0:0:0:0:
192,192,178054,1,0,0:0:0:50:hat.wav
64,192,178172,1,0,0:0:0:0:
448,192,178289,1,8,0:0:0:0:
320,192,178289,1,0,0:0:0:0:
192,192,178406,1,0,0:0:0:0:
64,192,178523,1,0,0:0:0:50:hat.wav
192,192,178640,1,0,0:0:0:0:
448,192,178758,1,2,0:0:0:0:
320,192,178758,1,0,0:0:0:0:
192,192,178992,1,0,0:0:0:50:hat.wav
64,192,179109,1,0,0:0:0:0:
448,192,179226,1,8,0:0:0:0:
320,192,179226,1,0,0:0:0:0:
192,192,179343,1,0,0:0:0:0:
64,192,179461,1,0,0:0:0:50:hat.wav
320,192,179578,1,0,0:0:0:0:
64,192,179695,1,2,0:0:0:0:
448,192,179695,1,0,0:0:0:0:
192,192,179812,1,0,0:0:0:0:
320,192,179929,1,0,0:0:0:50:hat.wav
448,192,180047,1,0,0:0:0:0:
64,192,180164,1,0,0:0:0:0:
192,192,180164,1,8,0:0:0:0:
320,192,180398,128,0,180633:0:0:0:50:hat.wav
64,192,180633,1,0,0:0:0:0:
448,192,180633,1,2,0:0:0:0:
192,192,180867,1,0,0:0:0:50:hat.wav
320,192,180984,1,0,0:0:0:0:
448,192,181101,1,8,0:0:0:0:
192,192,181101,1,0,0:0:0:0:
64,192,181218,1,0,0:0:0:0:
192,192,181336,1,0,0:0:0:50:hat.wav
320,192,181453,1,0,0:0:0:0:
64,192,181570,1,0,0:0:0:0:
448,192,181570,1,2,0:0:0:0:
192,192,181687,1,0,0:0:0:0:
320,192,181804,1,0,0:0:0:50:hat.wav
192,192,181922,1,0,0:0:0:0:
64,192,182039,1,0,0:0:0:0:
448,192,182039,1,8,0:0:0:0:
320,192,182273,128,0,182508:0:0:0:50:hat.wav
448,192,182508,1,2,0:0:0:0:
64,192,182508,1,0,0:0:0:0:
192,192,182742,1,0,0:0:0:50:hat.wav
320,192,182859,1,0,0:0:0:0:
64,192,182976,1,0,0:0:0:0:
448,192,182976,1,8,0:0:0:0:
192,192,183093,1,0,0:0:0:0:
448,192,183211,1,0,0:0:0:50:hat.wav
320,192,183328,1,0,0:0:0:0:
64,192,183445,1,0,0:0:0:0:
192,192,183445,1,2,0:0:0:0:
448,192,183562,1,0,0:0:0:0:
192,192,183679,1,0,0:0:0:50:hat.wav
320,192,183797,1,0,0:0:0:0:
448,192,183914,1,8,0:0:0:0:
64,192,183914,1,0,0:0:0:0:
192,192,184148,128,0,184383:0:0:0:50:hat.wav
64,192,184383,1,0,0:0:0:0:
448,192,184383,1,2,0:0:0:0:
320,192,184617,1,0,0:0:0:50:hat.wav
192,192,184734,1,0,0:0:0:0:
320,192,184851,1,8,0:0:0:0:
64,192,184851,1,0,0:0:0:0:
448,192,184968,1,0,0:0:0:0:
192,192,185086,1,0,0:0:0:50:hat.wav
320,192,185203,1,0,0:0:0:0:
448,192,185320,1,2,0:0:0:0:
64,192,185320,1,0,0:0:0:0:
192,192,185437,1,0,0:0:0:0:
320,192,185554,1,0,0:0:0:50:hat.wav
192,192,185672,1,0,0:0:0:0:
64,192,185789,1,0,0:0:0:0:
448,192,185789,1,8,0:0:0:0:
320,192,185906,1,0,0:0:0:0:
192,192,186023,1,0,0:0:0:50:hat.wav
64,192,186140,1,0,0:0:0:0:
320,192,186258,1,0,0:0:0:0:
448,192,186375,1,0,0:0:0:0:
192,192,186492,1,0,0:0:0:50:hat.wav
320,192,186609,1,0,0:0:0:0:
64,192,186726,1,0,0:0:0:0:
192,192,186843,1,0,0:0:0:0:
320,192,186961,1,0,0:0:0:50:hat.wav
448,192,187078,1,0,0:0:0:0:
192,192,187195,1,0,0:0:0:0:
64,192,187312,1,0,0:0:0:0:
320,192,187429,1,0,0:0:0:50:hat.wav
192,192,187547,1,0,0:0:0:0:
448,192,187664,1,0,0:0:0:0:
320,192,187781,1,0,0:0:0:0:
192,192,187898,1,0,0:0:0:50:hat.wav
64,192,188015,1,0,0:0:0:0:
448,192,188133,1,2,0:0:0:0:
320,192,188133,1,4,0:0:0:0:
64,192,188367,1,0,0:0:0:50:hat.wav
192,192,188484,1,0,0:0:0:0:
320,192,188601,1,0,0:0:0:0:
448,192,188601,1,8,0:0:0:0:
64,192,188718,1,0,0:0:0:0:
448,192,188953,1,0,0:0:0:0:
192,192,189070,1,2,0:0:0:0:
64,192,189070,1,0,0:0:0:0:
320,192,189187,1,0,0:0:0:0:
448,192,189304,1,0,0:0:0:50:hat.wav
64,192,189422,1,0,0:0:0:0:
320,192,189539,1,8,0:0:0:0:
192,192,189539,1,0,0:0:0:0:
64,192,189773,128,0,190008:0:0:0:50:hat.wav
320,192,190008,1,2,0:0:0:0:
448,192,190008,1,0,0:0:0:0:
64,192,190242,1,0,0:0:0:50:hat.wav
192,192,190359,1,0,0:0:0:0:
320,192,190476,1,0,0:0:0:0:
448,192,190476,1,8,0:0:0:0:
64,192,190593,1,0,0:0:0:0:
448,192,190711,1,0,0:0:0:50:hat.wav
320,192,190828,1,0,0:0:0:0:
192,192,190945,1,2,0:0:0:0:
64,192,190945,1,0,0:0:0:0:
320,192,191062,1,0,0:0:0:0:
192,192,191179,1,0,0:0:0:50:hat.wav
64,192,191297,1,0,0:0:0:0:
320,192,191414,1,0,0:0:0:0:
448,192,191414,1,8,0:0:0:0:
64,192,191648,128,0,191883:0:0:0:50:hat.wav
448,192,191883,1,0,0:0:0:0:
320,192,191883,1,2,0:0:0:0:
192,192,192117,1,0,0:0:0:50:hat.wav
320,192,192234,1,0,0:0:0:0:
448,192,192351,1,8,0:0:0:0:
192,192,192351,1,0,0:0:0:0:
64,192,192468,1,0,0:0:0:0:
320,192,192586,1,0,0:0:0:50:hat.wav
192,192,192703,1,0,0:0:0:0:
64,192,192820,1,0,0:0:0:0:
448,192,192820,1,2,0:0:0:0:
320,192,192937,1,0,0:0:0:0:
192,192,193054,1,0,0:0:0:50:hat.wav
64,192,193172,1,0,0:0:0:0:
320,192,193289,1,0,0:0:0:0:
448,192,193289,1,8,0:0:0:0:
192,192,193523,128,0,193758:0:0:0:50:hat.wav
448,192,193758,1,2,0:0:0:0:
64,192,193758,1,0,0:0:0:0:
320,192,193992,1,0,0:0:0:50:hat.wav
192,192,194109,1,0,0:0:0:0:
64,192,194226,1,0,0:0:0:0:
320,192,194226,1,8,0:0:0:0:
448,192,194343,1,0,0:0:0:0:
192,192,194461,1,0,0:0:0:50:hat.wav
320,192,194578,1,0,0:0:0:0:
448,192,194695,1,2,0:0:0:0:
64,192,194695,1,0,0:0:0:0:
192,192,194812,1,0,0:0:0:0:
448,192,194929,1,0,0:0:0:50:hat.wav
320,192,195047,1,0,0:0:0:0:
64,192,195164,1,0,0:0:0:0:
192,192,195164,1,8,0:0:0:0:
320,192,195398,128,0,195633:0:0:0:50:hat.wav
448,192,195633,1,2,0:0:0:0:
64,192,195633,1,0,0:0:0:0:
192,192,195867,1,0,0:0:0:50:hat.wav
320,192,195984,1,0,0:0:0:0:
192,192,196101,1,0,0:0:0:0:
448,192,196101,1,8,0:0:0:0:
64,192,196218,1,0,0:0:0:0:
192,192,196453,1,0,0:0:0:0:
320,192,196570,1,0,0:0:0:0:
448,192,196570,1,2,0:0:0:0:
64,192,196687,1,0,0:0:0:0:
448,192,196804,1,0,0:0:0:50:hat.wav
320,192,196922,1,0,0:0:0:0:
192,192,197039,1,8,0:0:0:0:
64,192,197039,1,0,0:0:0:0:
320,192,197273,128,0,197508:0:0:0:50:hat.wav
64,192,197508,1,0,0:0:0:0:
448,192,197508,1,2,0:0:0:0:
192,192,197742,1,0,0:0:0:50:hat.wav
64,192,197859,1,0,0:0:0:0:
448,192,197976,1,8,0:0:0:0:
192,192,197976,1,0,0:0:0:0:
320,192,198093,1,0,0:0:0:0:
64,192,198211,1,0,0:0:0:50:hat.wav
192,192,198328,1,0,0:0:0:0:
64,192,198445,1,0,0:0:0:0:
448,192,198445,1,2,0:0:0:0:
320,192,198562,1,0,0:0:0:0:
192,192,198679,1,0,0:0:0:50:hat.wav
64,192,198797,1,0,0:0:0:0:
320,192,198914,1,0,0:0:0:0:
448,192,198914,1,8,0:0:0:0:
448,192,199148,128,0,199383:0:0:0:50:hat.wav
192,192,199383,1,0,0:0:0:0:
64,192,199383,1,2,0:0:0:0:
320,192,199617,1,0,0:0:0:50:hat.wav
192,192,199734,1,0,0:0:0:0:
448,192,199851,1,8,0:0:0:0:
64,192,199851,1,0,0:0:0:0:
320,192,199968,1,0,0:0:0:0:
64,192,200086,1,0,0:0:0:50:hat.wav
192,192,200203,1,0,0:0:0:0:
320,192,200320,1,0,0:0:0:0:
448,192,200320,1,2,0:0:0:0:
64,192,200437,1,0,0:0:0:0:
448,192,200554,1,0,0:0:0:50:hat.wav
320,192,200672,1,0,0:0:0:0:
64,192,200789,1,0,0:0:0:0:
192,192,200789,1,8,0:0:0:0:
64,192,201023,128,0,201258:0:0:0:50:hat.wav
448,192,201258,1,2,0:0:0:0:
320,192,201258,1,0,0:0:0:0:
64,192,201492,1,0,0:0:0:50:hat.wav
320,192,201609,1,0,0:0:0:0:
192,192,201726,1,0,0:0:0:0:
448,192,201726,1,8,0:0:0:0:
64,192,201843,1,0,0:0:0:0:
320,192,201961,1,0,0:0:0:50:hat.wav
192,192,202078,1,0,0:0:0:0:
448,192,202195,1,2,0:0:0:0:
64,192,202195,1,0,0:0:0:0:
320,192,202312,1,0,0:0:0:0:
192,192,202429,1,0,0:0:0:50:hat.wav
448,192,202547,1,0,0:0:0:0:
320,192,202664,1,8,0:0:0:0:
64,192,202664,1,0,0:0:0:0:
192,192,202781,1,0,0:0:0:0:
448,192,202898,1,0,0:0:0:50:hat.wav
320,192,203015,1,0,0:0:0:0:
64,192,203133,1,0,0:0:0:40:VFX1 Hits & Explode 26.wav
192,192,203133,1,4,0:0:0:0:
448,192,203133,1,2,0:0:0:0:
320,192,203601,1,0,0:0:0:0:
448,192,203601,1,8,0:0:0:0:
64,192,203718,1,0,0:0:0:0:
320,192,203953,1,0,0:0:0:0:
192,192,204070,1,8,0:0:0:0:
64,192,204070,1,0,0:0:0:0:
448,192,204187,1,0,0:0:0:0:
320,192,204304,1,0,0:0:0:50:hat.wav
64,192,204422,1,0,0:0:0:0:
448,192,204539,1,8,0:0:0:0:
192,192,204539,1,0,0:0:0:0:
64,192,204773,128,0,205008:0:0:0:50:hat.wav
320,192,205008,1,0,0:0:0:0:
448,192,205008,1,8,0:0:0:0:
192,192,205242,1,0,0:0:0:50:hat.wav
64,192,205359,1,0,0:0:0:0:
320,192,205476,1,0,0:0:0:0:
448,192,205476,1,8,0:0:0:0:
192,192,205593,1,0,0:0:0:0:
320,192,205828,1,0,0:0:0:0:
64,192,205945,1,0,0:0:0:0:
192,192,205945,1,8,0:0:0:0:
448,192,206062,1,0,0:0:0:0:
64,192,206179,1,0,0:0:0:50:hat.wav
192,192,206297,1,0,0:0:0:0:
320,192,206414,1,8,0:0:0:0:
448,192,206414,1,0,0:0:0:0:
64,192,206648,128,0,206883:0:0:0:50:hat.wav
320,192,206883,1,0,0:0:0:0:
448,192,206883,1,8,0:0:0:0:
64,192,207117,1,0,0:0:0:50:hat.wav
192,192,207234,1,0,0:0:0:0:
320,192,207351,1,0,0:0:0:0:
448,192,207351,1,8,0:0:0:0:
64,192,207468,1,0,0:0:0:0:
320,192,207703,1,0,0:0:0:0:
192,192,207820,1,0,0:0:0:0:
448,192,207820,1,8,0:0:0:0:
64,192,207937,1,0,0:0:0:0:
448,192,208054,1,0,0:0:0:50:hat.wav
320,192,208172,1,0,0:0:0:0:
192,192,208289,1,8,0:0:0:0:
64,192,208289,1,0,0:0:0:0:
448,192,208523,128,0,208758:0:0:0:50:hat.wav
192,192,208758,1,0,0:0:0:0:
320,192,208758,1,8,0:0:0:0:
64,192,208992,1,0,0:0:0:50:hat.wav
192,192,209109,1,0,0:0:0:0:
448,192,209226,1,8,0:0:0:0:
320,192,209226,1,0,0:0:0:0:
64,192,209343,1,0,0:0:0:0:
192,192,209578,1,0,0:0:0:0:
64,192,209695,1,8,0:0:0:0:
448,192,209695,1,0,0:0:0:0:
320,192,209812,1,0,0:0:0:0:
64,192,209929,1,0,0:0:0:50:hat.wav
192,192,210047,1,0,0:0:0:0:
320,192,210164,1,0,0:0:0:0:
448,192,210164,1,8,0:0:0:0:
448,192,210398,1,8,0:0:0:0:
192,192,210398,1,0,0:0:0:50:hat.wav
64,192,210633,1,0,0:0:0:0:
320,192,210633,1,8,0:0:0:0:
448,192,210867,1,0,0:0:0:50:hat.wav
64,192,211101,1,0,0:0:0:0:
192,192,211101,1,8,0:0:0:0:
448,192,211218,1,0,0:0:0:0:
320,192,211453,1,0,0:0:0:0:
448,192,211570,1,0,0:0:0:40:Burst clap.wav
64,192,211570,1,0,0:0:0:0:
192,192,211687,1,0,0:0:0:0:
320,192,211804,1,0,0:0:0:50:hat.wav
192,192,211922,1,0,0:0:0:40:Burst clap.wav
64,192,211922,1,0,0:0:0:0:
320,192,212039,1,0,0:0:0:0:
448,192,212039,1,8,0:0:0:0:
64,192,212273,1,0,0:0:0:50:hat.wav
192,192,212273,1,0,0:0:0:40:Burst clap.wav
320,192,212508,1,0,0:0:0:40:Burst clap.wav
448,192,212508,1,0,0:0:0:0:
192,192,212742,1,0,0:0:0:50:hat.wav
64,192,212859,1,0,0:0:0:0:
320,192,212976,1,0,0:0:0:0:
448,192,212976,1,8,0:0:0:0:
64,192,213211,1,0,0:0:0:50:hat.wav
192,192,213328,1,0,0:0:0:0:
320,192,213445,1,0,0:0:0:0:
448,192,213445,1,0,0:0:0:40:Burst clap.wav
64,192,213562,1,0,0:0:0:0:
192,192,213679,1,0,0:0:0:50:hat.wav
320,192,213797,1,0,0:0:0:0:
448,192,213797,1,0,0:0:0:40:Burst clap.wav
192,192,213914,1,8,0:0:0:0:
64,192,213914,1,0,0:0:0:0:
448,192,214148,1,0,0:0:0:40:Burst clap.wav
64,192,214148,1,0,0:0:0:50:hat.wav
320,192,214265,1,0,0:0:0:40:Burst clap.wav
192,192,214265,1,0,0:0:0:0:
448,192,214383,1,8,0:0:0:0:
64,192,214383,1,0,0:0:0:0:
192,192,214617,1,0,0:0:0:0:
320,192,214617,1,8,0:0:0:0:
448,192,214851,1,8,0:0:0:0:
64,192,214851,1,0,0:0:0:0:
320,192,215086,1,8,0:0:0:0:
64,192,215086,1,0,0:0:0:0:
192,192,215320,1,0,0:0:0:0:
448,192,215320,1,8,0:0:0:0:
448,192,215554,1,8,0:0:0:0:
64,192,215554,1,0,0:0:0:0:
320,192,215789,1,8,0:0:0:0:
192,192,215789,1,0,0:0:0:0:
64,192,216023,1,0,0:0:0:0:
448,192,216023,1,8,0:0:0:0:
192,192,216258,1,0,0:0:0:40:Burst clap.wav
64,192,216258,1,0,0:0:0:0:
448,192,216375,1,0,0:0:0:40:Burst clap.wav
192,192,216492,1,0,0:0:0:40:Burst clap.wav
320,192,216609,1,0,0:0:0:40:Burst clap.wav
64,192,216726,1,0,0:0:0:40:Burst clap.wav
448,192,216843,1,0,0:0:0:40:Burst clap.wav
192,192,216961,1,0,0:0:0:40:Burst clap.wav
320,192,217078,1,0,0:0:0:40:Burst clap.wav
64,192,217195,128,0,218133:0:0:0:0:
448,192,217195,128,0,218133:0:0:0:40:Burst clap.wav
192,192,218133,1,0,0:0:0:40:VFX1 Hits & Explode 26.wav
320,192,218133,1,4,0:0:0:0:
448,192,218484,1,0,0:0:0:0:
320,192,218836,1,0,0:0:0:0:
192,192,219187,1,0,0:0:0:0:
448,192,219539,128,0,220008:0:0:0:0:
64,192,219773,128,0,220008:0:0:0:0:
