osu file format v6

[General]
AudioFilename: MC the Max-Returns.mp3
AudioLeadIn: 3000
PreviewTime: 55456
Countdown: 1
SampleSet: Soft
StackLeniency: 0.7
Mode: 0
LetterboxInBreaks: 1

[Editor]
DistanceSpacing: 0.800000011920929
BeatDivisor: 4
GridSize: 16

[Metadata]
Title:Returns
Artist:MC the MAX
Creator:Elises
Version:Gorgos
Source:
Tags:

[Difficulty]
HPDrainRate:2
CircleSize:3
OverallDifficulty:3
SliderMultiplier:1.4
SliderTickRate:1

[Events]
//Background and Video events
0,0,"MCTheMaxVol6.jpg"
//Break Periods
//Storyboard Layer 0 (Background)
//Storyboard Layer 1 (Fail)
//Storyboard Layer 2 (Pass)
//Storyboard Layer 3 (Foreground)
//Storyboard Sound Samples
//Background Colour Transformations
3,100,0,0,0

[TimingPoints]
72.7159412426166,384.610731363374,4,2,0,100,1,0
72.7159412426166,-200,4,2,0,100,0,0
10841,-200,4,2,0,100,0,0
13148,-200,4,2,0,100,0,0
25647,-100,4,2,0,100,0,0
31224,-200,4,2,0,100,0,0

[Colours]
Combo1 : 0,0,132
Combo2 : 106,255,143
Combo3 : 255,128,0
Combo4 : 240,5,5

[HitObjects]
256,192,72,1,0
256,64,841,1,0
256,128,1226,1,0
256,192,1611,5,0
256,320,2380,1,0
256,256,2764,1,0
256,192,3149,5,0
128,192,3918,1,0
192,192,4303,1,0
256,192,4688,5,0
256,128,5072,1,0
256,192,5457,1,0
256,256,5841,1,0
256,192,6226,5,0
384,192,6995,1,0
320,192,7380,1,0
256,192,7764,5,0
128,192,8534,1,0
192,192,8918,1,0
256,192,9303,5,0
256,64,10072,1,0
192,64,10457,1,0
192,128,10841,6,4,B|480:128,1,280
480,256,13149,5,0
416,224,13534,1,0
352,192,13918,2,0,B|256:192,1,70
224,224,14687,1,0
288,256,15072,1,0
352,288,15457,2,0,B|448:288,1,70
480,256,16226,5,0
448,192,16610,1,0
416,128,16995,1,0
352,128,17380,1,0
288,128,17764,1,0
224,128,18149,1,0
256,192,18534,1,4
384,128,19303,5,0
448,128,19687,1,0
448,192,20072,2,0,B|448:288,1,70
448,320,20841,1,0
384,320,21226,1,0
320,320,21610,2,0,B|320:224,1,70
320,192,22380,5,0
256,192,22764,1,0
192,192,23149,1,0
192,128,23533,1,0
256,96,23918,1,0
320,128,24303,1,0
256,160,24687,1,4
128,160,25649,6,8,B|128:256,2,70
256,288,27380,5,8
256,224,27764,1,8
448,128,29303,5,0
384,160,29687,1,0
320,192,30072,1,0
256,224,30456,1,0
192,256,30841,1,0
256,288,31226,6,2,B|256:384,2,70
224,160,32764,2,2,B|224:64,2,70
384,192,34303,2,2,B|320:192,1,35
288,256,34879,2,2,B|288:352,5,70
320,96,37379,5,0
256,96,37764,1,0
192,96,38149,1,0
320,160,38918,5,0
256,160,39303,1,0
192,160,39687,1,0
256,320,40456,5,2
256,320,40649,2,2,B|160:288,2,70
256,320,41802,2,2,B|352:288,2,70
256,256,42956,1,4
288,64,43533,5,0
288,96,43726,2,2,B|192:96,1,70
224,256,45072,5,0
224,288,45264,2,2,B|320:288,1,70
256,64,46610,6,2,B|256:0,2,35
256,96,47187,2,2,B|256:192,1,70
288,224,47956,2,2,B|384:224,1,70
320,288,48725,2,2,B|224:288,1,70
321,162,49687,2,2,B|417:162,2,70
256,96,51225,6,2,B|256:192,1,70
256,224,51995,2,2,B|256:320,1,70
256,32,53341,5,8
256,160,53918,1,8
256,288,54495,1,8
256,352,54879,1,8
192,192,55456,6,2,B|288:256,1,105
352,192,56418,1,0
288,128,56802,1,0
160,192,57572,1,0
256,96,58148,6,2,B|256:160,1,35
256,192,58725,1,0
320,192,59110,1,0
320,128,59495,1,0
256,128,59879,1,2
192,128,60264,1,2
192,192,60648,1,4
256,192,61033,1,4
128,96,61610,6,2,B|224:96,1,70
288,96,62379,2,2,B|352:160,1,70
352,192,62956,2,2,B|288:256,1,70
224,288,63725,1,2
128,192,64302,6,0,B|192:192,1,35
256,192,64879,2,0,B|192:192,1,35
416,192,65841,2,0,B|352:192,1,35
320,192,66418,2,2,B|320:288,1,70,0|4
320,320,67187,1,4
256,32,67764,6,2,B|224:128,1,70
224,128,68341,2,0,B|320:160,1,70
352,160,69110,2,2,B|384:32,1,105
352,32,69879,1,0
256,32,70456,6,2,B|192:32,1,35
224,96,71033,2,0,B|224:192,1,70
288,192,71802,2,2,B|288:96,1,70
288,64,72571,2,0,B|192:64,2,70
384,64,73917,6,2,B|384:128|320:128,1,70
288,128,74687,2,2,B|288:192|352:192,1,70
352,256,75456,2,0,B|256:288,2,70
368,288,76417,2,0,B|320:352,1,70
256,336,77187,1,0
256,336,77379,1,0
160,192,78148,6,2,B|192:160,1,35
240,128,78725,1,10
304,160,79110,1,8
368,192,79494,1,10
256,64,80071,5,14
