osu file format v6

[General]
AudioFilename: MC the Max-Returns.mp3
AudioLeadIn: 3000
PreviewTime: 55456
Countdown: 1
SampleSet: Soft
StackLeniency: 0.7
Mode: 0
LetterboxInBreaks: 1

[Editor]
Bookmarks: 61511
DistanceSpacing: 0.800000011920929
BeatDivisor: 4
GridSize: 16

[Metadata]
Title:Returns
Artist:MC the MAX
Creator:Elises
Version:Gaikoz
Source:
Tags:

[Difficulty]
HPDrainRate:4
CircleSize:4
OverallDifficulty:5
SliderMultiplier:1.4
SliderTickRate:1

[Events]
//Background and Video events
0,0,"MCTheMaxVol6.jpg"
//Break Periods
2,109501,115794
2,166424,169639
//Storyboard Layer 0 (Background)
//Storyboard Layer 1 (Fail)
//Storyboard Layer 2 (Pass)
//Storyboard Layer 3 (Foreground)
//Storyboard Sound Samples
//Background Colour Transformations
3,100,0,0,0

[TimingPoints]
72.7159412426166,384.610731363374,4,2,0,100,1,0
31224,-100,4,2,0,100,0,0
104686,-100,4,2,0,0,0,0
116988,-200,4,2,0,50,0,0
129295,-100,4,2,0,50,0,0
141602,-100,4,2,0,49,0,0
170734,-100,4,1,0,0,0,1
170831,-100,4,1,0,0,0,1
170927,-100,4,1,0,10,0,1
171023,-100,4,1,0,17,0,1
171119,-100,4,1,0,26,0,1
171215,-100,4,1,0,33,0,1
171311,-100,4,1,0,42,0,1
171407,-100,4,1,0,49,0,1
171504,-100,4,1,0,60,0,1
171600,-100,4,1,0,68,0,1
171696,-100,4,1,0,77,0,1
171792,-100,4,1,0,85,0,1
171888,-100,4,1,0,94,0,1
171984,-100,4,1,0,98,0,1
221596,-200,4,2,0,100,0,1
222173,-200,4,2,0,87,0,1
222750,-200,4,2,0,75,0,1
223327,-200,4,2,0,62,0,1
223904,-200,4,2,0,50,0,1
224481,-200,4,2,0,38,0,1
225058,-200,4,2,0,25,0,1
225539,-200,4,2,0,13,0,1
226019,-200,4,2,0,0,0,1

[Colours]
Combo1 : 0,0,132
Combo2 : 106,255,143
Combo3 : 255,128,0
Combo4 : 240,5,5

[HitObjects]
256,160,72,2,0,B|192:160,4,35
320,128,649,2,0,B|384:96,4,70
256,160,1611,6,0,B|256:224,4,35
224,96,2188,2,0,B|192:32,4,70
256,160,3149,6,0,B|320:160,4,35
192,192,3726,2,0,B|128:224,4,70
224,160,4688,5,0
256,128,4880,1,0
288,96,5072,1,0
336,96,5264,1,0
368,128,5457,1,0
368,176,5649,1,0
336,208,5841,1,0
288,208,6034,1,0
256,160,6226,6,0,B|256:96,4,35
288,224,6803,2,0,B|320:288,4,70
288,160,7764,6,0,B|352:160,4,35
256,96,8341,2,0,B|256:0,4,70
224,160,9303,6,0,B|160:160,4,35
224,240,9880,5,0
208,288,10072,1,0
256,320,10264,1,0
304,288,10457,1,0
288,240,10649,1,0
256,192,10841,2,4,B|256:32,4,140
320,64,13149,5,8
288,96,13341,1,0
256,128,13534,1,8
224,160,13726,1,0
192,192,13918,2,0,B|96:192,1,70,8|0
96,304,14495,5,0
64,272,14687,1,0
64,224,14880,1,0
96,192,15072,2,0,B|128:128,1,70,8|0
160,96,15457,2,0,B|192:160,1,70,8|0
224,96,16034,5,0
256,128,16226,1,0
288,160,16418,1,0
320,128,16610,1,8
352,96,16803,1,0
384,64,16995,1,0
416,96,17187,5,0
448,128,17380,1,8
480,160,17572,1,0
448,192,17764,1,0
416,224,17957,1,0
384,256,18149,1,8
352,288,18341,1,0
320,320,18534,1,4
384,128,19110,5,0
352,96,19303,1,0
320,64,19495,1,0
288,96,19687,2,0,B|256:160,1,70,8|0
224,224,20072,2,0,B|320:224,1,70
224,352,20649,5,0
256,320,20841,1,8
288,288,21034,1,0
256,256,21226,2,0,B|160:256,1,70,8|0
128,224,21610,2,0,B|128:128,1,70,8|0
160,352,22187,5,0
128,320,22380,1,0
96,288,22572,1,0
128,256,22764,1,8
160,224,22957,1,0
192,192,23149,1,0
224,160,23341,5,0
256,128,23533,1,8
288,160,23726,1,0
320,192,23918,1,0
352,224,24110,1,0
384,256,24303,1,8
416,288,24495,1,8
448,320,24687,1,12
256,32,25649,5,0
288,96,25841,2,8,B|192:96,1,70
256,288,27187,5,8
256,288,27380,1,8
256,288,27572,1,8
384,96,28726,6,8,B|448:64,2,70
448,128,29303,5,0
448,192,29495,1,0
448,256,29687,2,0,B|352:256,1,70,8|0
320,256,30072,2,0,B|224:256,1,70,8|0
192,256,30456,2,0,B|96:256,1,70,8|0
64,256,30841,1,4
256,96,31226,6,2,B|256:256,2,140
192,160,32764,2,2,B|192:320,2,140
320,160,34303,6,2,B|320:256,1,70
256,288,34879,2,2,B|256:128,5,140
320,320,37379,5,0
192,320,37764,1,0
256,224,38149,1,0
192,64,38918,5,0
320,64,39303,1,0
256,160,39687,1,0
256,320,40456,5,0
256,320,40649,2,2,B|96:256,2,140
256,320,41802,2,2,B|384:256,2,140
256,192,42956,1,4
256,32,43533,5,0
256,96,43726,2,2,B|256:256,1,140
256,352,45072,5,0
256,288,45264,2,2,B|256:128,1,140
288,32,46610,6,2,B|192:32,2,70
256,96,47187,2,2,B|256:256,1,140
192,288,47956,2,2,B|352:288,1,140
320,224,48725,2,2,B|160:224,1,140
160,160,49687,2,2,B|320:160,2,140
256,32,51225,6,2,B|256:192,1,140
320,128,51995,2,2,B|160:128,1,140
256,32,53341,5,8
293,137,53725,2,8,B|202:137,2,70
256,256,54495,1,8
256,352,54879,1,8
160,224,55456,5,12
192,160,55841,1,0
192,160,56033,1,0
256,64,56418,1,0
320,160,56802,1,0
384,288,57379,1,0
384,288,57572,1,0
256,32,58148,6,2,B|256:128,1,70
256,192,58725,1,0
256,256,59110,1,0
288,320,59495,1,0
320,256,59879,1,2
256,224,60264,1,2
192,256,60648,1,4
224,320,61033,1,4
448,32,61610,6,2,B|288:96,1,140
288,128,62187,1,0
288,256,62571,2,2,B|448:320,1,140
448,256,63341,2,2,B|448:96,1,140
256,192,64302,6,0,B|352:192,1,70
352,128,64879,2,0,B|256:128,1,70
32,128,65841,2,0,B|32:224,1,70
32,256,66418,2,2,B|192:256,1,140,0|4
256,256,67187,1,4
256,32,67764,6,2,B|256:192,1,140
256,224,68341,2,0,B|416:224,1,140
480,256,69110,2,2,B|480:32,1,210
416,32,69879,1,0
384,224,70456,6,2,B|288:224,1,70
256,32,71033,2,0,B|256:192,1,140
224,256,71802,2,2,B|224:96,1,140
320,160,72571,2,0,B|160:160,2,140
416,192,73917,6,2,B|384:96|288:96,1,140
288,128,74494,1,0
192,96,74879,2,2,B|96:128|96:224,1,140
192,224,75648,2,0,B|352:224,1,140
224,160,76417,2,0,B|224:320,1,140
352,288,77187,1,0
352,288,77379,1,0
128,192,78148,6,2,B|192:128,1,70
256,192,78725,1,10
384,192,79110,1,8
256,192,79494,1,10
256,64,80071,5,14
160,128,80456,1,10
160,208,80840,1,10
160,288,81225,1,8
320,256,81994,1,0
400,256,82379,1,0
400,176,82764,1,8
288,224,83533,5,8
256,256,83725,2,0,B|160:128,5,140
96,160,86033,1,8
160,288,86610,5,8
224,256,86994,1,8
288,224,87379,1,8
448,320,88148,2,0,B|384:256,1,70
320,288,88725,1,0
320,320,89687,6,0,B|256:256,1,70
224,320,90263,1,0
128,320,90648,1,0
192,256,91033,1,0
256,192,91417,1,0
320,128,91802,1,0
384,64,92186,1,0
256,32,92763,6,0,B|256:128,1,70
256,192,93340,1,0
416,192,94302,6,0,B|320:192,1,70
256,192,94879,1,0
256,352,95840,6,0,B|256:256,1,70
256,192,96417,1,0
32,192,96802,2,0,B|192:192,1,140
256,192,97571,2,0,B|416:192,1,140
480,192,98340,1,0
288,128,98917,5,0
256,192,99302,1,0
224,128,99686,1,0
288,256,100456,5,0
256,192,100840,1,0
224,256,101225,1,0
192,192,101609,1,8
256,352,102571,5,8
224,288,102956,2,8,B|320:288,1,70
256,288,103340,2,8,B|256:128,1,140
256,32,104109,1,8
256,208,104686,12,8,109301
256,192,116994,6,0,B|320:160,1,70
368,160,117571,2,0,B|432:192,1,70
416,288,118340,2,0,B|288:288,1,105
256,256,119109,1,0
256,256,119878,5,0
192,256,120071,2,0,B|96:256,1,70
96,224,120648,2,0,B|160:160,1,70
96,112,121417,2,0,B|192:112,1,70
256,96,122186,2,0,B|256:0,1,70
256,192,123148,6,0,B|320:256,1,70
256,192,123725,2,0,B|192:256,1,70
256,192,124494,2,0,B|192:128,1,70
320,128,125263,1,0
160,192,125840,2,0,B|224:192,1,35
256,192,126417,2,0,B|320:192,1,35
256,352,127378,6,0,B|256:288,1,35
256,256,127955,1,0
224,192,128340,1,0
160,160,128725,1,0
32,96,129301,6,0,B|32:192,1,70
64,128,129686,2,0,B|64:32,1,70
96,96,130071,2,0,B|96:192,1,70
128,128,130455,2,0,B|128:32,1,70
160,96,130840,6,0,B|160:192,1,70
192,128,131224,2,0,B|192:32,1,70
224,96,131609,2,0,B|224:192,1,70
256,128,131994,2,0,B|256:32,1,70
288,96,132378,6,0,B|288:192,1,70
320,128,132763,2,0,B|320:32,1,70
352,96,133148,2,0,B|352:192,1,70
384,128,133532,2,0,B|384:32,1,70
416,96,133917,6,0,B|416:192,1,70
448,128,134301,2,0,B|448:32,1,70
480,96,134686,2,0,B|480:192,2,70,0|0|4
352,64,135455,6,0,B|256:64,1,70
320,96,135840,2,0,B|416:96,1,70
352,128,136224,2,0,B|256:128,1,70
320,160,136609,2,0,B|416:160,1,70
352,192,136994,6,0,B|256:192,1,70
320,224,137378,2,0,B|416:224,1,70
352,256,137763,2,0,B|256:256,1,70
320,288,138147,1,2
288,320,138340,1,2
224,256,138724,1,2
224,256,138917,1,2
160,288,139686,5,2
192,256,139878,1,2
256,192,140263,1,2
320,256,140647,1,2
256,192,141032,1,2
480,176,142186,5,0
448,128,142378,1,2
416,176,142570,1,0
384,224,142763,1,0
352,176,142955,1,0
304,176,143147,2,0,B|208:176,1,70
64,240,143724,5,0
32,192,143917,1,0
64,144,144109,1,0
96,96,144301,2,0,B|128:160,1,70,8|0
160,192,144686,2,0,B|192:128,1,70,8|0
288,272,145263,5,0
256,224,145455,1,0
288,176,145647,1,0
320,128,145840,2,0,B|384:192,1,70,8|0
384,224,146224,2,0,B|448:160,1,70,8|0
464,144,146609,2,0,B|400:80,1,70,8|0
384,64,146994,2,0,B|320:0,1,70,8|0
304,48,147378,2,0,B|240:112,1,70,8|0
224,128,147763,1,4
144,352,148340,5,0
192,320,148532,1,0
240,288,148724,1,0
288,256,148917,2,0,B|256:192,1,70
224,160,149301,2,0,B|320:160,1,70
272,32,149878,5,0
224,64,150070,1,0
272,96,150263,1,0
320,128,150455,2,0,B|224:160,1,70
224,192,150840,2,0,B|320:224,1,70
480,48,151417,5,0
448,96,151609,1,0
416,144,151801,1,0
384,192,151993,2,0,B|320:224,1,70
288,224,152378,6,0,B|224:256,1,70,8|0
192,256,152763,2,0,B|96:224,1,70,8|0
128,192,153147,2,0,B|224:160,1,70,8|0
224,160,153532,2,0,B|320:160,1,70,8|0
320,160,153917,1,4
32,240,154493,5,0
64,192,154686,1,0
96,144,154878,1,0
128,192,155070,1,0
160,240,155263,1,0
192,192,155455,2,0,B|288:192,1,70
448,208,156032,5,0
480,160,156224,1,0
448,112,156416,1,0
416,80,156609,2,0,B|384:144,1,70,8|0
384,192,156993,2,0,B|416:288,1,70,8|0
320,320,157570,5,0
288,272,157763,1,0
256,224,157955,1,0
224,176,158147,2,0,B|160:240,1,70,8|0
144,256,158532,2,0,B|80:192,1,70,8|0
112,160,158916,2,0,B|176:96,1,70,8|0
192,80,159301,2,0,B|256:16,1,70,8|0
272,64,159686,2,0,B|336:128,1,70,8|0
288,160,160070,1,4
368,320,160647,5,0
320,352,160840,1,0
272,320,161032,1,0
224,288,161224,2,0,B|256:224,1,70
288,176,161609,2,0,B|192:176,1,70
192,32,162186,5,0
160,80,162378,1,0
192,128,162570,1,0
224,176,162763,2,0,B|320:176,1,70
320,224,163147,2,0,B|224:224,1,70
32,224,163724,5,0
64,176,163916,1,0
96,224,164109,1,0
128,272,164301,2,0,B|192:304,1,70
224,272,164686,6,0,B|288:240,1,70,8|0
320,272,165070,2,0,B|416:240,1,70,8|0
384,192,165455,2,0,B|320:160,1,70,8|0
288,208,165839,2,0,B|192:176,1,70,8|0
240,128,166224,1,0
256,32,170839,6,2,B|512:192|256:384|224:128|256:64|480:32,1,560,0|4
480,96,172762,2,0,B|416:160,1,70
416,224,173339,1,0
352,192,173724,2,0,B|128:192,1,210
128,144,174493,1,0
256,80,175070,5,0
256,128,175262,1,0
256,224,175647,1,0
256,288,176032,1,0
256,224,176416,2,0,B|96:160,3,140
64,192,177955,1,0
448,320,178532,6,2,B|288:256,1,140
288,272,179109,1,0
320,192,179493,2,2,B|480:256,1,140
448,192,180262,2,2,B|320:256,1,140
256,192,181224,6,0,B|352:192,1,70
256,192,181801,2,0,B|160:192,1,70
256,192,182762,2,0,B|256:96,1,70
256,64,183339,2,2,B|384:160,1,140,0|4
384,224,184108,1,4
256,352,184685,6,2,B|256:192,1,140
208,240,185262,2,0,B|368:240,1,140
320,320,186032,2,2,B|320:96,1,210
272,96,186801,1,0
288,224,187378,6,2,B|192:224,1,70
256,320,187955,2,0,B|256:160,1,140
256,96,188724,2,2,B|256:256,1,140
320,192,189493,2,0,B|160:192,2,140
416,192,190839,6,2,B|384:288|288:288,1,140
304,336,191416,1,0
192,288,191801,2,2,B|96:256|96:160,1,140
192,160,192570,2,0,B|352:160,1,140
288,224,193339,2,0,B|288:64,1,140
224,96,194108,1,0
224,96,194301,1,0
96,160,195070,6,2,B|160:224,1,70
256,192,195647,1,10
384,192,196031,1,8
256,192,196416,1,10
272,96,196993,6,0,B|368:128|368:192,1,140
352,224,197570,1,0
320,288,197954,1,0
288,352,198339,2,0,B|192:320|192:160,1,210
240,160,199108,1,0
256,224,199493,1,0
192,96,200070,6,0,B|320:32,1,140
320,96,200647,2,0,B|192:32,1,140
192,96,201416,2,0,B|256:224,1,140
256,224,202185,2,0,B|320:96,1,140
160,128,203147,6,0,B|320:128,1,140
352,192,203724,2,0,B|192:192,4,140
256,160,206031,5,0
256,224,206416,2,0,B|256:320,1,70
160,128,207377,5,0
160,128,207570,1,0
192,192,207954,1,0
224,256,208339,1,0
256,192,208724,1,0
416,192,209300,6,0,B|256:192,1,140
224,192,209877,1,0
192,256,210262,2,0,B|352:256,1,140
256,128,211224,1,0
256,128,211416,1,0
256,192,211993,6,8,B|256:96,1,70,8|0
160,192,212570,1,0
352,192,212954,1,0
160,192,213339,1,0
352,192,213723,2,0,B|192:192,1,140
160,192,214493,2,0,B|320:192,1,140
256,96,215454,5,0
256,192,215839,1,0
256,224,216031,1,0
256,320,216416,1,0
320,128,216800,5,4
192,256,217185,5,4
320,256,217570,5,4
160,128,218147,5,0
256,128,218339,1,0
256,256,218723,1,0
352,256,218916,1,0
224,64,219685,5,0
192,128,219877,2,0,B|352:128,1,140
352,192,220646,2,0,B|192:192,1,140
256,208,221608,12,0,226223
