osu file format v14

[General]
AudioFilename: 04 - VIBES!.mp3
AudioLeadIn: 0
PreviewTime: 92145
Countdown: 0
SampleSet: None
StackLeniency: 0.7
Mode: 0
LetterboxInBreaks: 0
WidescreenStoryboard: 0

[Editor]
DistanceSpacing: 0.7
BeatDivisor: 4
GridSize: 4
TimelineZoom: 1.6

[Metadata]
Title:VIBES!
TitleUnicode:VIBES!
Artist:MC STONE
ArtistUnicode:MC STONE
Creator:Horo
Version:Dubu
Source:FENIX
Tags:DJ Shimamura i want to be CRN
BeatmapID:898801
BeatmapSetID:414657

[Difficulty]
HPDrainRate:5
CircleSize:3.9
OverallDifficulty:7.7
ApproachRate:9.8
SliderMultiplier:2.4
SliderTickRate:1

[Events]
//Background and Video events
0,0,"vibes.png",0,0
//Break Periods
//Storyboard Layer 0 (Background)
//Storyboard Layer 1 (Fail)
//Storyboard Layer 2 (Pass)
//Storyboard Layer 3 (Foreground)
//Storyboard Sound Samples

[TimingPoints]
137145,444.444444444444,4,1,0,100,1,0
138922,428.571428571429,4,1,0,100,1,0
140640,413.793103448276,4,1,0,100,1,0
142295,400,4,1,0,100,1,0
143895,387.096774193548,4,1,0,100,1,0
145443,375,4,1,0,100,1,0
146943,352.941176470588,4,1,0,100,1,0
148354,342.857142857143,4,1,0,100,1,0
149725,-100,4,1,0,100,0,1
150925,-151.515151515152,4,1,0,100,0,1
151182,-100,4,1,0,100,0,1
153668,-151.515151515152,4,1,0,100,0,1
153925,-100,4,1,0,100,0,1
156754,-151.515151515152,4,1,0,100,0,1
157011,-100,4,1,0,100,0,1
171668,-100,4,1,0,100,0,0

[Colours]
Combo1 : 255,255,255
Combo2 : 241,223,3
Combo3 : 255,255,255
Combo4 : 252,194,211

[HitObjects]
256,192,133453,12,0,136222,0:0:0:0:
152,244,137145,6,0,P|116:232|95:203,1,60
219,193,137367,1,0,0:0:0:0:
229,276,137478,1,0,0:0:0:0:
162,327,137589,2,0,P|126:336|90:326,1,60
229,276,137811,1,0,0:0:0:0:
303,313,137922,1,0,0:0:0:0:
386,308,138033,2,0,P|412:291|423:243,1,60
414,181,138256,1,0,0:0:0:0:
330,169,138367,1,0,0:0:0:0:
266,114,138478,2,0,P|248:80|260:38,1,60
330,169,138700,1,0,0:0:0:0:
251,198,138811,1,0,0:0:0:0:
182,143,138922,6,0,P|161:121|156:59,1,60
321,71,139136,1,0,0:0:0:0:
399,99,139243,1,0,0:0:0:0:
414,181,139350,2,0,L|410:255,1,60
277,283,139564,1,0,0:0:0:0:
194,264,139672,1,0,0:0:0:0:
110,260,139779,2,0,P|71:264|40:286,1,60
151,334,139993,1,0,0:0:0:0:
194,264,140100,1,0,0:0:0:0:
277,283,140207,2,0,L|291:355,1,60
341,223,140422,1,0,0:0:0:0:
307,146,140529,1,0,0:0:0:0:
229,99,140640,6,0,P|192:92|152:112,1,60
252,206,140846,1,0,0:0:0:0:
341,223,140950,1,0,0:0:0:0:
388,154,141053,2,0,P|385:118|371:95,1,60
252,206,141260,1,0,0:0:0:0:
194,264,141364,1,0,0:0:0:0:
111,249,141467,2,0,P|86:227|73:191,1,60
145,77,141674,1,0,0:0:0:0:
209,23,141777,1,0,0:0:0:0:
290,43,141881,2,0,P|312:78|309:118,1,60
151,162,142088,1,0,0:0:0:0:
71,137,142191,1,0,0:0:0:0:
65,49,142295,6,0,P|88:13|143:4,1,60
220,112,142495,1,0,0:0:0:0:
303,123,142595,1,0,0:0:0:0:
370,72,142695,2,0,P|378:39|363:6,1,60
260,204,142895,1,0,0:0:0:0:
343,197,142995,1,0,0:0:0:0:
410,146,143095,2,0,P|444:147|471:195,1,60
408,324,143295,1,0,0:0:0:0:
335,280,143395,1,0,0:0:0:0:
409,240,143495,2,0,L|490:240,1,60
335,280,143695,2,0,L|245:278,1,60
408,324,143895,6,0,L|466:364,1,60
343,197,144088,2,0,L|278:162,1,60
370,72,144282,2,0,L|427:39,1,60
192,150,144475,2,0,L|124:186,1,60
409,145,144669,2,0,L|476:157,1,60
121,79,144862,2,0,L|47:60,1,60
234,232,145056,2,0,L|290:258,1,60
119,342,145249,2,0,L|40:383,1,60
409,145,145443,6,0,P|436:122|447:89,1,60
103,239,145630,2,0,P|76:262|65:295,1,60
330,50,145818,2,0,P|333:15|318:-15,1,60
181,333,146005,2,0,P|178:368|193:399,1,60
209,39,146193,2,0,P|186:12|153:1,1,60
303,345,146380,2,0,P|326:372|359:383,1,60
114,117,146568,2,0,P|79:114|48:129,1,60
397,266,146755,2,0,P|432:269|463:254,1,60
392,105,146943,5,0,0:0:0:0:
354,85,147031,1,0,0:0:0:0:
314,100,147119,1,0,0:0:0:0:
294,140,147207,1,0,0:0:0:0:
307,179,147295,1,0,0:0:0:0:
303,221,147384,1,0,0:0:0:0:
271,248,147472,1,0,0:0:0:0:
229,248,147560,1,0,0:0:0:0:
197,220,147648,1,0,0:0:0:0:
194,177,147737,1,0,0:0:0:0:
218,142,147825,1,0,0:0:0:0:
258,131,147913,1,0,0:0:0:0:
294,140,148001,1,0,0:0:0:0:
307,179,148090,1,0,0:0:0:0:
280,211,148178,1,0,0:0:0:0:
238,204,148266,1,0,0:0:0:0:
264,170,148354,1,0,0:0:0:0:
256,192,148439,12,0,149382,0:0:0:0:
256,192,149725,6,0,P|316:213|368:162,1,120
204,83,150068,2,0,B|181:62|161:71|161:71|131:109|70:86,1,120
22,187,150411,1,0,0:0:0:0:
107,333,150582,1,0,0:0:0:0:
108,24,150754,1,0,0:0:0:0:
108,24,150925,6,0,L|135:149,1,118.799999637451
205,169,151268,2,0,P|263:139|286:68,1,120
133,140,151611,1,0,0:0:0:0:
161,256,151782,1,0,0:0:0:0:
374,274,151954,1,0,0:0:0:0:
381,76,152125,1,0,0:0:0:0:
266,267,152296,1,0,0:0:0:0:
266,267,152382,1,0,0:0:0:0:
266,267,152468,6,0,B|231:282|231:282|223:330|143:339,1,120
379,193,152811,2,0,P|429:211|454:298,2,120
96,310,153325,1,0,0:0:0:0:
166,38,153496,1,0,0:0:0:0:
166,38,153668,6,0,B|121:45|102:83|102:83|97:120|77:95,1,118.799999637451
172,113,154011,2,0,B|205:97|236:106|236:106|282:107|252:63,1,120
48,249,154354,2,0,P|24:282|40:363,1,120
343,310,154696,1,0,0:0:0:0:
16,159,154868,1,0,0:0:0:0:
451,91,155039,1,0,0:0:0:0:
207,235,155211,5,0,0:0:0:0:
314,139,155382,1,0,0:0:0:0:
254,304,155554,1,0,0:0:0:0:
258,73,155725,1,0,0:0:0:0:
343,310,155896,1,0,0:0:0:0:
176,65,156068,1,0,0:0:0:0:
405,244,156239,1,0,0:0:0:0:
109,118,156411,1,0,0:0:0:0:
109,118,156754,6,0,P|161:146|239:118,1,118.799999637451
176,65,157096,2,0,P|112:37|46:60,1,120
53,332,157439,1,0,0:0:0:0:
368,236,157611,1,0,0:0:0:0:
120,244,157782,1,0,0:0:0:0:
120,244,157868,1,0,0:0:0:0:
120,244,157954,6,0,B|57:238|49:177|49:177|24:163,1,120
330,42,158296,1,0,0:0:0:0:
126,170,158468,1,0,0:0:0:0:
356,272,158639,1,0,0:0:0:0:
53,332,158811,1,0,0:0:0:0:
461,346,158982,1,0,0:0:0:0:
461,346,159154,6,0,P|495:248|485:158,1,180
396,167,159496,2,0,P|331:175|266:136,1,120
78,42,159839,2,0,P|35:83|35:168,1,120
258,316,160182,1,0,0:0:0:0:
216,44,160354,1,0,0:0:0:0:
18,242,160525,1,0,0:0:0:0:
389,147,160696,5,0,0:0:0:0:
387,295,160868,1,0,0:0:0:0:
387,295,160954,1,0,0:0:0:0:
387,295,161039,2,0,B|377:250|332:255|332:255|291:260|274:224,1,120
389,147,161382,2,0,P|441:97|416:34,1,120
316,31,161725,1,0,0:0:0:0:
324,215,161896,1,0,0:0:0:0:
125,343,162068,6,0,P|99:279|133:219,1,120
441,222,162411,1,0,0:0:0:0:
289,324,162582,1,0,0:0:0:0:
289,324,162668,1,0,0:0:0:0:
289,324,162754,2,0,L|153:275,1,120
439,93,163096,1,0,0:0:0:0:
228,67,163268,1,0,0:0:0:0:
300,237,163439,6,0,P|331:241|358:218,1,60
212,147,163611,2,0,P|181:143|154:166,1,60
337,106,163782,2,0,P|341:75|318:48,1,60
176,283,163954,2,0,P|172:314|267:341,1,120
272,100,164296,1,0,0:0:0:0:
130,217,164468,2,0,P|67:241|14:187,1,120
157,34,164811,5,0,0:0:0:0:
224,220,164982,1,0,0:0:0:0:
463,60,165154,1,0,0:0:0:0:
463,60,165325,2,0,B|486:92|477:145|477:145|462:173|501:163,1,120
132,135,165668,1,0,0:0:0:0:
428,227,165839,2,0,P|421:279|347:318,1,120
70,181,166182,6,0,P|55:120|101:64,1,120
330,128,166525,2,0,L|362:270,1,120
208,326,166868,1,0,0:0:0:0:
319,42,167039,1,0,0:0:0:0:
43,263,167211,2,0,P|58:319|131:333,1,120
258,187,167554,5,0,0:0:0:0:
153,81,167725,1,0,0:0:0:0:
369,316,167896,1,0,0:0:0:0:
453,202,168068,1,0,0:0:0:0:
120,222,168239,2,0,B|67:215|41:263|41:263|26:296|51:323|51:323|79:284,1,180
73,154,168582,2,0,L|79:16,1,120
385,61,168925,5,0,0:0:0:0:
482,129,169096,1,0,0:0:0:0:
258,325,169268,1,0,0:0:0:0:
142,294,169439,1,0,0:0:0:0:
394,142,169611,1,0,0:0:0:0:
465,45,169782,1,0,0:0:0:0:
213,254,169954,1,0,0:0:0:0:
180,369,170125,1,0,0:0:0:0:
57,57,170296,5,0,0:0:0:0:
97,363,170468,1,0,0:0:0:0:
308,30,170639,1,0,0:0:0:0:
398,353,170811,1,0,0:0:0:0:
224,116,170982,5,0,0:0:0:0:
181,117,171068,1,0,0:0:0:0:
151,147,171154,1,0,0:0:0:0:
144,188,171239,1,0,0:0:0:0:
163,225,171325,1,0,0:0:0:0:
203,235,171411,1,0,0:0:0:0:
241,218,171496,1,0,0:0:0:0:
283,216,171582,1,0,0:0:0:0:
312,246,171668,1,0,0:0:0:0:
