osu file format v4

[General]
AudioFilename: MC Mong ft. Park Jang Geun - Invincible.mp3
AudioLeadIn: 0
AudioHash: 9c90a48cb28c9264e5580fece8f87ea2
PreviewTime: -1
Countdown: 1
SampleSet: Soft
EditorBookmarks: 19195,30996,32357,37650,39767

[Metadata]
Title:Invincible
Artist:MC Mong ft. Park Jang Geun
Creator:EiJi
Version:Hard

[Difficulty]
HPDrainRate:5
CircleSize:5
OverallDifficulty:5
SliderMultiplier: 1.8
SliderTickRate: 2

[Events]
//Background and Video events
0,-100000,"mong.jpg"
//Break Periods
2,98330,106607
//Storyboard Layer 0 (Background)
//Storyboard Layer 1 (Failing)
//Storyboard Layer 2 (Passing)
//Storyboard Layer 3 (Foreground)
//Storyboard Sound Samples
//Background Colour Transformations
3,100,163,162,255

[TimingPoints]
148,1209.67741935484,4,2,0,100
20714,604.860606060606,4,2,0,100
20714,604.860606060606,4,2,0,100
206701,604.860606060606,4,2,0,0

[HitObjects]
80,88,20714,1,2
80,152,21017,1,2
80,216,21319,1,2
208,216,21924,5,2
208,152,22227,1,2
208,88,22529,1,2
208,152,22832,1,2
208,216,23134,1,2
208,152,23436,1,2
272,152,23739,1,2
400,152,24344,5,2
400,216,24646,1,2
400,280,24949,1,2
336,280,25251,1,2
336,216,25553,1,2
336,152,25856,1,2
336,216,26158,1,2
208,216,26763,5,2
208,152,27066,1,2
208,88,27368,1,2
208,216,27973,6,2,B|208:216|416:216,3,180
104,152,30392,6,2,B|104:152|240:152,1,90
264,152,30996,2,2,B|264:152|264:72,3,45
296,104,31601,2,2,B|296:104|296:144,3,45
296,149,32206,1,2
336,232,32509,6,2,B|336:232|336:128,1,90
336,112,32963,1,2
336,112,33114,1,2
336,112,33265,1,2
304,112,33417,1,2
304,112,33568,1,2
304,112,33719,1,2
272,112,33870,1,2
208,112,34173,6,2,B|208:112|208:144,5,45
120,112,35382,6,2,B|120:112|120:120,6,45
56,112,36592,6,2,B|56:112|56:144,5,45
56,224,37650,6,2,B|56:224|56:232,3,45
88,272,38254,2,2,B|88:272|88:200,3,45
120,224,38859,2,2,B|120:224|120:280,6,45
464,136,40221,6,2,B|464:136|464:168,3,45
400,184,40977,5,2
400,184,41129,1,2
400,184,41280,1,2
336,184,41582,5,2
336,184,41733,1,2
336,184,41885,2,2,B|336:184|200:184,1,90
248,184,42338,1,2
184,184,42641,6,2,B|184:184|184:208,3,45
184,288,43397,1,2
184,288,43548,1,2
184,288,43699,1,2
248,288,44002,1,2
248,288,44153,1,2
248,96,45060,6,2,B|248:96|288:96,6,45
248,160,46270,2,2,B|248:160|280:160,2,45
248,160,46724,2,2,B|248:160|128:160,1,90
160,160,47177,1,2
160,96,47480,6,2,B|160:96|200:96,13,45
248,192,49899,6,2,B|248:192|280:192,7,45
352,192,51260,6,2,B|352:192|352:80,3,90
160,96,53075,6,2,B|160:96|272:96,5,90
248,168,54888,1,2
248,240,55191,1,2
256,280,55494,5,2
256,216,55796,1,2
272,280,56099,1,2
272,216,56401,1,2
288,280,56704,1,2
256,192,57005,12,2,58215
88,184,59426,5,2
88,184,59728,1,2
152,184,60030,1,2
152,312,60635,5,2
152,312,60938,1,2
88,312,61240,1,2
88,312,61543,1,2
152,312,61845,1,2
216,312,62147,1,2
216,312,62450,1,2
344,312,63055,5,2
344,312,63357,1,2
408,312,63660,1,2
344,312,63962,1,2
344,312,64264,1,2
280,312,64567,1,2
216,312,64869,1,2
216,184,65474,5,2
216,120,65777,1,2
216,56,66079,1,2
216,120,66381,1,2
216,184,66684,6,2,B|216:184|216:376,3,180
344,360,69103,5,2
344,296,69406,2,2,B|344:296|344:264,2,45
344,232,70011,5,2
344,168,70313,1,2
344,104,70615,2,2,B|344:104|344:56,2,45
344,168,71220,5,2
344,232,71523,1,2
344,296,71825,2,2,B|344:296|344:336,2,45
280,296,72430,6,2,B|280:296|176:296,1,90
128,296,73035,2,2,B|128:296|128:256,2,45
128,232,73640,6,2,B|128:232|232:232,4,90
128,232,75001,1,2
128,232,75152,1,2
64,232,75454,1,2
64,232,75606,1,2
64,232,75757,1,2
64,168,76059,1,2
128,168,76362,2,2,B|128:168|320:168,3,180
320,296,78781,5,2
256,296,79084,2,2,B|256:296|136:296,1,90
168,232,79688,1,2
168,168,79991,1,2
168,104,80293,6,2,B|168:104|128:104,2,45
200,104,80747,1,2
232,104,80898,2,2,B|232:104|232:208,1,90
232,256,81503,6,2,B|232:256|280:256,12,45
232,184,83619,2,2,B|232:184|232:0,1,180
232,144,84829,1,2
120,240,85434,1,2
104,96,86039,6,2,B|104:96|104:128,2,45
136,96,86493,6,2,B|136:96|136:128,2,45
168,96,86947,6,2,B|168:96|168:128,2,45
200,96,87400,6,2,B|200:96|200:128,2,45
232,96,87854,2,2,B|232:96|440:96,1,180
408,224,89064,5,2
408,160,89366,1,2
408,224,89669,1,2
344,224,89971,2,2,B|344:224|208:224,2,90
344,160,90878,5,2
344,96,91181,1,2
312,96,91332,1,2
344,96,91483,1,2
408,96,91786,1,2
408,128,91937,1,2
408,96,92088,1,2
408,64,92239,1,2
408,32,92390,1,2
408,64,92542,1,2
440,64,92693,1,2
440,128,92995,5,2
440,192,93298,1,2
376,192,93600,2,2,B|376:192|376:128,9,45
344,144,95112,2,2,B|344:144|240:144,2,90
256,192,95717,12,2,98137
256,64,107814,5,2
304,96,108117,1,2
248,120,108419,1,2
336,200,109024,5,2
304,248,109327,1,2
352,248,109629,1,2
336,200,109931,1,2
304,248,110234,1,2
352,248,110536,1,2
352,248,110839,1,2
256,176,111444,5,2
272,120,111746,1,2
312,168,112048,1,2
256,176,112351,1,2
272,120,112653,1,2
312,168,112956,1,2
312,168,113258,1,2
264,280,113863,5,2
200,280,114165,1,2
264,280,114468,1,2
328,280,114770,1,2
264,280,115073,2,2,B|264:280|264:72,3,180
152,152,117492,5,2
152,216,117795,1,2
152,216,117946,1,2
152,248,118097,1,2
152,312,118399,5,2
216,312,118702,1,2
280,312,119004,5,2
280,312,119156,1,2
312,312,119307,1,2
376,312,119609,5,2
376,248,119912,1,2
376,184,120214,5,2
376,184,120365,1,2
376,152,120516,1,2
312,152,120819,5,2
312,152,120970,1,2
312,184,121121,1,2
248,184,121424,5,2
248,184,121575,1,2
248,152,121726,1,2
184,152,122029,5,2
120,152,122331,1,2
120,280,122936,1,2
248,280,123541,1,2
120,280,124146,1,2
184,280,124448,1,2
248,280,124751,6,2,B|248:280|248:64,3,180
256,192,127170,12,2,129589
264,72,130194,5,2
264,200,130799,1,2
264,72,131404,5,2
264,136,131706,1,2
264,200,132009,1,2
264,328,132614,5,2
264,200,133219,1,2
264,328,133823,5,2
264,264,134126,1,2
264,200,134428,1,2
264,136,134731,1,2
264,72,135033,1,2
264,200,135638,5,2
136,200,136243,5,2
200,200,136545,1,2
264,200,136848,2,2,B|264:200|368:200,6,90
136,200,139267,5,2
200,208,139570,1,2
232,208,139721,1,2
264,208,139872,2,2,B|264:208|472:208,1,180
440,272,140779,5,2
440,304,140931,1,2
408,304,141082,2,2,B|408:304|216:304,1,180
232,240,141989,5,2
232,208,142140,1,2
232,176,142291,2,2,B|232:176|424:176,1,180
408,112,143199,5,2
408,144,143350,1,2
408,176,143501,2,2,B|408:176|200:176,1,180
160,176,144408,5,2
128,176,144560,1,2
160,176,144711,2,2,B|160:176|160:376,1,180
224,360,145618,5,2
256,360,145769,1,2
288,360,145921,2,2,B|288:360|288:160,1,180
224,184,146828,1,2
192,184,146979,1,2
128,184,147282,1,2
160,184,147433,1,2
192,184,147584,1,2
224,184,147735,1,2
288,184,148038,1,2
352,184,148340,1,2
352,56,148945,6,2,B|352:56|248:56,1,90
262,56,149399,2,2,B|262:56|112:56,1,135
120,120,150155,2,2,B|120:120|120:312,1,180
184,304,151062,5,2
248,304,151364,1,2
312,304,151667,1,2
344,304,151818,1,2
280,304,152120,1,2
312,304,152272,1,2
376,304,152574,2,2,B|376:304|376:96,1,180
312,128,153481,5,2
248,128,153784,1,2
184,128,154086,1,2
160,128,154237,1,2
64,128,154691,1,2
64,192,154994,2,2,B|64:192|32:302|216:256,1,180
264,280,155901,5,2
328,280,156203,2,2,B|328:280|328:152,8,90
264,280,158925,1,2
264,280,159076,1,2
168,280,159530,1,2
104,280,159832,1,2
104,152,160437,5,2
104,88,160740,1,2
168,88,161042,1,2
168,152,161345,1,2
168,184,161496,1,2
168,120,161798,1,2
168,88,161949,1,2
208,136,162252,1,2
336,136,162857,5,2
400,136,163159,1,2
400,200,163462,1,2
336,200,163764,1,2
368,200,163915,1,2
304,200,164218,1,2
272,200,164369,1,2
208,200,164671,1,2
80,200,165276,5,2
80,264,165579,1,2
144,264,165881,2,2,B|144:264|240:264,8,90
208,264,168603,1,2
144,264,168905,1,2
144,136,169510,5,2
144,200,169813,1,2
144,136,170115,1,2
208,136,170417,1,2
144,136,170720,1,2
80,136,171022,1,2
144,136,171325,1,2
272,136,171930,5,2
272,200,172232,1,2
272,136,172535,1,2
208,136,172837,1,2
272,136,173139,1,2
336,136,173442,1,2
272,136,173744,1,2
272,264,174349,5,2
272,200,174652,1,2
272,136,174954,1,2
272,200,175256,1,2
272,264,175559,2,2,B|272:264|272:80,3,180
312,200,177978,5,2
312,136,178281,1,2
312,168,178432,1,2
312,136,178583,1,2
248,136,178886,5,2
312,136,179188,1,2
376,136,179490,5,2
376,104,179642,1,2
376,136,179793,1,2
312,136,180095,5,2
248,136,180398,1,2
248,200,180700,5,2
248,232,180851,1,2
248,200,181003,1,2
248,136,181305,5,2
248,200,181607,1,2
248,136,181910,5,2
216,136,182061,1,2
184,136,182212,2,2,B|184:136|184:240,2,90
248,136,183120,6,2,B|248:136|296:136,2,45
248,200,183724,6,2,B|248:200|296:200,2,45
240,264,184329,6,2,B|240:264|288:264,2,45
240,200,184934,5,2
240,136,185237,2,2,B|240:136|32:136,3,180
176,176,187656,5,2
240,176,187958,1,2
304,176,188261,1,2
232,280,188866,5,2
232,216,189168,1,2
264,272,189471,1,2
200,272,189773,1,2
200,208,190075,1,2
264,208,190378,1,2
232,264,190680,1,2
344,200,191285,5,2
344,264,191587,1,2
312,208,191890,1,2
376,208,192192,1,2
376,272,192494,1,2
312,272,192797,1,2
344,216,193099,1,2
344,344,193705,5,2
280,344,194007,1,2
344,328,194309,1,2
280,328,194612,1,2
280,264,194914,2,2,B|280:264|496:264,3,180
464,136,197334,5,2
400,136,197636,1,2
400,136,197787,1,2
368,136,197939,2,2,B|368:136|264:136,2,90
368,200,198846,5,2
368,232,198997,1,2
368,264,199148,2,2,B|368:264|264:264,2,90
368,328,200056,5,2
336,328,200207,1,2
304,328,200358,2,2,B|304:328|304:216,2,90
240,328,201265,5,2
208,328,201417,1,2
208,296,201568,2,2,B|208:296|312:296,2,90
144,288,202475,6,2,B|144:288|144:328,2,45
80,288,203080,6,2,B|80:288|80:336,2,45
16,288,203685,6,2,B|16:288|16:328,2,45
16,224,204290,5,2
80,224,204592,2,2,B|80:224|288:224,3,180
256,192,207012,12,2,207616
