osu file format v14

[General]
AudioFilename: MC MENTAL @ HIS BEST.mp3
AudioLeadIn: 1500
PreviewTime: 152000
Countdown: 0
SampleSet: None
StackLeniency: 0.7
Mode: 3
LetterboxInBreaks: 0
SpecialStyle: 0
WidescreenStoryboard: 0

[Editor]
DistanceSpacing: 1
BeatDivisor: 4
GridSize: 16
TimelineZoom: 1

[Metadata]
Title:MC MENTAL @ HIS BEST
TitleUnicode:MC MENTAL @ HIS BEST
Artist:MC Mental
ArtistUnicode:MC Mental
Creator:hi19hi19
Version:Hard
Source:
Tags:
BeatmapID:1071695
BeatmapSetID:503710

[Difficulty]
HPDrainRate:8
CircleSize:4
OverallDifficulty:8
ApproachRate:9
SliderMultiplier:1.4
SliderTickRate:1

[Events]
//Background and Video events
0,0,"MC MENTAL @ HIS BEST-bg.jpg",0,0
//Break Periods
//Storyboard Layer 0 (Background)
//Storyboard Layer 1 (Fail)
//Storyboard Layer 2 (Pass)
//Storyboard Layer 3 (Foreground)
//Storyboard Sound Samples

[TimingPoints]
250.98,341.322,4,1,0,15,1,0

[HitObjects]
320,0,1104,5,0,1:0:0:0:
448,0,1104,1,0,1:0:0:0:
320,0,1274,1,0,1:0:0:0:
448,0,1274,1,0,1:0:0:0:
64,0,1360,5,0,1:0:0:0:
320,0,1445,1,0,1:0:0:0:
64,0,1530,1,0,1:0:0:0:
192,0,1616,1,0,1:0:0:0:
320,0,1786,1,0,1:0:0:0:
64,0,1872,1,0,1:0:0:0:
320,0,1957,1,0,1:0:0:0:
448,0,2042,1,0,1:0:0:0:
192,0,2128,1,0,1:0:0:0:
448,0,2298,1,0,1:0:0:0:
320,0,2469,1,0,1:0:0:0:
192,0,2640,1,0,1:0:0:0:
64,0,2810,1,0,1:0:0:0:
320,0,2896,1,0,1:0:0:0:
192,0,2981,1,0,1:0:0:0:
448,0,3152,1,0,1:0:0:0:
64,0,3322,1,0,1:0:0:0:
192,0,3408,1,0,1:0:0:0:
320,0,3493,1,0,1:0:0:0:
192,0,3578,1,0,1:0:0:0:
64,0,3664,1,0,1:0:0:0:
320,0,3834,1,0,1:0:0:0:
448,0,4005,1,0,1:0:0:0:
448,0,4176,1,0,1:0:0:0:
448,0,4346,1,0,1:0:0:0:
448,0,4517,1,0,1:0:0:0:
320,0,4688,1,0,1:0:0:0:
192,0,4773,1,0,1:0:0:0:
64,0,4858,1,0,1:0:0:0:
192,0,5029,1,0,1:0:0:0:
192,0,5370,1,0,1:0:0:0:
64,0,5456,1,0,1:0:0:0:
320,0,5541,1,0,1:0:0:0:
64,0,5626,1,0,1:0:0:0:
448,0,5712,1,0,1:0:0:0:
320,0,5882,1,0,1:0:0:0:
64,0,5968,1,0,1:0:0:0:
192,0,6053,1,0,1:0:0:0:
448,0,6224,1,0,1:0:0:0:
320,0,6394,1,0,1:0:0:0:
192,0,6565,1,0,1:0:0:0:
64,0,6736,1,0,1:0:0:0:
448,0,6821,1,0,1:0:0:0:
192,0,6906,1,0,1:0:0:0:
448,0,6992,1,0,1:0:0:0:
320,0,7077,1,0,1:0:0:0:
192,0,7248,1,0,1:0:0:0:
64,0,7333,1,0,1:0:0:0:
192,0,7418,1,0,1:0:0:0:
320,0,7504,1,0,1:0:0:0:
448,0,7589,1,0,1:0:0:0:
192,0,7760,1,0,1:0:0:0:
320,0,7845,1,0,1:0:0:0:
64,0,7930,1,0,1:0:0:0:
448,0,8016,1,0,1:0:0:0:
320,0,8101,1,0,1:0:0:0:
320,0,8272,1,0,1:0:0:0:
320,0,8442,1,0,1:0:0:0:
320,0,8613,1,0,1:0:0:0:
192,0,8784,1,0,1:0:0:0:
64,0,9466,1,0,1:0:0:0:
448,0,9637,1,0,1:0:0:0:
320,0,9722,1,0,1:0:0:0:
192,0,9808,1,0,1:0:0:0:
64,0,9978,1,0,1:0:0:0:
448,0,10063,1,0,1:0:0:0:
192,0,10149,1,0,1:0:0:0:
320,0,10319,1,0,1:0:0:0:
448,0,10490,1,0,1:0:0:0:
192,0,10661,1,0,1:0:0:0:
320,0,10831,1,0,1:0:0:0:
448,0,11002,1,0,1:0:0:0:
64,0,11173,1,0,1:0:0:0:
320,0,11343,1,0,1:0:0:0:
192,0,11514,1,0,1:0:0:0:
448,0,11514,1,0,1:0:0:0:
448,0,11685,1,0,1:0:0:0:
64,0,11855,1,0,1:0:0:0:
320,0,11855,1,0,1:0:0:0:
64,0,12026,1,0,1:0:0:0:
192,0,12197,1,0,1:0:0:0:
320,0,12197,1,0,1:0:0:0:
448,0,12197,1,0,1:0:0:0:
64,0,12367,1,0,1:0:0:0:
448,0,12538,1,0,1:0:0:0:
64,0,12709,1,0,1:0:0:0:
192,0,12879,1,0,1:0:0:0:
320,0,13050,1,0,1:0:0:0:
64,0,13221,1,0,1:0:0:0:
448,0,13221,1,0,1:0:0:0:
192,0,13391,1,0,1:0:0:0:
320,0,13562,1,0,1:0:0:0:
64,0,13733,1,0,1:0:0:0:
448,0,13903,1,0,1:0:0:0:
64,0,14074,1,0,1:0:0:0:
320,0,14245,1,0,1:0:0:0:
448,0,14415,1,0,1:0:0:0:
64,0,14586,1,0,1:0:0:0:
320,0,14586,1,0,1:0:0:0:
192,0,14757,1,0,1:0:0:0:
64,0,14927,1,0,1:0:0:0:
448,0,15098,1,0,1:0:0:0:
192,0,15269,1,0,1:0:0:0:
448,0,15439,1,0,1:0:0:0:
64,0,15610,1,0,1:0:0:0:
192,0,15781,1,0,1:0:0:0:
64,0,15951,1,0,1:0:0:0:
320,0,15951,1,0,1:0:0:0:
448,0,16122,1,0,1:0:0:0:
192,0,16293,1,0,1:0:0:0:
320,0,16463,1,0,1:0:0:0:
64,0,16634,1,0,1:0:0:0:
320,0,16805,1,0,1:0:0:0:
320,0,17146,1,0,1:0:0:0:
64,0,17317,1,0,1:0:0:0:
448,0,17317,1,0,1:0:0:0:
192,0,17487,1,0,1:0:0:0:
320,0,17658,1,0,1:0:0:0:
64,0,17829,1,0,1:0:0:0:
448,0,17999,1,0,1:0:0:0:
64,0,18170,1,0,1:0:0:0:
192,0,18341,1,0,1:0:0:0:
320,0,18511,1,0,1:0:0:0:
64,0,18682,1,0,1:0:0:0:
448,0,18682,1,0,1:0:0:0:
192,0,18853,1,0,1:0:0:0:
320,0,19023,1,0,1:0:0:0:
64,0,19194,1,0,1:0:0:0:
448,0,19365,1,0,1:0:0:0:
64,0,19535,1,0,1:0:0:0:
320,0,19706,1,0,1:0:0:0:
448,0,19877,1,0,1:0:0:0:
64,0,20047,1,0,1:0:0:0:
320,0,20047,1,0,1:0:0:0:
64,0,20218,1,0,1:0:0:0:
192,0,20218,1,0,1:0:0:0:
192,0,20388,1,0,1:0:0:0:
320,0,20388,1,0,1:0:0:0:
448,0,20559,1,0,1:0:0:0:
192,0,20730,1,0,1:0:0:0:
448,0,20900,1,0,1:0:0:0:
64,0,21071,1,0,1:0:0:0:
320,0,21071,1,0,1:0:0:0:
192,0,21242,1,0,1:0:0:0:
320,0,21242,1,0,1:0:0:0:
192,0,21412,1,0,1:0:0:0:
448,0,21412,1,0,1:0:0:0:
320,0,21583,1,0,1:0:0:0:
448,0,21583,1,0,1:0:0:0:
64,0,21754,1,0,1:0:0:0:
192,0,21754,1,0,1:0:0:0:
192,0,21924,1,0,1:0:0:0:
320,0,21924,1,0,1:0:0:0:
64,0,22095,1,0,1:0:0:0:
448,0,22095,1,0,1:0:0:0:
192,0,22266,1,0,1:0:0:0:
320,0,22266,1,0,1:0:0:0:
192,0,22436,1,0,1:0:0:0:
448,0,22436,1,0,1:0:0:0:
320,0,22607,1,0,1:0:0:0:
448,0,22607,1,0,1:0:0:0:
192,0,22778,1,0,1:0:0:0:
448,0,22778,1,0,1:0:0:0:
64,0,22948,1,0,1:0:0:0:
320,0,22948,1,0,1:0:0:0:
192,0,23119,1,0,1:0:0:0:
320,0,23119,1,0,1:0:0:0:
448,0,23204,1,0,1:0:0:0:
64,0,23290,1,0,1:0:0:0:
320,0,23375,1,0,1:0:0:0:
192,0,23460,1,0,1:0:0:0:
448,0,23460,1,0,1:0:0:0:
320,0,23546,1,0,1:0:0:0:
64,0,23631,1,0,1:0:0:0:
448,0,23716,1,0,1:0:0:0:
64,0,23802,1,0,1:0:0:0:
320,0,23802,1,0,1:0:0:0:
448,0,23887,1,0,1:0:0:0:
192,0,23972,1,0,1:0:0:0:
320,0,24058,1,0,1:0:0:0:
64,0,24143,1,0,1:0:0:0:
192,0,24143,1,0,1:0:0:0:
448,0,24228,1,0,1:0:0:0:
64,0,24314,1,0,1:0:0:0:
192,0,24399,1,0,1:0:0:0:
64,0,24484,1,0,1:0:0:0:
320,0,24484,1,0,1:0:0:0:
448,0,24570,1,0,1:0:0:0:
192,0,24655,1,0,1:0:0:0:
320,0,24740,1,0,1:0:0:0:
64,0,24826,1,0,1:0:0:0:
448,0,24826,1,0,1:0:0:0:
192,0,24911,1,0,1:0:0:0:
64,0,24996,1,0,1:0:0:0:
448,0,25082,1,0,1:0:0:0:
192,0,25167,1,0,1:0:0:0:
320,0,25167,1,0,1:0:0:0:
64,0,25338,1,0,1:0:0:0:
320,0,25508,1,0,1:0:0:0:
448,0,25508,1,0,1:0:0:0:
192,0,25850,1,0,1:0:0:0:
448,0,25850,1,0,1:0:0:0:
64,0,25935,1,0,1:0:0:0:
320,0,26020,1,0,1:0:0:0:
192,0,26106,1,0,1:0:0:0:
320,0,26191,1,0,1:0:0:0:
448,0,26191,1,0,1:0:0:0:
64,0,26276,1,0,1:0:0:0:
192,0,26362,1,0,1:0:0:0:
64,0,26447,1,0,1:0:0:0:
320,0,26532,1,0,1:0:0:0:
448,0,26532,1,0,1:0:0:0:
192,0,26618,1,0,1:0:0:0:
320,0,26703,1,0,1:0:0:0:
192,0,26788,1,0,1:0:0:0:
64,0,26874,1,0,1:0:0:0:
448,0,26874,1,0,1:0:0:0:
320,0,27044,1,0,1:0:0:0:
192,0,27130,1,0,1:0:0:0:
64,0,27215,1,0,1:0:0:0:
448,0,27215,1,0,1:0:0:0:
320,0,27300,1,0,1:0:0:0:
192,0,27386,1,0,1:0:0:0:
448,0,27471,1,0,1:0:0:0:
64,0,27556,1,0,1:0:0:0:
192,0,27556,1,0,1:0:0:0:
320,0,27642,1,0,1:0:0:0:
64,0,27727,1,0,1:0:0:0:
448,0,27812,1,0,1:0:0:0:
192,0,27898,1,0,1:0:0:0:
320,0,27898,1,0,1:0:0:0:
64,0,27983,1,0,1:0:0:0:
192,0,28068,1,0,1:0:0:0:
448,0,28068,1,0,1:0:0:0:
64,0,28239,1,0,1:0:0:0:
448,0,28239,1,0,1:0:0:0:
320,0,28580,1,0,1:0:0:0:
448,0,28580,1,0,1:0:0:0:
192,0,28666,1,0,1:0:0:0:
320,0,28751,1,0,1:0:0:0:
64,0,28836,1,0,1:0:0:0:
192,0,28922,1,0,1:0:0:0:
448,0,28922,1,0,1:0:0:0:
320,0,29007,1,0,1:0:0:0:
192,0,29092,1,0,1:0:0:0:
64,0,29178,1,0,1:0:0:0:
320,0,29263,1,0,1:0:0:0:
448,0,29263,1,0,1:0:0:0:
64,0,29348,1,0,1:0:0:0:
448,0,29434,1,0,1:0:0:0:
320,0,29519,1,0,1:0:0:0:
64,0,29604,1,0,1:0:0:0:
192,0,29604,1,0,1:0:0:0:
320,0,29690,1,0,1:0:0:0:
448,0,29775,1,0,1:0:0:0:
192,0,29860,1,0,1:0:0:0:
320,0,29946,1,0,1:0:0:0:
448,0,29946,1,0,1:0:0:0:
64,0,30116,1,0,1:0:0:0:
320,0,30202,1,0,1:0:0:0:
64,0,30287,1,0,1:0:0:0:
192,0,30287,1,0,1:0:0:0:
448,0,30372,1,0,1:0:0:0:
320,0,30457,1,0,1:0:0:0:
192,0,30628,1,0,1:0:0:0:
448,0,30628,1,0,1:0:0:0:
192,0,30969,1,0,1:0:0:0:
320,0,31311,1,0,1:0:0:0:
448,0,31311,1,0,1:0:0:0:
192,0,31481,1,0,1:0:0:0:
64,0,31567,1,0,1:0:0:0:
320,0,31652,1,0,1:0:0:0:
448,0,31652,1,0,1:0:0:0:
192,0,31823,1,0,1:0:0:0:
320,0,31908,1,0,1:0:0:0:
64,0,31993,1,0,1:0:0:0:
448,0,31993,1,0,1:0:0:0:
320,0,32164,1,0,1:0:0:0:
192,0,32335,1,0,1:0:0:0:
448,0,32335,1,0,1:0:0:0:
64,0,32505,1,0,1:0:0:0:
192,0,32676,1,0,1:0:0:0:
320,0,32676,1,0,1:0:0:0:
448,0,32847,1,0,1:0:0:0:
64,0,33017,1,0,1:0:0:0:
320,0,33017,1,0,1:0:0:0:
192,0,33188,1,0,1:0:0:0:
64,0,33359,1,0,1:0:0:0:
448,0,33359,1,0,1:0:0:0:
320,0,33529,1,0,1:0:0:0:
64,0,33615,1,0,1:0:0:0:
192,0,33700,1,0,1:0:0:0:
448,0,33700,1,0,1:0:0:0:
192,0,33871,1,0,1:0:0:0:
320,0,33871,1,0,1:0:0:0:
64,0,34041,1,0,1:0:0:0:
192,0,34041,1,0,1:0:0:0:
320,0,34041,1,0,1:0:0:0:
448,0,34127,1,0,1:0:0:0:
192,0,34212,1,0,1:0:0:0:
448,0,34297,1,0,1:0:0:0:
64,0,34383,1,0,1:0:0:0:
320,0,34383,1,0,1:0:0:0:
192,0,34468,1,0,1:0:0:0:
320,0,34553,1,0,1:0:0:0:
448,0,34639,1,0,1:0:0:0:
64,0,34724,1,0,1:0:0:0:
192,0,34724,1,0,1:0:0:0:
320,0,34809,1,0,1:0:0:0:
192,0,34895,1,0,1:0:0:0:
448,0,34980,1,0,1:0:0:0:
64,0,35065,1,0,1:0:0:0:
320,0,35065,1,0,1:0:0:0:
192,0,35151,1,0,1:0:0:0:
320,0,35236,1,0,1:0:0:0:
192,0,35321,1,0,1:0:0:0:
64,0,35407,1,0,1:0:0:0:
320,0,35407,1,0,1:0:0:0:
448,0,35492,1,0,1:0:0:0:
192,0,35577,1,0,1:0:0:0:
320,0,35663,1,0,1:0:0:0:
64,0,35748,1,0,1:0:0:0:
448,0,35748,1,0,1:0:0:0:
192,0,35833,1,0,1:0:0:0:
320,0,35919,1,0,1:0:0:0:
448,0,36004,1,0,1:0:0:0:
64,0,36089,1,0,1:0:0:0:
320,0,36089,1,0,1:0:0:0:
448,0,36175,1,0,1:0:0:0:
192,0,36260,1,0,1:0:0:0:
320,0,36345,1,0,1:0:0:0:
64,0,36431,1,0,1:0:0:0:
192,0,36431,1,0,1:0:0:0:
448,0,36516,1,0,1:0:0:0:
64,0,36601,1,0,1:0:0:0:
192,0,36687,1,0,1:0:0:0:
64,0,36772,1,0,1:0:0:0:
320,0,36772,1,0,1:0:0:0:
448,0,36857,1,0,1:0:0:0:
192,0,36943,1,0,1:0:0:0:
320,0,37028,1,0,1:0:0:0:
64,0,37113,1,0,1:0:0:0:
448,0,37113,1,0,1:0:0:0:
320,0,37199,1,0,1:0:0:0:
192,0,37284,1,0,1:0:0:0:
448,0,37369,1,0,1:0:0:0:
64,0,37455,1,0,1:0:0:0:
320,0,37455,1,0,1:0:0:0:
192,0,37540,1,0,1:0:0:0:
64,0,37625,1,0,1:0:0:0:
448,0,37711,1,0,1:0:0:0:
192,0,37796,1,0,1:0:0:0:
320,0,37796,1,0,1:0:0:0:
448,0,37881,1,0,1:0:0:0:
64,0,37967,1,0,1:0:0:0:
320,0,38052,1,0,1:0:0:0:
192,0,38137,1,0,1:0:0:0:
448,0,38137,1,0,1:0:0:0:
320,0,38223,1,0,1:0:0:0:
64,0,38308,1,0,1:0:0:0:
192,0,38393,1,0,1:0:0:0:
64,0,38479,1,0,1:0:0:0:
320,0,38479,1,0,1:0:0:0:
448,0,38564,1,0,1:0:0:0:
192,0,38649,1,0,1:0:0:0:
64,0,38735,1,0,1:0:0:0:
192,0,38820,1,0,1:0:0:0:
320,0,38820,1,0,1:0:0:0:
448,0,38905,1,0,1:0:0:0:
320,0,38991,1,0,1:0:0:0:
64,0,39161,1,0,1:0:0:0:
192,0,39161,1,0,1:0:0:0:
64,0,39503,1,0,1:0:0:0:
448,0,39673,1,0,1:0:0:0:
192,0,39844,1,0,1:0:0:0:
448,0,39844,1,0,1:0:0:0:
448,0,40015,1,0,1:0:0:0:
192,0,40185,1,0,1:0:0:0:
448,0,40185,1,0,1:0:0:0:
448,0,40356,1,0,1:0:0:0:
192,0,40526,1,0,1:0:0:0:
448,0,40526,1,0,1:0:0:0:
448,0,40697,1,0,1:0:0:0:
64,0,40868,1,0,1:0:0:0:
320,0,40868,1,0,1:0:0:0:
192,0,40953,1,0,1:0:0:0:
320,0,41038,1,0,1:0:0:0:
64,0,41209,1,0,1:0:0:0:
448,0,41209,1,0,1:0:0:0:
192,0,41380,1,0,1:0:0:0:
320,0,41550,1,0,1:0:0:0:
448,0,41550,1,0,1:0:0:0:
320,0,41892,1,0,1:0:0:0:
64,0,42233,1,0,1:0:0:0:
192,0,42233,1,0,1:0:0:0:
320,0,42233,1,0,1:0:0:0:
448,0,42318,1,0,1:0:0:0:
192,0,42404,1,0,1:0:0:0:
64,0,42574,1,0,1:0:0:0:
320,0,42574,1,0,1:0:0:0:
448,0,42745,1,0,1:0:0:0:
320,0,42830,1,0,1:0:0:0:
64,0,42916,1,0,1:0:0:0:
192,0,42916,1,0,1:0:0:0:
320,0,43001,1,0,1:0:0:0:
64,0,43086,1,0,1:0:0:0:
192,0,43172,1,0,1:0:0:0:
320,0,43257,1,0,1:0:0:0:
448,0,43257,1,0,1:0:0:0:
64,0,43598,1,0,1:0:0:0:
192,0,43598,1,0,1:0:0:0:
448,0,43598,1,0,1:0:0:0:
192,0,43940,1,0,1:0:0:0:
320,0,43940,1,0,1:0:0:0:
64,0,44281,1,0,1:0:0:0:
192,0,44281,1,0,1:0:0:0:
320,0,44281,1,0,1:0:0:0:
320,0,44452,1,0,1:0:0:0:
448,0,44452,1,0,1:0:0:0:
64,0,44537,1,0,1:0:0:0:
192,0,44622,1,0,1:0:0:0:
448,0,44622,1,0,1:0:0:0:
64,0,44793,1,0,1:0:0:0:
320,0,44793,1,0,1:0:0:0:
192,0,44964,1,0,1:0:0:0:
320,0,44964,1,0,1:0:0:0:
448,0,44964,1,0,1:0:0:0:
64,0,45134,1,0,1:0:0:0:
192,0,45305,1,0,1:0:0:0:
320,0,45305,1,0,1:0:0:0:
64,0,45476,1,0,1:0:0:0:
192,0,45646,1,0,1:0:0:0:
320,0,45646,1,0,1:0:0:0:
64,0,45817,1,0,1:0:0:0:
320,0,45902,1,0,1:0:0:0:
192,0,45988,1,0,1:0:0:0:
320,0,46073,1,0,1:0:0:0:
64,0,46158,1,0,1:0:0:0:
320,0,46329,1,0,1:0:0:0:
448,0,46329,1,0,1:0:0:0:
192,0,46500,1,0,1:0:0:0:
320,0,46670,1,0,1:0:0:0:
448,0,46670,1,0,1:0:0:0:
192,0,46841,1,0,1:0:0:0:
320,0,47012,1,0,1:0:0:0:
448,0,47012,1,0,1:0:0:0:
192,0,47182,1,0,1:0:0:0:
448,0,47268,1,0,1:0:0:0:
320,0,47353,1,0,1:0:0:0:
448,0,47438,1,0,1:0:0:0:
192,0,47524,1,0,1:0:0:0:
64,0,47694,1,0,1:0:0:0:
192,0,47694,1,0,1:0:0:0:
448,0,47865,1,0,1:0:0:0:
64,0,48036,1,0,1:0:0:0:
192,0,48036,1,0,1:0:0:0:
448,0,48206,1,0,1:0:0:0:
64,0,48377,1,0,1:0:0:0:
192,0,48377,1,0,1:0:0:0:
448,0,48548,1,0,1:0:0:0:
192,0,48633,1,0,1:0:0:0:
64,0,48718,1,0,1:0:0:0:
192,0,48804,1,0,1:0:0:0:
448,0,48889,1,0,1:0:0:0:
64,0,49060,1,0,1:0:0:0:
320,0,49060,1,0,1:0:0:0:
448,0,49230,1,0,1:0:0:0:
64,0,49401,1,0,1:0:0:0:
320,0,49401,1,0,1:0:0:0:
448,0,49572,1,0,1:0:0:0:
64,0,49742,1,0,1:0:0:0:
320,0,49742,1,0,1:0:0:0:
448,0,49913,1,0,1:0:0:0:
64,0,49998,1,0,1:0:0:0:
320,0,50084,1,0,1:0:0:0:
64,0,50169,1,0,1:0:0:0:
448,0,50254,1,0,1:0:0:0:
192,0,50425,1,0,1:0:0:0:
320,0,50425,1,0,1:0:0:0:
64,0,50595,1,0,1:0:0:0:
192,0,50766,1,0,1:0:0:0:
320,0,50766,1,0,1:0:0:0:
64,0,50937,1,0,1:0:0:0:
192,0,51107,1,0,1:0:0:0:
320,0,51107,1,0,1:0:0:0:
64,0,51278,1,0,1:0:0:0:
320,0,51363,1,0,1:0:0:0:
192,0,51449,1,0,1:0:0:0:
320,0,51534,1,0,1:0:0:0:
64,0,51619,1,0,1:0:0:0:
320,0,51790,1,0,1:0:0:0:
448,0,51790,1,0,1:0:0:0:
192,0,51961,1,0,1:0:0:0:
320,0,52131,1,0,1:0:0:0:
448,0,52131,1,0,1:0:0:0:
192,0,52302,1,0,1:0:0:0:
320,0,52473,1,0,1:0:0:0:
448,0,52473,1,0,1:0:0:0:
192,0,52643,1,0,1:0:0:0:
448,0,52729,1,0,1:0:0:0:
320,0,52814,1,0,1:0:0:0:
448,0,52899,1,0,1:0:0:0:
192,0,52985,1,0,1:0:0:0:
320,0,53155,1,0,1:0:0:0:
448,0,53155,1,0,1:0:0:0:
64,0,53326,1,0,1:0:0:0:
320,0,53497,1,0,1:0:0:0:
448,0,53497,1,0,1:0:0:0:
64,0,53667,1,0,1:0:0:0:
320,0,53838,1,0,1:0:0:0:
448,0,53838,1,0,1:0:0:0:
64,0,54009,1,0,1:0:0:0:
448,0,54094,1,0,1:0:0:0:
320,0,54179,1,0,1:0:0:0:
448,0,54265,1,0,1:0:0:0:
64,0,54350,1,0,1:0:0:0:
192,0,54521,1,0,1:0:0:0:
320,0,54521,1,0,1:0:0:0:
320,0,54691,1,0,1:0:0:0:
192,0,54862,1,0,1:0:0:0:
320,0,54862,1,0,1:0:0:0:
192,0,55033,1,0,1:0:0:0:
192,0,55203,1,0,1:0:0:0:
320,0,55203,1,0,1:0:0:0:
64,0,55374,1,0,1:0:0:0:
320,0,55459,1,0,1:0:0:0:
192,0,55545,1,0,1:0:0:0:
448,0,55545,1,0,1:0:0:0:
448,0,55715,1,0,1:0:0:0:
64,0,55886,1,0,1:0:0:0:
192,0,55886,1,0,1:0:0:0:
320,0,55886,1,0,1:0:0:0:
320,0,56057,1,0,1:0:0:0:
64,0,56227,1,0,1:0:0:0:
448,0,56227,1,0,1:0:0:0:
192,0,56398,1,0,1:0:0:0:
64,0,56569,1,0,1:0:0:0:
320,0,56569,1,0,1:0:0:0:
448,0,56739,1,0,1:0:0:0:
192,0,56910,1,0,1:0:0:0:
320,0,56910,1,0,1:0:0:0:
448,0,57081,1,0,1:0:0:0:
64,0,57251,1,0,1:0:0:0:
320,0,57251,1,0,1:0:0:0:
192,0,57422,1,0,1:0:0:0:
64,0,57593,1,0,1:0:0:0:
448,0,57593,1,0,1:0:0:0:
320,0,57763,1,0,1:0:0:0:
192,0,57934,1,0,1:0:0:0:
448,0,57934,1,0,1:0:0:0:
448,0,58275,1,0,1:0:0:0:
64,0,58617,1,0,1:0:0:0:
192,0,58617,1,0,1:0:0:0:
320,0,58787,1,0,1:0:0:0:
64,0,58958,1,0,1:0:0:0:
448,0,58958,1,0,1:0:0:0:
192,0,59129,1,0,1:0:0:0:
320,0,59299,1,0,1:0:0:0:
448,0,59299,1,0,1:0:0:0:
64,0,59470,1,0,1:0:0:0:
192,0,59641,1,0,1:0:0:0:
448,0,59641,1,0,1:0:0:0:
320,0,59811,1,0,1:0:0:0:
64,0,59982,1,0,1:0:0:0:
448,0,59982,1,0,1:0:0:0:
192,0,60153,1,0,1:0:0:0:
192,0,60323,1,0,1:0:0:0:
320,0,60323,1,0,1:0:0:0:
448,0,60494,1,0,1:0:0:0:
64,0,60665,1,0,1:0:0:0:
192,0,60665,1,0,1:0:0:0:
320,0,60750,1,0,1:0:0:0:
448,0,60835,1,0,1:0:0:0:
64,0,61006,1,0,1:0:0:0:
320,0,61006,1,0,1:0:0:0:
192,0,61176,1,0,1:0:0:0:
64,0,61262,1,0,1:0:0:0:
320,0,61347,1,0,1:0:0:0:
448,0,61347,1,0,1:0:0:0:
192,0,61432,1,0,1:0:0:0:
320,0,61518,1,0,1:0:0:0:
192,0,61688,1,0,1:0:0:0:
448,0,61688,1,0,1:0:0:0:
64,0,61859,1,0,1:0:0:0:
448,0,61944,1,0,1:0:0:0:
64,0,62030,1,0,1:0:0:0:
192,0,62030,1,0,1:0:0:0:
320,0,62115,1,0,1:0:0:0:
192,0,62200,1,0,1:0:0:0:
64,0,62371,1,0,1:0:0:0:
448,0,62371,1,0,1:0:0:0:
320,0,62542,1,0,1:0:0:0:
64,0,62712,1,0,1:0:0:0:
448,0,62712,1,0,1:0:0:0:
192,0,62798,1,0,1:0:0:0:
320,0,62883,1,0,1:0:0:0:
448,0,62968,1,0,1:0:0:0:
64,0,63054,1,0,1:0:0:0:
320,0,63054,1,0,1:0:0:0:
448,0,63224,1,0,1:0:0:0:
64,0,63395,1,0,1:0:0:0:
192,0,63395,1,0,1:0:0:0:
320,0,63566,1,0,1:0:0:0:
64,0,63736,1,0,1:0:0:0:
448,0,63736,1,0,1:0:0:0:
320,0,63907,1,0,1:0:0:0:
64,0,64078,1,0,1:0:0:0:
192,0,64078,1,0,1:0:0:0:
448,0,64078,1,0,1:0:0:0:
320,0,64163,1,0,1:0:0:0:
192,0,64248,1,0,1:0:0:0:
64,0,64334,1,0,1:0:0:0:
320,0,64419,1,0,1:0:0:0:
448,0,64419,1,0,1:0:0:0:
192,0,64590,1,0,1:0:0:0:
448,0,64675,1,0,1:0:0:0:
64,0,64760,1,0,1:0:0:0:
192,0,64760,1,0,1:0:0:0:
320,0,64760,1,0,1:0:0:0:
320,0,64931,1,0,1:0:0:0:
64,0,65102,1,0,1:0:0:0:
448,0,65102,1,0,1:0:0:0:
64,0,65272,1,0,1:0:0:0:
192,0,65443,1,0,1:0:0:0:
320,0,65443,1,0,1:0:0:0:
448,0,65443,1,0,1:0:0:0:
448,0,65614,1,0,1:0:0:0:
320,0,65699,1,0,1:0:0:0:
64,0,65784,1,0,1:0:0:0:
192,0,65784,1,0,1:0:0:0:
448,0,65955,1,0,1:0:0:0:
64,0,66126,1,0,1:0:0:0:
320,0,66126,1,0,1:0:0:0:
448,0,66126,1,0,1:0:0:0:
192,0,66211,1,0,1:0:0:0:
320,0,66296,1,0,1:0:0:0:
64,0,66382,1,0,1:0:0:0:
448,0,66382,1,0,1:0:0:0:
192,0,66467,1,0,1:0:0:0:
320,0,66467,1,0,1:0:0:0:
192,0,66638,1,0,1:0:0:0:
448,0,66638,1,0,1:0:0:0:
64,0,66808,1,0,1:0:0:0:
192,0,66808,1,0,1:0:0:0:
320,0,66808,1,0,1:0:0:0:
320,0,66979,1,0,1:0:0:0:
64,0,67150,1,0,1:0:0:0:
192,0,67150,1,0,1:0:0:0:
320,0,67320,1,0,1:0:0:0:
64,0,67491,1,0,1:0:0:0:
192,0,67491,1,0,1:0:0:0:
320,0,67662,1,0,1:0:0:0:
448,0,67832,128,0,67946:0:0:0:0:
64,0,68174,1,0,1:0:0:0:
192,0,68174,1,0,1:0:0:0:
320,0,68344,1,0,1:0:0:0:
64,0,68515,1,0,1:0:0:0:
192,0,68515,1,0,1:0:0:0:
320,0,68686,1,0,1:0:0:0:
64,0,68856,1,0,1:0:0:0:
192,0,68856,1,0,1:0:0:0:
320,0,69027,1,0,1:0:0:0:
192,0,69198,1,0,1:0:0:0:
448,0,69368,1,0,1:0:0:0:
64,0,69539,1,0,1:0:0:0:
192,0,69539,1,0,1:0:0:0:
320,0,69710,1,0,1:0:0:0:
64,0,69880,1,0,1:0:0:0:
192,0,69880,1,0,1:0:0:0:
320,0,70051,1,0,1:0:0:0:
64,0,70222,1,0,1:0:0:0:
192,0,70222,1,0,1:0:0:0:
320,0,70392,1,0,1:0:0:0:
192,0,70563,1,0,1:0:0:0:
448,0,70563,1,0,1:0:0:0:
192,0,70734,1,0,1:0:0:0:
320,0,70734,1,0,1:0:0:0:
64,0,70904,1,0,1:0:0:0:
192,0,70904,1,0,1:0:0:0:
320,0,71075,1,0,1:0:0:0:
64,0,71245,1,0,1:0:0:0:
192,0,71245,1,0,1:0:0:0:
320,0,71416,1,0,1:0:0:0:
64,0,71587,1,0,1:0:0:0:
192,0,71587,1,0,1:0:0:0:
320,0,71757,1,0,1:0:0:0:
448,0,71757,1,0,1:0:0:0:
192,0,71928,1,0,1:0:0:0:
448,0,71928,1,0,1:0:0:0:
64,0,72269,1,0,1:0:0:0:
192,0,72269,1,0,1:0:0:0:
320,0,72440,1,0,1:0:0:0:
448,0,72611,128,0,72725:0:0:0:0:
64,0,72952,1,0,1:0:0:0:
192,0,72952,1,0,1:0:0:0:
320,0,73123,1,0,1:0:0:0:
192,0,73293,1,0,1:0:0:0:
448,0,73464,1,0,1:0:0:0:
64,0,73635,1,0,1:0:0:0:
192,0,73635,1,0,1:0:0:0:
320,0,73805,1,0,1:0:0:0:
448,0,73976,1,0,1:0:0:0:
448,0,74147,1,0,1:0:0:0:
64,0,74317,1,0,1:0:0:0:
192,0,74317,1,0,1:0:0:0:
320,0,74488,1,0,1:0:0:0:
448,0,74659,1,0,1:0:0:0:
320,0,74744,1,0,1:0:0:0:
192,0,74829,1,0,1:0:0:0:
64,0,75000,1,0,1:0:0:0:
192,0,75000,1,0,1:0:0:0:
320,0,75171,1,0,1:0:0:0:
448,0,75341,128,0,75455:0:0:0:0:
64,0,75683,1,0,1:0:0:0:
192,0,75683,1,0,1:0:0:0:
320,0,75853,1,0,1:0:0:0:
192,0,76024,1,0,1:0:0:0:
448,0,76195,1,0,1:0:0:0:
64,0,76365,1,0,1:0:0:0:
192,0,76365,1,0,1:0:0:0:
320,0,76536,1,0,1:0:0:0:
448,0,76707,1,0,1:0:0:0:
448,0,76877,1,0,1:0:0:0:
64,0,77048,1,0,1:0:0:0:
192,0,77048,1,0,1:0:0:0:
320,0,77219,1,0,1:0:0:0:
448,0,77389,1,0,1:0:0:0:
320,0,77475,1,0,1:0:0:0:
192,0,77560,1,0,1:0:0:0:
64,0,77731,1,0,1:0:0:0:
192,0,77731,1,0,1:0:0:0:
448,0,77901,128,0,78015:0:0:0:0:
64,0,78072,1,0,1:0:0:0:
192,0,78072,1,0,1:0:0:0:
320,0,78243,1,0,1:0:0:0:
64,0,78413,1,0,1:0:0:0:
192,0,78413,1,0,1:0:0:0:
448,0,78584,1,0,1:0:0:0:
64,0,78755,1,0,1:0:0:0:
192,0,78755,1,0,1:0:0:0:
448,0,78925,1,0,1:0:0:0:
320,0,79011,1,0,1:0:0:0:
64,0,79096,1,0,1:0:0:0:
192,0,79096,1,0,1:0:0:0:
448,0,79267,128,0,79380:0:0:0:0:
64,0,79437,1,0,1:0:0:0:
192,0,79437,1,0,1:0:0:0:
320,0,79608,1,0,1:0:0:0:
64,0,79779,1,0,1:0:0:0:
448,0,79779,1,0,1:0:0:0:
192,0,80120,1,0,1:0:0:0:
320,0,80120,1,0,1:0:0:0:
64,0,80461,1,0,1:0:0:0:
192,0,80461,1,0,1:0:0:0:
448,0,80632,128,0,80746:0:0:0:0:
64,0,80803,1,0,1:0:0:0:
192,0,80803,1,0,1:0:0:0:
320,0,80973,1,0,1:0:0:0:
64,0,81144,1,0,1:0:0:0:
192,0,81144,1,0,1:0:0:0:
448,0,81314,1,0,1:0:0:0:
64,0,81485,1,0,1:0:0:0:
192,0,81485,1,0,1:0:0:0:
448,0,81656,1,0,1:0:0:0:
320,0,81741,1,0,1:0:0:0:
64,0,81826,1,0,1:0:0:0:
192,0,81826,1,0,1:0:0:0:
448,0,81997,128,0,82111:0:0:0:0:
64,0,82168,1,0,1:0:0:0:
192,0,82168,1,0,1:0:0:0:
320,0,82338,1,0,1:0:0:0:
64,0,82509,1,0,1:0:0:0:
192,0,82509,1,0,1:0:0:0:
448,0,82680,1,0,1:0:0:0:
64,0,82850,1,0,1:0:0:0:
192,0,82850,1,0,1:0:0:0:
448,0,83021,1,0,1:0:0:0:
320,0,83106,1,0,1:0:0:0:
64,0,83192,1,0,1:0:0:0:
448,0,83192,128,0,83249:0:0:0:0:
64,0,83362,1,0,1:0:0:0:
320,0,83362,1,0,1:0:0:0:
192,0,83533,1,0,1:0:0:0:
320,0,83533,1,0,1:0:0:0:
192,0,83704,1,0,1:0:0:0:
448,0,83704,1,0,1:0:0:0:
64,0,83874,128,0,83931:0:0:0:0:
448,0,83874,1,0,1:0:0:0:
192,0,84045,1,0,1:0:0:0:
320,0,84045,1,0,1:0:0:0:
320,0,84216,1,0,1:0:0:0:
448,0,84216,1,0,1:0:0:0:
64,0,84386,1,0,1:0:0:0:
192,0,84386,1,0,1:0:0:0:
448,0,84500,1,0,1:0:0:0:
320,0,84529,1,0,1:0:0:0:
64,0,84557,1,0,1:0:0:0:
192,0,84557,128,0,84614:0:0:0:0:
64,0,84728,1,0,1:0:0:0:
448,0,84728,1,0,1:0:0:0:
192,0,84898,1,0,1:0:0:0:
320,0,84898,1,0,1:0:0:0:
64,0,85069,1,0,1:0:0:0:
320,0,85069,1,0,1:0:0:0:
192,0,85240,128,0,85297:0:0:0:0:
448,0,85240,1,0,1:0:0:0:
64,0,85410,1,0,1:0:0:0:
448,0,85410,1,0,1:0:0:0:
64,0,85581,1,0,1:0:0:0:
320,0,85581,1,0,1:0:0:0:
192,0,85752,1,0,1:0:0:0:
320,0,85752,1,0,1:0:0:0:
320,0,85922,128,0,85979:0:0:0:0:
448,0,85922,1,0,1:0:0:0:
64,0,86093,1,0,1:0:0:0:
192,0,86093,1,0,1:0:0:0:
192,0,86264,1,0,1:0:0:0:
448,0,86264,1,0,1:0:0:0:
64,0,86434,1,0,1:0:0:0:
448,0,86434,1,0,1:0:0:0:
64,0,86605,128,0,86662:0:0:0:0:
320,0,86605,1,0,1:0:0:0:
192,0,86776,1,0,1:0:0:0:
320,0,86776,1,0,1:0:0:0:
192,0,86946,1,0,1:0:0:0:
448,0,86946,1,0,1:0:0:0:
192,0,87117,1,0,1:0:0:0:
320,0,87117,1,0,1:0:0:0:
64,0,87288,1,0,1:0:0:0:
448,0,87288,128,0,87345:0:0:0:0:
320,0,87373,1,0,1:0:0:0:
192,0,87458,1,0,1:0:0:0:
320,0,87544,1,0,1:0:0:0:
64,0,87629,1,0,1:0:0:0:
448,0,87629,128,0,87686:0:0:0:0:
192,0,87714,1,0,1:0:0:0:
320,0,87800,1,0,1:0:0:0:
64,0,87885,128,0,87942:0:0:0:0:
192,0,87885,1,0,1:0:0:0:
320,0,87970,1,0,1:0:0:0:
448,0,87970,128,0,88027:0:0:0:0:
192,0,88056,1,0,1:0:0:0:
320,0,88141,1,0,1:0:0:0:
448,0,88141,128,0,88198:0:0:0:0:
192,0,88226,1,0,1:0:0:0:
64,0,88312,1,0,1:0:0:0:
448,0,88312,128,0,88368:0:0:0:0:
320,0,88397,1,0,1:0:0:0:
192,0,88482,1,0,1:0:0:0:
320,0,88568,1,0,1:0:0:0:
64,0,88653,1,0,1:0:0:0:
192,0,88653,1,0,1:0:0:0:
448,0,88653,1,0,1:0:0:0:
320,0,88738,1,0,1:0:0:0:
448,0,88824,1,0,1:0:0:0:
64,0,88994,1,0,1:0:0:0:
192,0,88994,1,0,1:0:0:0:
320,0,89080,1,0,1:0:0:0:
448,0,89165,1,0,1:0:0:0:
64,0,89336,1,0,1:0:0:0:
192,0,89336,1,0,1:0:0:0:
320,0,89421,1,0,1:0:0:0:
448,0,89506,1,0,1:0:0:0:
64,0,89677,1,0,1:0:0:0:
320,0,89677,1,0,1:0:0:0:
192,0,89762,1,0,1:0:0:0:
448,0,89848,1,0,1:0:0:0:
64,0,90018,1,0,1:0:0:0:
192,0,90018,1,0,1:0:0:0:
320,0,90104,1,0,1:0:0:0:
448,0,90189,1,0,1:0:0:0:
64,0,90360,1,0,1:0:0:0:
192,0,90360,1,0,1:0:0:0:
320,0,90445,1,0,1:0:0:0:
448,0,90530,1,0,1:0:0:0:
64,0,90701,1,0,1:0:0:0:
192,0,90701,1,0,1:0:0:0:
320,0,90786,1,0,1:0:0:0:
448,0,90872,1,0,1:0:0:0:
192,0,91042,1,0,1:0:0:0:
448,0,91042,1,0,1:0:0:0:
64,0,91213,1,0,1:0:0:0:
320,0,91213,1,0,1:0:0:0:
64,0,91383,1,0,1:0:0:0:
192,0,91383,1,0,1:0:0:0:
320,0,91469,1,0,1:0:0:0:
448,0,91554,1,0,1:0:0:0:
64,0,91725,1,0,1:0:0:0:
192,0,91725,1,0,1:0:0:0:
320,0,91810,1,0,1:0:0:0:
448,0,91895,1,0,1:0:0:0:
64,0,92066,1,0,1:0:0:0:
192,0,92066,1,0,1:0:0:0:
320,0,92151,1,0,1:0:0:0:
448,0,92237,1,0,1:0:0:0:
64,0,92407,1,0,1:0:0:0:
192,0,92407,1,0,1:0:0:0:
320,0,92493,1,0,1:0:0:0:
448,0,92578,1,0,1:0:0:0:
64,0,92749,1,0,1:0:0:0:
448,0,92749,1,0,1:0:0:0:
64,0,92919,1,0,1:0:0:0:
320,0,92919,1,0,1:0:0:0:
192,0,93090,1,0,1:0:0:0:
320,0,93090,1,0,1:0:0:0:
64,0,93261,1,0,1:0:0:0:
192,0,93261,1,0,1:0:0:0:
192,0,93431,1,0,1:0:0:0:
320,0,93431,1,0,1:0:0:0:
320,0,93602,1,0,1:0:0:0:
448,0,93602,1,0,1:0:0:0:
64,0,93773,1,0,1:0:0:0:
448,0,93773,1,0,1:0:0:0:
192,0,93943,1,0,1:0:0:0:
448,0,93943,1,0,1:0:0:0:
64,0,94114,1,0,1:0:0:0:
192,0,94114,1,0,1:0:0:0:
320,0,94199,1,0,1:0:0:0:
448,0,94285,1,0,1:0:0:0:
64,0,94455,1,0,1:0:0:0:
192,0,94455,1,0,1:0:0:0:
320,0,94541,1,0,1:0:0:0:
448,0,94626,1,0,1:0:0:0:
64,0,94797,1,0,1:0:0:0:
192,0,94797,1,0,1:0:0:0:
320,0,94882,1,0,1:0:0:0:
448,0,94967,1,0,1:0:0:0:
64,0,95138,1,0,1:0:0:0:
320,0,95138,1,0,1:0:0:0:
192,0,95223,1,0,1:0:0:0:
448,0,95309,1,0,1:0:0:0:
64,0,95479,1,0,1:0:0:0:
192,0,95479,1,0,1:0:0:0:
320,0,95565,1,0,1:0:0:0:
448,0,95650,1,0,1:0:0:0:
64,0,95821,1,0,1:0:0:0:
192,0,95821,1,0,1:0:0:0:
320,0,95906,1,0,1:0:0:0:
448,0,95991,1,0,1:0:0:0:
192,0,96162,1,0,1:0:0:0:
448,0,96162,1,0,1:0:0:0:
64,0,96503,1,0,1:0:0:0:
320,0,96503,1,0,1:0:0:0:
192,0,96589,1,0,1:0:0:0:
448,0,96674,1,0,1:0:0:0:
64,0,96845,1,0,1:0:0:0:
192,0,96845,1,0,1:0:0:0:
320,0,96930,1,0,1:0:0:0:
448,0,97015,1,0,1:0:0:0:
64,0,97186,1,0,1:0:0:0:
192,0,97186,1,0,1:0:0:0:
320,0,97271,1,0,1:0:0:0:
448,0,97357,1,0,1:0:0:0:
64,0,97527,1,0,1:0:0:0:
192,0,97527,1,0,1:0:0:0:
320,0,97613,1,0,1:0:0:0:
448,0,97698,1,0,1:0:0:0:
64,0,97869,1,0,1:0:0:0:
192,0,97869,1,0,1:0:0:0:
320,0,97954,1,0,1:0:0:0:
448,0,98039,1,0,1:0:0:0:
64,0,98210,1,0,1:0:0:0:
448,0,98210,1,0,1:0:0:0:
192,0,98381,1,0,1:0:0:0:
448,0,98381,1,0,1:0:0:0:
192,0,98551,1,0,1:0:0:0:
320,0,98551,1,0,1:0:0:0:
64,0,98722,1,0,1:0:0:0:
320,0,98722,1,0,1:0:0:0:
192,0,98893,1,0,1:0:0:0:
448,0,98893,1,0,1:0:0:0:
320,0,98978,1,0,1:0:0:0:
448,0,99063,1,0,1:0:0:0:
64,0,99149,1,0,1:0:0:0:
192,0,99234,1,0,1:0:0:0:
320,0,99234,1,0,1:0:0:0:
192,0,99405,1,0,1:0:0:0:
320,0,99405,1,0,1:0:0:0:
64,0,99575,1,0,1:0:0:0:
192,0,99575,1,0,1:0:0:0:
320,0,99575,1,0,1:0:0:0:
448,0,99661,1,0,1:0:0:0:
64,0,99746,1,0,1:0:0:0:
448,0,99831,1,0,1:0:0:0:
192,0,99917,1,0,1:0:0:0:
320,0,99917,1,0,1:0:0:0:
64,0,100002,1,0,1:0:0:0:
192,0,100087,1,0,1:0:0:0:
448,0,100173,1,0,1:0:0:0:
64,0,100258,1,0,1:0:0:0:
320,0,100258,1,0,1:0:0:0:
448,0,100343,1,0,1:0:0:0:
192,0,100429,1,0,1:0:0:0:
320,0,100514,1,0,1:0:0:0:
64,0,100599,1,0,1:0:0:0:
192,0,100599,1,0,1:0:0:0:
448,0,100685,1,0,1:0:0:0:
320,0,100770,1,0,1:0:0:0:
64,0,100855,1,0,1:0:0:0:
192,0,100941,1,0,1:0:0:0:
320,0,100941,1,0,1:0:0:0:
448,0,101026,1,0,1:0:0:0:
192,0,101111,1,0,1:0:0:0:
448,0,101197,1,0,1:0:0:0:
64,0,101282,1,0,1:0:0:0:
320,0,101282,1,0,1:0:0:0:
192,0,101367,1,0,1:0:0:0:
320,0,101453,1,0,1:0:0:0:
64,0,101538,1,0,1:0:0:0:
192,0,101623,1,0,1:0:0:0:
448,0,101623,1,0,1:0:0:0:
192,0,101964,1,0,1:0:0:0:
64,0,102306,1,0,1:0:0:0:
320,0,102306,1,0,1:0:0:0:
192,0,102476,1,0,1:0:0:0:
64,0,102562,1,0,1:0:0:0:
320,0,102647,1,0,1:0:0:0:
448,0,102647,1,0,1:0:0:0:
192,0,102818,1,0,1:0:0:0:
320,0,102903,1,0,1:0:0:0:
64,0,102988,1,0,1:0:0:0:
192,0,102988,1,0,1:0:0:0:
448,0,103159,1,0,1:0:0:0:
64,0,103330,1,0,1:0:0:0:
192,0,103330,1,0,1:0:0:0:
320,0,103500,1,0,1:0:0:0:
64,0,103671,1,0,1:0:0:0:
448,0,103671,1,0,1:0:0:0:
320,0,103842,1,0,1:0:0:0:
448,0,103927,1,0,1:0:0:0:
64,0,104012,1,0,1:0:0:0:
192,0,104012,1,0,1:0:0:0:
320,0,104183,1,0,1:0:0:0:
320,0,104354,1,0,1:0:0:0:
448,0,104354,1,0,1:0:0:0:
192,0,104524,1,0,1:0:0:0:
64,0,104695,1,0,1:0:0:0:
448,0,104695,1,0,1:0:0:0:
320,0,104866,1,0,1:0:0:0:
192,0,105036,1,0,1:0:0:0:
448,0,105036,1,0,1:0:0:0:
320,0,105207,1,0,1:0:0:0:
64,0,105378,1,0,1:0:0:0:
448,0,105378,1,0,1:0:0:0:
192,0,105548,1,0,1:0:0:0:
448,0,105634,1,0,1:0:0:0:
64,0,105719,1,0,1:0:0:0:
320,0,105719,1,0,1:0:0:0:
448,0,105890,1,0,1:0:0:0:
192,0,106060,1,0,1:0:0:0:
320,0,106060,1,0,1:0:0:0:
64,0,106231,1,0,1:0:0:0:
192,0,106402,1,0,1:0:0:0:
448,0,106402,1,0,1:0:0:0:
320,0,106572,1,0,1:0:0:0:
64,0,106743,1,0,1:0:0:0:
448,0,106743,1,0,1:0:0:0:
192,0,106914,1,0,1:0:0:0:
64,0,107084,1,0,1:0:0:0:
320,0,107084,1,0,1:0:0:0:
320,0,107426,1,0,1:0:0:0:
64,0,107767,1,0,1:0:0:0:
192,0,107767,1,0,1:0:0:0:
448,0,107767,1,0,1:0:0:0:
192,0,107938,1,0,1:0:0:0:
64,0,108108,1,0,1:0:0:0:
320,0,108108,1,0,1:0:0:0:
448,0,108279,1,0,1:0:0:0:
64,0,108450,1,0,1:0:0:0:
192,0,108450,1,0,1:0:0:0:
320,0,108450,1,0,1:0:0:0:
448,0,108620,1,0,1:0:0:0:
192,0,108791,1,0,1:0:0:0:
320,0,108791,1,0,1:0:0:0:
64,0,108962,1,0,1:0:0:0:
192,0,109132,1,0,1:0:0:0:
320,0,109132,1,0,1:0:0:0:
448,0,109132,1,0,1:0:0:0:
64,0,109218,1,0,1:0:0:0:
448,0,109303,1,0,1:0:0:0:
320,0,109388,1,0,1:0:0:0:
64,0,109474,1,0,1:0:0:0:
192,0,109474,1,0,1:0:0:0:
448,0,109559,1,0,1:0:0:0:
320,0,109644,1,0,1:0:0:0:
448,0,109730,1,0,1:0:0:0:
64,0,109815,1,0,1:0:0:0:
192,0,109815,1,0,1:0:0:0:
320,0,109900,1,0,1:0:0:0:
192,0,109986,1,0,1:0:0:0:
448,0,109986,1,0,1:0:0:0:
320,0,110071,1,0,1:0:0:0:
64,0,110156,1,0,1:0:0:0:
448,0,110156,1,0,1:0:0:0:
192,0,110242,1,0,1:0:0:0:
320,0,110327,1,0,1:0:0:0:
192,0,110412,1,0,1:0:0:0:
64,0,110498,1,0,1:0:0:0:
320,0,110498,1,0,1:0:0:0:
448,0,110498,1,0,1:0:0:0:
192,0,110583,1,0,1:0:0:0:
320,0,110668,1,0,1:0:0:0:
64,0,110754,1,0,1:0:0:0:
192,0,110839,1,0,1:0:0:0:
64,0,110924,1,0,1:0:0:0:
320,0,111010,1,0,1:0:0:0:
192,0,111095,1,0,1:0:0:0:
64,0,111180,1,0,1:0:0:0:
192,0,111266,1,0,1:0:0:0:
320,0,111351,1,0,1:0:0:0:
64,0,111436,1,0,1:0:0:0:
192,0,111522,1,0,1:0:0:0:
64,0,111607,1,0,1:0:0:0:
320,0,111692,1,0,1:0:0:0:
192,0,111777,1,0,1:0:0:0:
64,0,111863,1,0,1:0:0:0:
320,0,111948,1,0,1:0:0:0:
448,0,112033,1,0,1:0:0:0:
192,0,112119,1,0,1:0:0:0:
320,0,112204,1,0,1:0:0:0:
192,0,112289,1,0,1:0:0:0:
448,0,112375,1,0,1:0:0:0:
320,0,112460,1,0,1:0:0:0:
64,0,112545,1,0,1:0:0:0:
320,0,112631,1,0,1:0:0:0:
448,0,112716,1,0,1:0:0:0:
192,0,112801,1,0,1:0:0:0:
320,0,112887,1,0,1:0:0:0:
192,0,112972,1,0,1:0:0:0:
448,0,113057,1,0,1:0:0:0:
320,0,113143,1,0,1:0:0:0:
64,0,113228,1,0,1:0:0:0:
192,0,113313,1,0,1:0:0:0:
320,0,113399,1,0,1:0:0:0:
64,0,113484,1,0,1:0:0:0:
192,0,113569,1,0,1:0:0:0:
64,0,113655,1,0,1:0:0:0:
320,0,113740,1,0,1:0:0:0:
192,0,113825,1,0,1:0:0:0:
64,0,113911,1,0,1:0:0:0:
192,0,113996,1,0,1:0:0:0:
320,0,114081,1,0,1:0:0:0:
64,0,114167,1,0,1:0:0:0:
192,0,114252,1,0,1:0:0:0:
64,0,114337,1,0,1:0:0:0:
320,0,114423,1,0,1:0:0:0:
192,0,114508,1,0,1:0:0:0:
64,0,114593,1,0,1:0:0:0:
320,0,114679,1,0,1:0:0:0:
448,0,114764,1,0,1:0:0:0:
192,0,114849,1,0,1:0:0:0:
320,0,114935,1,0,1:0:0:0:
192,0,115020,1,0,1:0:0:0:
448,0,115105,1,0,1:0:0:0:
320,0,115191,1,0,1:0:0:0:
64,0,115276,1,0,1:0:0:0:
320,0,115361,1,0,1:0:0:0:
448,0,115447,1,0,1:0:0:0:
192,0,115532,1,0,1:0:0:0:
320,0,115617,1,0,1:0:0:0:
192,0,115703,1,0,1:0:0:0:
448,0,115788,1,0,1:0:0:0:
320,0,115873,1,0,1:0:0:0:
64,0,115959,1,0,1:0:0:0:
192,0,116044,1,0,1:0:0:0:
320,0,116129,1,0,1:0:0:0:
64,0,116215,1,0,1:0:0:0:
192,0,116300,1,0,1:0:0:0:
64,0,116385,1,0,1:0:0:0:
320,0,116471,1,0,1:0:0:0:
192,0,116556,1,0,1:0:0:0:
64,0,116641,1,0,1:0:0:0:
192,0,116727,1,0,1:0:0:0:
320,0,116812,1,0,1:0:0:0:
64,0,116897,1,0,1:0:0:0:
192,0,116983,1,0,1:0:0:0:
64,0,117068,1,0,1:0:0:0:
320,0,117153,1,0,1:0:0:0:
192,0,117239,1,0,1:0:0:0:
64,0,117324,1,0,1:0:0:0:
320,0,117409,1,0,1:0:0:0:
448,0,117495,1,0,1:0:0:0:
192,0,117580,1,0,1:0:0:0:
320,0,117665,1,0,1:0:0:0:
192,0,117751,1,0,1:0:0:0:
448,0,117836,1,0,1:0:0:0:
320,0,117921,1,0,1:0:0:0:
64,0,118007,1,0,1:0:0:0:
320,0,118092,1,0,1:0:0:0:
448,0,118177,1,0,1:0:0:0:
192,0,118263,1,0,1:0:0:0:
320,0,118348,1,0,1:0:0:0:
192,0,118433,1,0,1:0:0:0:
448,0,118519,1,0,1:0:0:0:
320,0,118604,1,0,1:0:0:0:
192,0,118689,1,0,1:0:0:0:
320,0,118775,1,0,1:0:0:0:
448,0,118860,1,0,1:0:0:0:
192,0,118945,1,0,1:0:0:0:
320,0,119031,1,0,1:0:0:0:
192,0,119116,1,0,1:0:0:0:
448,0,119201,1,0,1:0:0:0:
320,0,119287,1,0,1:0:0:0:
192,0,119372,1,0,1:0:0:0:
320,0,119457,1,0,1:0:0:0:
448,0,119543,1,0,1:0:0:0:
192,0,119628,1,0,1:0:0:0:
320,0,119713,1,0,1:0:0:0:
192,0,119799,1,0,1:0:0:0:
448,0,119884,1,0,1:0:0:0:
320,0,119969,1,0,1:0:0:0:
64,0,120055,1,0,1:0:0:0:
192,0,120140,1,0,1:0:0:0:
448,0,120225,1,0,1:0:0:0:
64,0,120311,1,0,1:0:0:0:
320,0,120396,1,0,1:0:0:0:
64,0,120481,1,0,1:0:0:0:
448,0,120567,1,0,1:0:0:0:
192,0,120652,1,0,1:0:0:0:
64,0,120737,1,0,1:0:0:0:
192,0,120823,1,0,1:0:0:0:
448,0,120908,1,0,1:0:0:0:
64,0,120993,1,0,1:0:0:0:
320,0,121079,1,0,1:0:0:0:
64,0,121164,1,0,1:0:0:0:
448,0,121249,1,0,1:0:0:0:
192,0,121335,1,0,1:0:0:0:
64,0,121420,1,0,1:0:0:0:
192,0,121505,1,0,1:0:0:0:
320,0,121591,1,0,1:0:0:0:
64,0,121676,1,0,1:0:0:0:
192,0,121761,1,0,1:0:0:0:
64,0,121847,1,0,1:0:0:0:
320,0,121932,1,0,1:0:0:0:
192,0,122017,1,0,1:0:0:0:
64,0,122102,1,0,1:0:0:0:
448,0,122102,1,0,1:0:0:0:
192,0,122188,1,0,1:0:0:0:
320,0,122273,1,0,1:0:0:0:
64,0,122358,1,0,1:0:0:0:
192,0,122444,1,0,1:0:0:0:
64,0,122529,1,0,1:0:0:0:
320,0,122614,1,0,1:0:0:0:
192,0,122700,1,0,1:0:0:0:
64,0,122785,1,0,1:0:0:0:
320,0,122870,1,0,1:0:0:0:
448,0,122956,1,0,1:0:0:0:
192,0,123041,1,0,1:0:0:0:
320,0,123126,1,0,1:0:0:0:
192,0,123212,1,0,1:0:0:0:
448,0,123297,1,0,1:0:0:0:
320,0,123382,1,0,1:0:0:0:
64,0,123468,1,0,1:0:0:0:
192,0,123468,1,0,1:0:0:0:
320,0,123553,1,0,1:0:0:0:
448,0,123638,1,0,1:0:0:0:
192,0,123724,1,0,1:0:0:0:
320,0,123809,1,0,1:0:0:0:
192,0,123894,1,0,1:0:0:0:
448,0,123980,1,0,1:0:0:0:
320,0,124065,1,0,1:0:0:0:
64,0,124150,1,0,1:0:0:0:
192,0,124236,1,0,1:0:0:0:
320,0,124321,1,0,1:0:0:0:
64,0,124406,1,0,1:0:0:0:
192,0,124492,1,0,1:0:0:0:
64,0,124577,1,0,1:0:0:0:
320,0,124662,1,0,1:0:0:0:
192,0,124748,1,0,1:0:0:0:
64,0,124833,1,0,1:0:0:0:
448,0,124833,1,0,1:0:0:0:
192,0,124918,1,0,1:0:0:0:
320,0,125004,1,0,1:0:0:0:
64,0,125089,1,0,1:0:0:0:
192,0,125174,1,0,1:0:0:0:
64,0,125260,1,0,1:0:0:0:
320,0,125345,1,0,1:0:0:0:
192,0,125430,1,0,1:0:0:0:
64,0,125516,1,0,1:0:0:0:
320,0,125601,1,0,1:0:0:0:
448,0,125686,1,0,1:0:0:0:
192,0,125772,1,0,1:0:0:0:
320,0,125857,1,0,1:0:0:0:
192,0,125942,1,0,1:0:0:0:
64,0,126028,1,0,1:0:0:0:
448,0,126028,1,0,1:0:0:0:
320,0,126113,1,0,1:0:0:0:
192,0,126198,1,0,1:0:0:0:
320,0,126284,1,0,1:0:0:0:
64,0,126369,1,0,1:0:0:0:
448,0,126369,1,0,1:0:0:0:
192,0,126454,1,0,1:0:0:0:
320,0,126540,1,0,1:0:0:0:
192,0,126625,1,0,1:0:0:0:
448,0,126710,1,0,1:0:0:0:
320,0,126796,1,0,1:0:0:0:
64,0,126881,1,0,1:0:0:0:
192,0,126966,1,0,1:0:0:0:
320,0,127052,1,0,1:0:0:0:
64,0,127137,1,0,1:0:0:0:
192,0,127222,1,0,1:0:0:0:
64,0,127308,1,0,1:0:0:0:
320,0,127393,1,0,1:0:0:0:
192,0,127478,1,0,1:0:0:0:
64,0,127564,1,0,1:0:0:0:
448,0,127564,1,0,1:0:0:0:
192,0,127649,1,0,1:0:0:0:
320,0,127734,1,0,1:0:0:0:
64,0,127820,1,0,1:0:0:0:
192,0,127905,1,0,1:0:0:0:
64,0,127990,1,0,1:0:0:0:
320,0,128076,1,0,1:0:0:0:
192,0,128161,1,0,1:0:0:0:
64,0,128246,1,0,1:0:0:0:
320,0,128332,1,0,1:0:0:0:
448,0,128417,1,0,1:0:0:0:
192,0,128502,1,0,1:0:0:0:
320,0,128588,1,0,1:0:0:0:
192,0,128673,1,0,1:0:0:0:
448,0,128758,1,0,1:0:0:0:
320,0,128844,1,0,1:0:0:0:
64,0,128929,1,0,1:0:0:0:
192,0,128929,1,0,1:0:0:0:
320,0,129014,1,0,1:0:0:0:
448,0,129100,1,0,1:0:0:0:
192,0,129185,1,0,1:0:0:0:
320,0,129270,1,0,1:0:0:0:
192,0,129356,1,0,1:0:0:0:
448,0,129441,1,0,1:0:0:0:
320,0,129526,1,0,1:0:0:0:
192,0,129612,1,0,1:0:0:0:
320,0,129697,1,0,1:0:0:0:
448,0,129782,1,0,1:0:0:0:
192,0,129868,1,0,1:0:0:0:
320,0,129953,1,0,1:0:0:0:
192,0,130038,1,0,1:0:0:0:
448,0,130124,1,0,1:0:0:0:
320,0,130209,1,0,1:0:0:0:
64,0,130294,1,0,1:0:0:0:
192,0,130294,1,0,1:0:0:0:
320,0,130380,1,0,1:0:0:0:
448,0,130465,1,0,1:0:0:0:
192,0,130550,1,0,1:0:0:0:
320,0,130636,1,0,1:0:0:0:
192,0,130721,1,0,1:0:0:0:
448,0,130806,1,0,1:0:0:0:
320,0,130892,1,0,1:0:0:0:
64,0,130977,1,0,1:0:0:0:
192,0,131062,1,0,1:0:0:0:
448,0,131148,1,0,1:0:0:0:
64,0,131233,1,0,1:0:0:0:
320,0,131318,1,0,1:0:0:0:
64,0,131404,1,0,1:0:0:0:
192,0,131489,1,0,1:0:0:0:
448,0,131489,1,0,1:0:0:0:
320,0,131574,1,0,1:0:0:0:
64,0,131660,1,0,1:0:0:0:
320,0,131745,1,0,1:0:0:0:
192,0,131830,1,0,1:0:0:0:
448,0,131830,1,0,1:0:0:0:
64,0,131916,1,0,1:0:0:0:
320,0,132001,1,0,1:0:0:0:
64,0,132086,1,0,1:0:0:0:
448,0,132171,1,0,1:0:0:0:
192,0,132257,1,0,1:0:0:0:
64,0,132342,1,0,1:0:0:0:
192,0,132427,1,0,1:0:0:0:
320,0,132513,1,0,1:0:0:0:
64,0,132598,1,0,1:0:0:0:
192,0,132683,1,0,1:0:0:0:
64,0,132769,1,0,1:0:0:0:
320,0,132854,128,0,132911:0:0:0:0:
192,0,132939,1,0,1:0:0:0:
64,0,133025,1,0,1:0:0:0:
448,0,133025,1,0,1:0:0:0:
192,0,133110,1,0,1:0:0:0:
320,0,133195,1,0,1:0:0:0:
64,0,133281,1,0,1:0:0:0:
192,0,133366,1,0,1:0:0:0:
64,0,133451,1,0,1:0:0:0:
320,0,133537,128,0,133594:0:0:0:0:
192,0,133622,1,0,1:0:0:0:
64,0,133707,1,0,1:0:0:0:
320,0,133793,1,0,1:0:0:0:
448,0,133878,1,0,1:0:0:0:
192,0,133963,1,0,1:0:0:0:
320,0,134049,1,0,1:0:0:0:
192,0,134134,1,0,1:0:0:0:
448,0,134219,128,0,134276:0:0:0:0:
320,0,134305,1,0,1:0:0:0:
64,0,134390,1,0,1:0:0:0:
192,0,134390,1,0,1:0:0:0:
320,0,134475,1,0,1:0:0:0:
448,0,134561,1,0,1:0:0:0:
192,0,134646,1,0,1:0:0:0:
320,0,134731,1,0,1:0:0:0:
192,0,134817,1,0,1:0:0:0:
448,0,134902,128,0,134959:0:0:0:0:
320,0,134987,1,0,1:0:0:0:
64,0,135073,1,0,1:0:0:0:
192,0,135158,1,0,1:0:0:0:
320,0,135243,1,0,1:0:0:0:
64,0,135329,1,0,1:0:0:0:
192,0,135414,1,0,1:0:0:0:
64,0,135499,1,0,1:0:0:0:
320,0,135585,128,0,135642:0:0:0:0:
192,0,135670,1,0,1:0:0:0:
64,0,135755,1,0,1:0:0:0:
448,0,135755,1,0,1:0:0:0:
192,0,135841,1,0,1:0:0:0:
320,0,135926,1,0,1:0:0:0:
64,0,136011,1,0,1:0:0:0:
192,0,136097,1,0,1:0:0:0:
64,0,136182,1,0,1:0:0:0:
320,0,136267,128,0,136324:0:0:0:0:
192,0,136353,1,0,1:0:0:0:
64,0,136438,1,0,1:0:0:0:
320,0,136523,1,0,1:0:0:0:
448,0,136609,1,0,1:0:0:0:
192,0,136694,1,0,1:0:0:0:
320,0,136779,1,0,1:0:0:0:
192,0,136865,1,0,1:0:0:0:
64,0,136950,1,0,1:0:0:0:
448,0,136950,128,0,137007:0:0:0:0:
320,0,137035,1,0,1:0:0:0:
192,0,137121,1,0,1:0:0:0:
320,0,137206,1,0,1:0:0:0:
64,0,137291,1,0,1:0:0:0:
448,0,137291,1,0,1:0:0:0:
192,0,137377,1,0,1:0:0:0:
320,0,137462,1,0,1:0:0:0:
192,0,137547,1,0,1:0:0:0:
448,0,137633,128,0,137690:0:0:0:0:
320,0,137718,1,0,1:0:0:0:
64,0,137803,1,0,1:0:0:0:
192,0,137889,1,0,1:0:0:0:
320,0,137974,1,0,1:0:0:0:
64,0,138059,1,0,1:0:0:0:
192,0,138145,1,0,1:0:0:0:
64,0,138230,1,0,1:0:0:0:
320,0,138315,128,0,138372:0:0:0:0:
192,0,138401,1,0,1:0:0:0:
64,0,138486,1,0,1:0:0:0:
448,0,138486,1,0,1:0:0:0:
192,0,138571,1,0,1:0:0:0:
320,0,138657,1,0,1:0:0:0:
64,0,138742,1,0,1:0:0:0:
192,0,138827,1,0,1:0:0:0:
64,0,138913,1,0,1:0:0:0:
320,0,138998,128,0,139055:0:0:0:0:
192,0,139083,1,0,1:0:0:0:
64,0,139169,1,0,1:0:0:0:
320,0,139254,1,0,1:0:0:0:
448,0,139339,1,0,1:0:0:0:
192,0,139425,1,0,1:0:0:0:
320,0,139510,1,0,1:0:0:0:
192,0,139595,1,0,1:0:0:0:
448,0,139681,128,0,139737:0:0:0:0:
320,0,139766,1,0,1:0:0:0:
64,0,139851,1,0,1:0:0:0:
192,0,139851,1,0,1:0:0:0:
320,0,139937,1,0,1:0:0:0:
448,0,140022,1,0,1:0:0:0:
192,0,140107,1,0,1:0:0:0:
320,0,140193,1,0,1:0:0:0:
192,0,140278,1,0,1:0:0:0:
448,0,140363,128,0,140420:0:0:0:0:
320,0,140449,1,0,1:0:0:0:
192,0,140534,1,0,1:0:0:0:
320,0,140619,1,0,1:0:0:0:
448,0,140705,1,0,1:0:0:0:
192,0,140790,1,0,1:0:0:0:
320,0,140875,1,0,1:0:0:0:
192,0,140961,1,0,1:0:0:0:
448,0,141046,128,0,141103:0:0:0:0:
320,0,141131,1,0,1:0:0:0:
64,0,141217,1,0,1:0:0:0:
192,0,141217,1,0,1:0:0:0:
320,0,141302,1,0,1:0:0:0:
448,0,141387,1,0,1:0:0:0:
192,0,141473,1,0,1:0:0:0:
320,0,141558,1,0,1:0:0:0:
192,0,141643,1,0,1:0:0:0:
448,0,141729,128,0,141785:0:0:0:0:
320,0,141814,1,0,1:0:0:0:
64,0,141899,1,0,1:0:0:0:
192,0,141985,1,0,1:0:0:0:
448,0,142070,1,0,1:0:0:0:
64,0,142155,1,0,1:0:0:0:
320,0,142241,1,0,1:0:0:0:
64,0,142326,1,0,1:0:0:0:
192,0,142411,1,0,1:0:0:0:
448,0,142411,128,0,142468:0:0:0:0:
320,0,142496,1,0,1:0:0:0:
64,0,142582,1,0,1:0:0:0:
320,0,142667,1,0,1:0:0:0:
192,0,142752,1,0,1:0:0:0:
448,0,142752,1,0,1:0:0:0:
64,0,142838,1,0,1:0:0:0:
320,0,142923,1,0,1:0:0:0:
64,0,143008,1,0,1:0:0:0:
448,0,143094,128,0,143151:0:0:0:0:
192,0,143179,1,0,1:0:0:0:
64,0,143264,1,0,1:0:0:0:
320,0,143264,1,0,1:0:0:0:
192,0,143350,1,0,1:0:0:0:
320,0,143435,128,0,143492:0:0:0:0:
64,0,143520,1,0,1:0:0:0:
192,0,143606,1,0,1:0:0:0:
448,0,143606,1,0,1:0:0:0:
64,0,143691,1,0,1:0:0:0:
320,0,143776,128,0,143833:0:0:0:0:
192,0,143862,1,0,1:0:0:0:
64,0,143947,1,0,1:0:0:0:
448,0,143947,1,0,1:0:0:0:
192,0,144032,1,0,1:0:0:0:
320,0,144118,128,0,144175:0:0:0:0:
64,0,144203,1,0,1:0:0:0:
192,0,144288,1,0,1:0:0:0:
448,0,144288,1,0,1:0:0:0:
64,0,144374,1,0,1:0:0:0:
320,0,144459,128,0,144516:0:0:0:0:
192,0,144544,1,0,1:0:0:0:
64,0,144630,1,0,1:0:0:0:
448,0,144630,1,0,1:0:0:0:
320,0,144715,1,0,1:0:0:0:
448,0,144800,128,0,144857:0:0:0:0:
192,0,144886,1,0,1:0:0:0:
64,0,144971,1,0,1:0:0:0:
320,0,144971,1,0,1:0:0:0:
192,0,145056,1,0,1:0:0:0:
448,0,145142,128,0,145199:0:0:0:0:
320,0,145227,1,0,1:0:0:0:
64,0,145312,1,0,1:0:0:0:
192,0,145312,1,0,1:0:0:0:
320,0,145398,1,0,1:0:0:0:
448,0,145483,128,0,145540:0:0:0:0:
192,0,145568,1,0,1:0:0:0:
320,0,145654,1,0,1:0:0:0:
448,0,145654,1,0,1:0:0:0:
64,0,145739,1,0,1:0:0:0:
320,0,145824,1,0,1:0:0:0:
448,0,145824,1,0,1:0:0:0:
192,0,145910,1,0,1:0:0:0:
64,0,145995,1,0,1:0:0:0:
448,0,145995,1,0,1:0:0:0:
192,0,146080,1,0,1:0:0:0:
320,0,146166,128,0,146223:0:0:0:0:
64,0,146251,1,0,1:0:0:0:
192,0,146336,1,0,1:0:0:0:
448,0,146336,1,0,1:0:0:0:
64,0,146422,1,0,1:0:0:0:
320,0,146507,128,0,146564:0:0:0:0:
192,0,146592,1,0,1:0:0:0:
64,0,146678,1,0,1:0:0:0:
448,0,146678,1,0,1:0:0:0:
192,0,146763,1,0,1:0:0:0:
320,0,146848,128,0,146905:0:0:0:0:
64,0,146934,1,0,1:0:0:0:
192,0,147019,1,0,1:0:0:0:
448,0,147019,1,0,1:0:0:0:
64,0,147104,1,0,1:0:0:0:
320,0,147190,128,0,147247:0:0:0:0:
192,0,147275,1,0,1:0:0:0:
64,0,147360,1,0,1:0:0:0:
448,0,147360,1,0,1:0:0:0:
320,0,147446,1,0,1:0:0:0:
448,0,147531,128,0,147588:0:0:0:0:
192,0,147616,1,0,1:0:0:0:
64,0,147702,1,0,1:0:0:0:
320,0,147702,1,0,1:0:0:0:
192,0,147787,1,0,1:0:0:0:
448,0,147872,128,0,147929:0:0:0:0:
320,0,147958,1,0,1:0:0:0:
64,0,148043,1,0,1:0:0:0:
192,0,148043,1,0,1:0:0:0:
320,0,148128,1,0,1:0:0:0:
448,0,148214,128,0,148271:0:0:0:0:
192,0,148299,1,0,1:0:0:0:
64,0,148384,1,0,1:0:0:0:
320,0,148384,1,0,1:0:0:0:
192,0,148470,1,0,1:0:0:0:
448,0,148555,128,0,148612:0:0:0:0:
320,0,148640,1,0,1:0:0:0:
192,0,148726,1,0,1:0:0:0:
448,0,148726,1,0,1:0:0:0:
64,0,148896,1,0,1:0:0:0:
320,0,149067,1,0,1:0:0:0:
448,0,149067,1,0,1:0:0:0:
64,0,149238,1,0,1:0:0:0:
192,0,149408,1,0,1:0:0:0:
448,0,149408,1,0,1:0:0:0:
320,0,149579,1,0,1:0:0:0:
64,0,149750,1,0,1:0:0:0:
448,0,149750,1,0,1:0:0:0:
192,0,149920,1,0,1:0:0:0:
320,0,150091,1,0,1:0:0:0:
448,0,150091,1,0,1:0:0:0:
64,0,150262,1,0,1:0:0:0:
192,0,150432,1,0,1:0:0:0:
448,0,150432,1,0,1:0:0:0:
64,0,150603,1,0,1:0:0:0:
192,0,150774,1,0,1:0:0:0:
320,0,150774,1,0,1:0:0:0:
448,0,150944,1,0,1:0:0:0:
64,0,151115,1,0,1:0:0:0:
320,0,151115,1,0,1:0:0:0:
192,0,151286,1,0,1:0:0:0:
64,0,151456,1,0,1:0:0:0:
320,0,151456,1,0,1:0:0:0:
448,0,151627,1,0,1:0:0:0:
192,0,151798,1,0,1:0:0:0:
320,0,151798,1,0,1:0:0:0:
448,0,151968,1,0,1:0:0:0:
64,0,152139,1,0,1:0:0:0:
320,0,152139,1,0,1:0:0:0:
192,0,152310,1,0,1:0:0:0:
64,0,152480,1,0,1:0:0:0:
448,0,152480,1,0,1:0:0:0:
320,0,152651,1,0,1:0:0:0:
64,0,152821,1,0,1:0:0:0:
192,0,152821,1,0,1:0:0:0:
448,0,152821,1,0,1:0:0:0:
192,0,152992,1,0,1:0:0:0:
448,0,152992,1,0,1:0:0:0:
64,0,153163,1,0,1:0:0:0:
192,0,153163,1,0,1:0:0:0:
320,0,153163,1,0,1:0:0:0:
64,0,153333,1,0,1:0:0:0:
320,0,153333,1,0,1:0:0:0:
64,0,153504,1,0,1:0:0:0:
192,0,153504,1,0,1:0:0:0:
448,0,153504,1,0,1:0:0:0:
192,0,153675,1,0,1:0:0:0:
320,0,153675,1,0,1:0:0:0:
64,0,153845,1,0,1:0:0:0:
320,0,153845,1,0,1:0:0:0:
448,0,153845,1,0,1:0:0:0:
192,0,154016,1,0,1:0:0:0:
448,0,154016,1,0,1:0:0:0:
64,0,154187,1,0,1:0:0:0:
192,0,154187,1,0,1:0:0:0:
320,0,154187,1,0,1:0:0:0:
448,0,154272,1,0,1:0:0:0:
64,0,154357,1,0,1:0:0:0:
192,0,154443,1,0,1:0:0:0:
320,0,154528,1,0,1:0:0:0:
448,0,154528,1,0,1:0:0:0:
320,0,154699,1,0,1:0:0:0:
64,0,154869,1,0,1:0:0:0:
192,0,154869,1,0,1:0:0:0:
320,0,154955,1,0,1:0:0:0:
192,0,155040,1,0,1:0:0:0:
64,0,155211,1,0,1:0:0:0:
448,0,155211,1,0,1:0:0:0:
320,0,155381,1,0,1:0:0:0:
192,0,155467,1,0,1:0:0:0:
64,0,155552,1,0,1:0:0:0:
448,0,155552,1,0,1:0:0:0:
320,0,155723,1,0,1:0:0:0:
64,0,155893,1,0,1:0:0:0:
192,0,155893,1,0,1:0:0:0:
320,0,155979,1,0,1:0:0:0:
448,0,156064,1,0,1:0:0:0:
64,0,156235,1,0,1:0:0:0:
320,0,156235,1,0,1:0:0:0:
192,0,156576,1,0,1:0:0:0:
64,0,156917,1,0,1:0:0:0:
192,0,156917,1,0,1:0:0:0:
320,0,157003,1,0,1:0:0:0:
448,0,157088,1,0,1:0:0:0:
192,0,157259,1,0,1:0:0:0:
320,0,157259,1,0,1:0:0:0:
448,0,157429,1,0,1:0:0:0:
320,0,157515,1,0,1:0:0:0:
64,0,157600,1,0,1:0:0:0:
192,0,157600,1,0,1:0:0:0:
320,0,157685,1,0,1:0:0:0:
448,0,157771,1,0,1:0:0:0:
192,0,157856,1,0,1:0:0:0:
320,0,157941,1,0,1:0:0:0:
448,0,157941,1,0,1:0:0:0:
64,0,158112,1,0,1:0:0:0:
192,0,158283,1,0,1:0:0:0:
448,0,158283,1,0,1:0:0:0:
320,0,158368,1,0,1:0:0:0:
64,0,158453,1,0,1:0:0:0:
192,0,158539,1,0,1:0:0:0:
320,0,158624,1,0,1:0:0:0:
448,0,158624,1,0,1:0:0:0:
64,0,158709,1,0,1:0:0:0:
320,0,158795,1,0,1:0:0:0:
192,0,158880,1,0,1:0:0:0:
64,0,158965,1,0,1:0:0:0:
448,0,158965,1,0,1:0:0:0:
320,0,159136,1,0,1:0:0:0:
192,0,159307,1,0,1:0:0:0:
448,0,159307,1,0,1:0:0:0:
64,0,159477,1,0,1:0:0:0:
192,0,159648,1,0,1:0:0:0:
320,0,159648,1,0,1:0:0:0:
448,0,159733,1,0,1:0:0:0:
192,0,159819,1,0,1:0:0:0:
64,0,159904,1,0,1:0:0:0:
192,0,159989,1,0,1:0:0:0:
448,0,159989,1,0,1:0:0:0:
320,0,160075,1,0,1:0:0:0:
64,0,160160,1,0,1:0:0:0:
320,0,160245,1,0,1:0:0:0:
64,0,160331,1,0,1:0:0:0:
448,0,160331,1,0,1:0:0:0:
192,0,160416,1,0,1:0:0:0:
320,0,160501,1,0,1:0:0:0:
64,0,160672,1,0,1:0:0:0:
192,0,160672,1,0,1:0:0:0:
320,0,160757,1,0,1:0:0:0:
192,0,160843,1,0,1:0:0:0:
448,0,160928,1,0,1:0:0:0:
64,0,161013,1,0,1:0:0:0:
320,0,161013,1,0,1:0:0:0:
320,0,161184,1,0,1:0:0:0:
64,0,161355,1,0,1:0:0:0:
192,0,161355,1,0,1:0:0:0:
448,0,161525,1,0,1:0:0:0:
64,0,161696,1,0,1:0:0:0:
320,0,161696,1,0,1:0:0:0:
192,0,162037,1,0,1:0:0:0:
64,0,162379,1,0,1:0:0:0:
320,0,162379,1,0,1:0:0:0:
192,0,162464,1,0,1:0:0:0:
320,0,162549,1,0,1:0:0:0:
192,0,162635,1,0,1:0:0:0:
64,0,162720,1,0,1:0:0:0:
448,0,162720,1,0,1:0:0:0:
192,0,162890,1,0,1:0:0:0:
320,0,162976,1,0,1:0:0:0:
64,0,163061,1,0,1:0:0:0:
192,0,163061,1,0,1:0:0:0:
448,0,163232,1,0,1:0:0:0:
192,0,163402,1,0,1:0:0:0:
320,0,163402,1,0,1:0:0:0:
320,0,163573,1,0,1:0:0:0:
64,0,163744,1,0,1:0:0:0:
448,0,163744,1,0,1:0:0:0:
192,0,163829,1,0,1:0:0:0:
448,0,163914,1,0,1:0:0:0:
192,0,164000,1,0,1:0:0:0:
64,0,164085,1,0,1:0:0:0:
320,0,164085,1,0,1:0:0:0:
448,0,164170,1,0,1:0:0:0:
192,0,164256,1,0,1:0:0:0:
64,0,164341,1,0,1:0:0:0:
192,0,164426,1,0,1:0:0:0:
320,0,164426,1,0,1:0:0:0:
448,0,164512,1,0,1:0:0:0:
320,0,164597,1,0,1:0:0:0:
64,0,164682,1,0,1:0:0:0:
192,0,164768,1,0,1:0:0:0:
448,0,164768,1,0,1:0:0:0:
448,0,164938,1,0,1:0:0:0:
64,0,165109,1,0,1:0:0:0:
320,0,165109,1,0,1:0:0:0:
448,0,165109,1,0,1:0:0:0:
192,0,165194,1,0,1:0:0:0:
320,0,165280,1,0,1:0:0:0:
192,0,165365,1,0,1:0:0:0:
64,0,165450,1,0,1:0:0:0:
448,0,165450,1,0,1:0:0:0:
192,0,165536,1,0,1:0:0:0:
320,0,165621,1,0,1:0:0:0:
64,0,165792,1,0,1:0:0:0:
448,0,165792,1,0,1:0:0:0:
192,0,165877,1,0,1:0:0:0:
320,0,165962,1,0,1:0:0:0:
64,0,166133,1,0,1:0:0:0:
448,0,166133,1,0,1:0:0:0:
192,0,166218,1,0,1:0:0:0:
320,0,166304,1,0,1:0:0:0:
192,0,166474,1,0,1:0:0:0:
448,0,166474,1,0,1:0:0:0:
448,0,166645,1,0,1:0:0:0:
192,0,166816,1,0,1:0:0:0:
448,0,166816,1,0,1:0:0:0:
448,0,166986,1,0,1:0:0:0:
192,0,167157,1,0,1:0:0:0:
320,0,167157,1,0,1:0:0:0:
320,0,167328,1,0,1:0:0:0:
64,0,167498,1,0,1:0:0:0:
192,0,167498,1,0,1:0:0:0:
64,0,167840,1,0,1:0:0:0:
192,0,167840,1,0,1:0:0:0:
320,0,168010,1,0,1:0:0:0:
448,0,168096,1,0,1:0:0:0:
64,0,168181,1,0,1:0:0:0:
192,0,168181,1,0,1:0:0:0:
320,0,168352,1,0,1:0:0:0:
192,0,168437,1,0,1:0:0:0:
64,0,168522,1,0,1:0:0:0:
320,0,168522,1,0,1:0:0:0:
448,0,168608,1,0,1:0:0:0:
192,0,168693,1,0,1:0:0:0:
320,0,168778,1,0,1:0:0:0:
64,0,168864,1,0,1:0:0:0:
192,0,168864,1,0,1:0:0:0:
320,0,169034,1,0,1:0:0:0:
448,0,169120,1,0,1:0:0:0:
64,0,169205,1,0,1:0:0:0:
192,0,169205,1,0,1:0:0:0:
320,0,169376,1,0,1:0:0:0:
448,0,169461,1,0,1:0:0:0:
64,0,169546,1,0,1:0:0:0:
192,0,169546,1,0,1:0:0:0:
320,0,169717,1,0,1:0:0:0:
64,0,169802,1,0,1:0:0:0:
192,0,169888,1,0,1:0:0:0:
448,0,169888,1,0,1:0:0:0:
192,0,170229,1,0,1:0:0:0:
320,0,170229,1,0,1:0:0:0:
64,0,170570,1,0,1:0:0:0:
192,0,170570,1,0,1:0:0:0:
320,0,170741,1,0,1:0:0:0:
448,0,170826,1,0,1:0:0:0:
64,0,170912,1,0,1:0:0:0:
192,0,170912,1,0,1:0:0:0:
320,0,171082,1,0,1:0:0:0:
192,0,171168,1,0,1:0:0:0:
64,0,171253,1,0,1:0:0:0:
320,0,171253,1,0,1:0:0:0:
448,0,171338,1,0,1:0:0:0:
192,0,171424,1,0,1:0:0:0:
320,0,171509,1,0,1:0:0:0:
64,0,171594,1,0,1:0:0:0:
192,0,171594,1,0,1:0:0:0:
320,0,171765,1,0,1:0:0:0:
448,0,171850,1,0,1:0:0:0:
64,0,171936,1,0,1:0:0:0:
192,0,171936,1,0,1:0:0:0:
320,0,172106,1,0,1:0:0:0:
448,0,172192,1,0,1:0:0:0:
64,0,172277,1,0,1:0:0:0:
192,0,172277,1,0,1:0:0:0:
192,0,172448,1,0,1:0:0:0:
320,0,172533,1,0,1:0:0:0:
64,0,172618,1,0,1:0:0:0:
448,0,172618,1,0,1:0:0:0:
192,0,172959,1,0,1:0:0:0:
192,0,173301,1,0,1:0:0:0:
320,0,173301,1,0,1:0:0:0:
448,0,173301,1,0,1:0:0:0:
64,0,173386,1,0,1:0:0:0:
192,0,173471,1,0,1:0:0:0:
320,0,173557,1,0,1:0:0:0:
64,0,173642,1,0,1:0:0:0:
448,0,173642,1,0,1:0:0:0:
320,0,173813,1,0,1:0:0:0:
192,0,173898,1,0,1:0:0:0:
64,0,173983,1,0,1:0:0:0:
320,0,173983,1,0,1:0:0:0:
448,0,173983,1,0,1:0:0:0:
64,0,174154,1,0,1:0:0:0:
192,0,174325,1,0,1:0:0:0:
320,0,174325,1,0,1:0:0:0:
64,0,174666,1,0,1:0:0:0:
448,0,174666,1,0,1:0:0:0:
320,0,174751,1,0,1:0:0:0:
192,0,174837,1,0,1:0:0:0:
320,0,174922,1,0,1:0:0:0:
64,0,175007,1,0,1:0:0:0:
448,0,175007,1,0,1:0:0:0:
192,0,175093,1,0,1:0:0:0:
320,0,175178,1,0,1:0:0:0:
448,0,175263,1,0,1:0:0:0:
192,0,175349,1,0,1:0:0:0:
320,0,175349,1,0,1:0:0:0:
64,0,175434,1,0,1:0:0:0:
192,0,175519,1,0,1:0:0:0:
320,0,175605,1,0,1:0:0:0:
64,0,175690,1,0,1:0:0:0:
448,0,175690,1,0,1:0:0:0:
320,0,175775,1,0,1:0:0:0:
192,0,175861,1,0,1:0:0:0:
64,0,175946,1,0,1:0:0:0:
192,0,176031,1,0,1:0:0:0:
320,0,176031,1,0,1:0:0:0:
448,0,176031,1,0,1:0:0:0:
64,0,176373,1,0,1:0:0:0:
320,0,176373,1,0,1:0:0:0:
192,0,176714,1,0,1:0:0:0:
320,0,176714,1,0,1:0:0:0:
192,0,176885,1,0,1:0:0:0:
448,0,176885,1,0,1:0:0:0:
64,0,177055,1,0,1:0:0:0:
320,0,177226,1,0,1:0:0:0:
448,0,177226,1,0,1:0:0:0:
64,0,177397,1,0,1:0:0:0:
192,0,177397,1,0,1:0:0:0:
320,0,177567,1,0,1:0:0:0:
448,0,177567,1,0,1:0:0:0:
192,0,177738,1,0,1:0:0:0:
320,0,177738,1,0,1:0:0:0:
64,0,177909,1,0,1:0:0:0:
320,0,177909,1,0,1:0:0:0:
64,0,178079,1,0,1:0:0:0:
448,0,178079,1,0,1:0:0:0:
320,0,178421,1,0,1:0:0:0:
64,0,178762,1,0,1:0:0:0:
192,0,178762,1,0,1:0:0:0:
448,0,178933,1,0,1:0:0:0:
192,0,179103,1,0,1:0:0:0:
320,0,179103,1,0,1:0:0:0:
192,0,179274,1,0,1:0:0:0:
64,0,179445,1,0,1:0:0:0:
320,0,179445,1,0,1:0:0:0:
448,0,179615,1,0,1:0:0:0:
192,0,179786,1,0,1:0:0:0:
320,0,179786,1,0,1:0:0:0:
320,0,179957,1,0,1:0:0:0:
64,0,180127,1,0,1:0:0:0:
192,0,180127,1,0,1:0:0:0:
448,0,180298,1,0,1:0:0:0:
64,0,180469,1,0,1:0:0:0:
320,0,180469,1,0,1:0:0:0:
192,0,180639,1,0,1:0:0:0:
320,0,180810,1,0,1:0:0:0:
448,0,180810,1,0,1:0:0:0:
64,0,181151,1,0,1:0:0:0:
192,0,181151,1,0,1:0:0:0:
448,0,181322,1,0,1:0:0:0:
64,0,181493,1,0,1:0:0:0:
320,0,181493,1,0,1:0:0:0:
192,0,181663,1,0,1:0:0:0:
320,0,181834,1,0,1:0:0:0:
448,0,181834,1,0,1:0:0:0:
64,0,182175,1,0,1:0:0:0:
192,0,182175,1,0,1:0:0:0:
448,0,182346,1,0,1:0:0:0:
64,0,182517,1,0,1:0:0:0:
320,0,182517,1,0,1:0:0:0:
192,0,182687,1,0,1:0:0:0:
64,0,182858,1,0,1:0:0:0:
320,0,182858,1,0,1:0:0:0:
448,0,183029,1,0,1:0:0:0:
192,0,183199,1,0,1:0:0:0:
320,0,183199,1,0,1:0:0:0:
64,0,183370,1,0,1:0:0:0:
192,0,183540,1,0,1:0:0:0:
448,0,183540,1,0,1:0:0:0:
320,0,183711,1,0,1:0:0:0:
64,0,183882,1,0,1:0:0:0:
448,0,183882,1,0,1:0:0:0:
192,0,184052,1,0,1:0:0:0:
64,0,184223,1,0,1:0:0:0:
320,0,184223,1,0,1:0:0:0:
448,0,184394,1,0,1:0:0:0:
64,0,184564,1,0,1:0:0:0:
192,0,184564,1,0,1:0:0:0:
448,0,184735,1,0,1:0:0:0:
192,0,184906,1,0,1:0:0:0:
320,0,184906,1,0,1:0:0:0:
64,0,185076,1,0,1:0:0:0:
192,0,185247,1,0,1:0:0:0:
448,0,185247,1,0,1:0:0:0:
64,0,185588,1,0,1:0:0:0:
320,0,185588,1,0,1:0:0:0:
448,0,185759,1,0,1:0:0:0:
192,0,185930,1,0,1:0:0:0:
320,0,185930,1,0,1:0:0:0:
448,0,186100,1,0,1:0:0:0:
64,0,186271,1,0,1:0:0:0:
192,0,186271,1,0,1:0:0:0:
192,0,186442,1,0,1:0:0:0:
320,0,186442,1,0,1:0:0:0:
448,0,186442,1,0,1:0:0:0:
64,0,186612,1,0,1:0:0:0:
320,0,186612,1,0,1:0:0:0:
448,0,186612,1,0,1:0:0:0:
192,0,186954,1,0,1:0:0:0:
320,0,186954,1,0,1:0:0:0:
448,0,186954,1,0,1:0:0:0:
64,0,187124,1,0,1:0:0:0:
320,0,187295,1,0,1:0:0:0:
448,0,187295,1,0,1:0:0:0:
192,0,187380,1,0,1:0:0:0:
64,0,187466,1,0,1:0:0:0:
192,0,187551,1,0,1:0:0:0:
320,0,187636,1,0,1:0:0:0:
448,0,187636,1,0,1:0:0:0:
192,0,187807,1,0,1:0:0:0:
64,0,187892,1,0,1:0:0:0:
320,0,187978,1,0,1:0:0:0:
448,0,187978,1,0,1:0:0:0:
192,0,188063,1,0,1:0:0:0:
320,0,188148,1,0,1:0:0:0:
64,0,188319,1,0,1:0:0:0:
448,0,188319,1,0,1:0:0:0:
320,0,188404,1,0,1:0:0:0:
192,0,188490,1,0,1:0:0:0:
64,0,188660,1,0,1:0:0:0:
448,0,188660,1,0,1:0:0:0:
320,0,188746,1,0,1:0:0:0:
192,0,188831,1,0,1:0:0:0:
64,0,188916,1,0,1:0:0:0:
320,0,189002,1,0,1:0:0:0:
448,0,189002,1,0,1:0:0:0:
192,0,189172,1,0,1:0:0:0:
448,0,189172,1,0,1:0:0:0:
192,0,189343,1,0,1:0:0:0:
320,0,189343,1,0,1:0:0:0:
64,0,189684,1,0,1:0:0:0:
320,0,189684,1,0,1:0:0:0:
448,0,189855,1,0,1:0:0:0:
64,0,190026,1,0,1:0:0:0:
192,0,190026,1,0,1:0:0:0:
320,0,190111,1,0,1:0:0:0:
448,0,190196,1,0,1:0:0:0:
320,0,190282,1,0,1:0:0:0:
64,0,190367,1,0,1:0:0:0:
192,0,190367,1,0,1:0:0:0:
448,0,190538,1,0,1:0:0:0:
320,0,190623,1,0,1:0:0:0:
64,0,190708,1,0,1:0:0:0:
192,0,190708,1,0,1:0:0:0:
320,0,190794,1,0,1:0:0:0:
192,0,190879,1,0,1:0:0:0:
64,0,191050,1,0,1:0:0:0:
448,0,191050,1,0,1:0:0:0:
320,0,191135,1,0,1:0:0:0:
448,0,191220,1,0,1:0:0:0:
320,0,191306,1,0,1:0:0:0:
64,0,191391,1,0,1:0:0:0:
192,0,191391,1,0,1:0:0:0:
192,0,191562,1,0,1:0:0:0:
64,0,191732,1,0,1:0:0:0:
320,0,191732,1,0,1:0:0:0:
448,0,191818,1,0,1:0:0:0:
192,0,191903,1,0,1:0:0:0:
320,0,192074,1,0,1:0:0:0:
448,0,192074,1,0,1:0:0:0:
192,0,192415,1,0,1:0:0:0:
320,0,192415,1,0,1:0:0:0:
64,0,192586,1,0,1:0:0:0:
320,0,192756,1,0,1:0:0:0:
448,0,192756,1,0,1:0:0:0:
192,0,192842,1,0,1:0:0:0:
64,0,192927,1,0,1:0:0:0:
192,0,193012,1,0,1:0:0:0:
320,0,193098,1,0,1:0:0:0:
448,0,193098,1,0,1:0:0:0:
192,0,193268,1,0,1:0:0:0:
64,0,193353,1,0,1:0:0:0:
320,0,193439,1,0,1:0:0:0:
448,0,193439,1,0,1:0:0:0:
192,0,193524,1,0,1:0:0:0:
320,0,193609,1,0,1:0:0:0:
64,0,193780,1,0,1:0:0:0:
448,0,193780,1,0,1:0:0:0:
192,0,193951,1,0,1:0:0:0:
64,0,194121,1,0,1:0:0:0:
448,0,194121,1,0,1:0:0:0:
320,0,194207,1,0,1:0:0:0:
192,0,194292,1,0,1:0:0:0:
64,0,194377,1,0,1:0:0:0:
320,0,194463,1,0,1:0:0:0:
448,0,194463,1,0,1:0:0:0:
192,0,194690,1,0,1:0:0:0:
448,0,194690,1,0,1:0:0:0:
64,0,194804,1,0,1:0:0:0:
192,0,194889,1,0,1:0:0:0:
320,0,194889,1,0,1:0:0:0:
64,0,195145,1,0,1:0:0:0:
320,0,195145,1,0,1:0:0:0:
448,0,195145,1,0,1:0:0:0:
192,0,195430,1,0,1:0:0:0:
320,0,195430,1,0,1:0:0:0:
64,0,195487,1,0,1:0:0:0:
64,0,195714,1,0,1:0:0:0:
320,0,195714,1,0,1:0:0:0:
192,0,195828,1,0,1:0:0:0:
448,0,195828,1,0,1:0:0:0:
320,0,195999,1,0,1:0:0:0:
192,0,196084,1,0,1:0:0:0:
64,0,196169,1,0,1:0:0:0:
448,0,196169,1,0,1:0:0:0:
320,0,196255,1,0,1:0:0:0:
448,0,196340,1,0,1:0:0:0:
64,0,196511,1,0,1:0:0:0:
192,0,196511,1,0,1:0:0:0:
320,0,196681,1,0,1:0:0:0:
64,0,196852,1,0,1:0:0:0:
448,0,196852,1,0,1:0:0:0:
192,0,196937,1,0,1:0:0:0:
320,0,197023,1,0,1:0:0:0:
192,0,197108,1,0,1:0:0:0:
64,0,197193,1,0,1:0:0:0:
448,0,197193,1,0,1:0:0:0:
320,0,197364,1,0,1:0:0:0:
64,0,197449,1,0,1:0:0:0:
448,0,197449,1,0,1:0:0:0:
192,0,197535,1,0,1:0:0:0:
320,0,197535,1,0,1:0:0:0:
64,0,197620,1,0,1:0:0:0:
192,0,197705,1,0,1:0:0:0:
448,0,197705,1,0,1:0:0:0:
320,0,197791,1,0,1:0:0:0:
64,0,197876,1,0,1:0:0:0:
192,0,197876,1,0,1:0:0:0:
448,0,197876,1,0,1:0:0:0:
320,0,198047,1,0,1:0:0:0:
192,0,198217,1,0,1:0:0:0:
448,0,198217,1,0,1:0:0:0:
64,0,198388,1,0,1:0:0:0:
192,0,198473,1,0,1:0:0:0:
64,0,198559,1,0,1:0:0:0:
320,0,198559,1,0,1:0:0:0:
448,0,198729,1,0,1:0:0:0:
64,0,198900,1,0,1:0:0:0:
192,0,198900,1,0,1:0:0:0:
320,0,199071,1,0,1:0:0:0:
64,0,199241,1,0,1:0:0:0:
448,0,199241,1,0,1:0:0:0:
192,0,199412,1,0,1:0:0:0:
64,0,199583,1,0,1:0:0:0:
320,0,199583,1,0,1:0:0:0:
448,0,199753,1,0,1:0:0:0:
192,0,199924,1,0,1:0:0:0:
320,0,199924,1,0,1:0:0:0:
64,0,200095,1,0,1:0:0:0:
192,0,200265,1,0,1:0:0:0:
320,0,200265,1,0,1:0:0:0:
64,0,200607,1,0,1:0:0:0:
448,0,200607,1,0,1:0:0:0:
320,0,200777,1,0,1:0:0:0:
192,0,200948,1,0,1:0:0:0:
448,0,200948,1,0,1:0:0:0:
64,0,201119,1,0,1:0:0:0:
320,0,201204,1,0,1:0:0:0:
192,0,201289,1,0,1:0:0:0:
448,0,201289,1,0,1:0:0:0:
192,0,201460,1,0,1:0:0:0:
320,0,201631,1,0,1:0:0:0:
448,0,201631,1,0,1:0:0:0:
64,0,201972,1,0,1:0:0:0:
320,0,201972,1,0,1:0:0:0:
192,0,202143,1,0,1:0:0:0:
64,0,202313,1,0,1:0:0:0:
448,0,202313,1,0,1:0:0:0:
320,0,202484,1,0,1:0:0:0:
192,0,202655,1,0,1:0:0:0:
448,0,202655,1,0,1:0:0:0:
64,0,202825,1,0,1:0:0:0:
192,0,202996,1,0,1:0:0:0:
320,0,202996,1,0,1:0:0:0:
448,0,203167,1,0,1:0:0:0:
64,0,203337,1,0,1:0:0:0:
192,0,203337,1,0,1:0:0:0:
320,0,203508,1,0,1:0:0:0:
64,0,203678,1,0,1:0:0:0:
192,0,203678,1,0,1:0:0:0:
448,0,203849,1,0,1:0:0:0:
64,0,203934,1,0,1:0:0:0:
192,0,204020,1,0,1:0:0:0:
320,0,204020,1,0,1:0:0:0:
320,0,204190,1,0,1:0:0:0:
448,0,204190,1,0,1:0:0:0:
192,0,204361,1,0,1:0:0:0:
448,0,204361,1,0,1:0:0:0:
192,0,204702,1,0,1:0:0:0:
448,0,204702,1,0,1:0:0:0:
64,0,204873,1,0,1:0:0:0:
192,0,205044,1,0,1:0:0:0:
320,0,205044,1,0,1:0:0:0:
448,0,205129,1,0,1:0:0:0:
320,0,205214,1,0,1:0:0:0:
64,0,205385,1,0,1:0:0:0:
448,0,205385,1,0,1:0:0:0:
320,0,205726,1,0,1:0:0:0:
192,0,206068,1,0,1:0:0:0:
448,0,206238,1,0,1:0:0:0:
64,0,206409,1,0,1:0:0:0:
448,0,206409,1,0,1:0:0:0:
320,0,206580,1,0,1:0:0:0:
192,0,206750,1,0,1:0:0:0:
320,0,206750,1,0,1:0:0:0:
448,0,206921,1,0,1:0:0:0:
64,0,207092,1,0,1:0:0:0:
320,0,207092,1,0,1:0:0:0:
192,0,207177,1,0,1:0:0:0:
320,0,207262,1,0,1:0:0:0:
448,0,207348,1,0,1:0:0:0:
64,0,207433,1,0,1:0:0:0:
192,0,207433,1,0,1:0:0:0:
448,0,207604,1,0,1:0:0:0:
192,0,207774,1,0,1:0:0:0:
320,0,207774,1,0,1:0:0:0:
192,0,207945,1,0,1:0:0:0:
448,0,207945,1,0,1:0:0:0:
64,0,208116,1,0,1:0:0:0:
192,0,208286,1,0,1:0:0:0:
320,0,208286,1,0,1:0:0:0:
448,0,208372,1,0,1:0:0:0:
64,0,208457,1,0,1:0:0:0:
320,0,208457,1,0,1:0:0:0:
64,0,208628,1,0,1:0:0:0:
192,0,208798,1,0,1:0:0:0:
320,0,208798,1,0,1:0:0:0:
448,0,208798,1,0,1:0:0:0:
64,0,208969,1,0,1:0:0:0:
192,0,209140,1,0,1:0:0:0:
320,0,209140,1,0,1:0:0:0:
64,0,209310,1,0,1:0:0:0:
192,0,209481,1,0,1:0:0:0:
320,0,209481,1,0,1:0:0:0:
64,0,209652,1,0,1:0:0:0:
320,0,209737,1,0,1:0:0:0:
192,0,209822,1,0,1:0:0:0:
320,0,209908,1,0,1:0:0:0:
64,0,209993,1,0,1:0:0:0:
320,0,210164,1,0,1:0:0:0:
448,0,210164,1,0,1:0:0:0:
192,0,210334,1,0,1:0:0:0:
320,0,210505,1,0,1:0:0:0:
448,0,210505,1,0,1:0:0:0:
192,0,210676,1,0,1:0:0:0:
320,0,210846,1,0,1:0:0:0:
448,0,210846,1,0,1:0:0:0:
192,0,211017,1,0,1:0:0:0:
448,0,211102,1,0,1:0:0:0:
320,0,211188,1,0,1:0:0:0:
448,0,211273,1,0,1:0:0:0:
192,0,211358,1,0,1:0:0:0:
64,0,211529,1,0,1:0:0:0:
192,0,211529,1,0,1:0:0:0:
448,0,211700,1,0,1:0:0:0:
64,0,211870,1,0,1:0:0:0:
192,0,211870,1,0,1:0:0:0:
448,0,212041,1,0,1:0:0:0:
64,0,212212,1,0,1:0:0:0:
192,0,212212,1,0,1:0:0:0:
448,0,212382,1,0,1:0:0:0:
192,0,212468,1,0,1:0:0:0:
64,0,212553,1,0,1:0:0:0:
192,0,212638,1,0,1:0:0:0:
448,0,212724,1,0,1:0:0:0:
64,0,212894,1,0,1:0:0:0:
320,0,212894,1,0,1:0:0:0:
448,0,213065,1,0,1:0:0:0:
64,0,213236,1,0,1:0:0:0:
320,0,213236,1,0,1:0:0:0:
448,0,213406,1,0,1:0:0:0:
64,0,213577,1,0,1:0:0:0:
320,0,213577,1,0,1:0:0:0:
448,0,213747,1,0,1:0:0:0:
64,0,213833,1,0,1:0:0:0:
320,0,213918,1,0,1:0:0:0:
64,0,214003,1,0,1:0:0:0:
448,0,214089,1,0,1:0:0:0:
192,0,214259,1,0,1:0:0:0:
320,0,214259,1,0,1:0:0:0:
64,0,214430,1,0,1:0:0:0:
192,0,214601,1,0,1:0:0:0:
320,0,214601,1,0,1:0:0:0:
64,0,214771,1,0,1:0:0:0:
192,0,214942,1,0,1:0:0:0:
320,0,214942,1,0,1:0:0:0:
64,0,215113,1,0,1:0:0:0:
320,0,215198,1,0,1:0:0:0:
192,0,215283,1,0,1:0:0:0:
320,0,215369,1,0,1:0:0:0:
64,0,215454,1,0,1:0:0:0:
320,0,215625,1,0,1:0:0:0:
448,0,215625,1,0,1:0:0:0:
192,0,215795,1,0,1:0:0:0:
320,0,215966,1,0,1:0:0:0:
448,0,215966,1,0,1:0:0:0:
192,0,216137,1,0,1:0:0:0:
320,0,216307,1,0,1:0:0:0:
448,0,216307,1,0,1:0:0:0:
192,0,216478,1,0,1:0:0:0:
448,0,216563,1,0,1:0:0:0:
320,0,216649,1,0,1:0:0:0:
448,0,216734,1,0,1:0:0:0:
192,0,216819,1,0,1:0:0:0:
320,0,216990,1,0,1:0:0:0:
448,0,216990,1,0,1:0:0:0:
64,0,217161,1,0,1:0:0:0:
320,0,217331,1,0,1:0:0:0:
448,0,217331,1,0,1:0:0:0:
64,0,217502,1,0,1:0:0:0:
320,0,217673,1,0,1:0:0:0:
448,0,217673,1,0,1:0:0:0:
64,0,217843,1,0,1:0:0:0:
448,0,217929,1,0,1:0:0:0:
320,0,218014,1,0,1:0:0:0:
448,0,218099,1,0,1:0:0:0:
64,0,218185,1,0,1:0:0:0:
320,0,218355,1,0,1:0:0:0:
192,0,218355,128,0,219635:0:0:0:0:
448,0,218441,1,0,1:0:0:0:
320,0,218526,1,0,1:0:0:0:
64,0,218611,1,0,1:0:0:0:
320,0,218697,1,0,1:0:0:0:
448,0,218782,1,0,1:0:0:0:
64,0,218867,1,0,1:0:0:0:
320,0,218953,1,0,1:0:0:0:
448,0,219038,1,0,1:0:0:0:
320,0,219123,1,0,1:0:0:0:
64,0,219209,1,0,1:0:0:0:
448,0,219294,1,0,1:0:0:0:
320,0,219379,1,0,1:0:0:0:
64,0,219465,1,0,1:0:0:0:
320,0,219550,1,0,1:0:0:0:
448,0,219635,1,0,1:0:0:0:
64,0,219721,1,0,1:0:0:0:
320,0,219721,1,0,1:0:0:0:
192,0,220062,1,0,1:0:0:0:
448,0,220062,1,0,1:0:0:0:
192,0,220403,1,0,1:0:0:0:
320,0,220403,1,0,1:0:0:0:
448,0,220574,1,0,1:0:0:0:
64,0,220745,1,0,1:0:0:0:
192,0,220745,1,0,1:0:0:0:
320,0,220915,1,0,1:0:0:0:
64,0,221086,1,0,1:0:0:0:
448,0,221086,1,0,1:0:0:0:
320,0,221171,1,0,1:0:0:0:
192,0,221257,1,0,1:0:0:0:
64,0,221427,1,0,1:0:0:0:
320,0,221427,1,0,1:0:0:0:
448,0,221598,1,0,1:0:0:0:
192,0,221769,1,0,1:0:0:0:
320,0,221769,1,0,1:0:0:0:
448,0,222110,1,0,1:0:0:0:
64,0,222451,1,0,1:0:0:0:
320,0,222451,1,0,1:0:0:0:
192,0,222622,1,0,1:0:0:0:
64,0,222707,1,0,1:0:0:0:
320,0,222793,1,0,1:0:0:0:
448,0,222793,1,0,1:0:0:0:
192,0,222963,1,0,1:0:0:0:
64,0,223049,1,0,1:0:0:0:
320,0,223134,1,0,1:0:0:0:
448,0,223134,1,0,1:0:0:0:
192,0,223305,1,0,1:0:0:0:
64,0,223390,1,0,1:0:0:0:
320,0,223475,1,0,1:0:0:0:
448,0,223475,1,0,1:0:0:0:
320,0,223646,1,0,1:0:0:0:
448,0,223731,1,0,1:0:0:0:
64,0,223817,1,0,1:0:0:0:
192,0,223817,1,0,1:0:0:0:
192,0,223987,1,0,1:0:0:0:
64,0,224158,1,0,1:0:0:0:
448,0,224158,1,0,1:0:0:0:
320,0,224243,1,0,1:0:0:0:
192,0,224328,1,0,1:0:0:0:
64,0,224499,1,0,1:0:0:0:
192,0,224499,1,0,1:0:0:0:
192,0,224670,1,0,1:0:0:0:
64,0,224840,1,0,1:0:0:0:
320,0,224840,1,0,1:0:0:0:
448,0,225011,1,0,1:0:0:0:
64,0,225182,1,0,1:0:0:0:
192,0,225182,1,0,1:0:0:0:
448,0,225352,1,0,1:0:0:0:
320,0,225438,1,0,1:0:0:0:
64,0,225523,1,0,1:0:0:0:
192,0,225523,1,0,1:0:0:0:
192,0,225694,1,0,1:0:0:0:
64,0,225864,1,0,1:0:0:0:
448,0,225864,1,0,1:0:0:0:
320,0,225950,1,0,1:0:0:0:
192,0,226035,1,0,1:0:0:0:
64,0,226206,1,0,1:0:0:0:
192,0,226206,1,0,1:0:0:0:
448,0,226376,1,0,1:0:0:0:
320,0,226462,1,0,1:0:0:0:
64,0,226547,1,0,1:0:0:0:
192,0,226547,1,0,1:0:0:0:
192,0,226718,1,0,1:0:0:0:
64,0,226888,1,0,1:0:0:0:
448,0,226888,1,0,1:0:0:0:
320,0,226974,1,0,1:0:0:0:
192,0,227059,1,0,1:0:0:0:
64,0,227230,1,0,1:0:0:0:
448,0,227230,1,0,1:0:0:0:
320,0,227315,1,0,1:0:0:0:
192,0,227400,1,0,1:0:0:0:
64,0,227571,1,0,1:0:0:0:
320,0,227571,1,0,1:0:0:0:
448,0,227742,1,0,1:0:0:0:
320,0,227912,1,0,1:0:0:0:
448,0,227912,1,0,1:0:0:0:
192,0,228083,1,0,1:0:0:0:
448,0,228168,1,0,1:0:0:0:
64,0,228254,1,0,1:0:0:0:
192,0,228254,1,0,1:0:0:0:
320,0,228339,1,0,1:0:0:0:
448,0,228424,1,0,1:0:0:0:
64,0,228510,1,0,1:0:0:0:
192,0,228595,1,0,1:0:0:0:
320,0,228595,1,0,1:0:0:0:
448,0,228766,1,0,1:0:0:0:
64,0,228936,1,0,1:0:0:0:
192,0,228936,1,0,1:0:0:0:
320,0,229107,1,0,1:0:0:0:
192,0,229278,1,0,1:0:0:0:
448,0,229278,1,0,1:0:0:0:
64,0,229448,1,0,1:0:0:0:
448,0,229534,1,0,1:0:0:0:
192,0,229619,1,0,1:0:0:0:
320,0,229619,1,0,1:0:0:0:
448,0,229790,1,0,1:0:0:0:
64,0,229960,1,0,1:0:0:0:
192,0,229960,1,0,1:0:0:0:
320,0,230131,1,0,1:0:0:0:
64,0,230216,1,0,1:0:0:0:
192,0,230302,1,0,1:0:0:0:
448,0,230302,1,0,1:0:0:0:
320,0,230472,1,0,1:0:0:0:
448,0,230472,1,0,1:0:0:0:
64,0,230643,1,0,1:0:0:0:
192,0,230643,1,0,1:0:0:0:
448,0,230643,1,0,1:0:0:0:
320,0,230814,1,0,1:0:0:0:
64,0,230984,1,0,1:0:0:0:
192,0,230984,1,0,1:0:0:0:
320,0,231155,1,0,1:0:0:0:
64,0,231326,1,0,1:0:0:0:
192,0,231326,1,0,1:0:0:0:
320,0,231496,1,0,1:0:0:0:
64,0,231667,1,0,1:0:0:0:
192,0,231667,1,0,1:0:0:0:
320,0,231838,1,0,1:0:0:0:
64,0,232008,1,0,1:0:0:0:
192,0,232008,1,0,1:0:0:0:
320,0,232179,1,0,1:0:0:0:
64,0,232350,1,0,1:0:0:0:
192,0,232350,1,0,1:0:0:0:
320,0,232520,1,0,1:0:0:0:
192,0,232691,1,0,1:0:0:0:
448,0,232691,1,0,1:0:0:0:
192,0,233032,1,0,1:0:0:0:
448,0,233032,1,0,1:0:0:0:
64,0,233374,1,0,1:0:0:0:
192,0,233374,1,0,1:0:0:0:
320,0,233544,1,0,1:0:0:0:
64,0,233715,1,0,1:0:0:0:
192,0,233715,1,0,1:0:0:0:
320,0,233886,1,0,1:0:0:0:
64,0,234056,1,0,1:0:0:0:
192,0,234056,1,0,1:0:0:0:
320,0,234227,1,0,1:0:0:0:
64,0,234397,1,0,1:0:0:0:
192,0,234397,1,0,1:0:0:0:
320,0,234568,1,0,1:0:0:0:
64,0,234739,1,0,1:0:0:0:
192,0,234739,1,0,1:0:0:0:
320,0,234909,1,0,1:0:0:0:
64,0,235080,1,0,1:0:0:0:
192,0,235080,1,0,1:0:0:0:
320,0,235251,1,0,1:0:0:0:
192,0,235421,1,0,1:0:0:0:
448,0,235421,1,0,1:0:0:0:
192,0,235592,1,0,1:0:0:0:
320,0,235592,1,0,1:0:0:0:
64,0,235763,1,0,1:0:0:0:
320,0,235763,1,0,1:0:0:0:
64,0,236104,1,0,1:0:0:0:
192,0,236104,1,0,1:0:0:0:
320,0,236275,1,0,1:0:0:0:
64,0,236445,1,0,1:0:0:0:
192,0,236445,1,0,1:0:0:0:
320,0,236616,1,0,1:0:0:0:
64,0,236787,1,0,1:0:0:0:
192,0,236787,1,0,1:0:0:0:
320,0,236957,1,0,1:0:0:0:
64,0,237128,1,0,1:0:0:0:
192,0,237128,1,0,1:0:0:0:
320,0,237299,1,0,1:0:0:0:
64,0,237469,1,0,1:0:0:0:
192,0,237469,1,0,1:0:0:0:
320,0,237640,1,0,1:0:0:0:
64,0,237811,1,0,1:0:0:0:
192,0,237811,1,0,1:0:0:0:
320,0,237981,1,0,1:0:0:0:
64,0,238152,1,0,1:0:0:0:
192,0,238152,1,0,1:0:0:0:
320,0,238323,1,0,1:0:0:0:
448,0,238323,1,0,1:0:0:0:
192,0,238493,1,0,1:0:0:0:
448,0,238493,1,0,1:0:0:0:
64,0,238835,1,0,1:0:0:0:
192,0,238835,1,0,1:0:0:0:
448,0,238835,1,0,1:0:0:0:
320,0,239005,1,0,1:0:0:0:
64,0,239176,1,0,1:0:0:0:
192,0,239176,1,0,1:0:0:0:
320,0,239347,1,0,1:0:0:0:
64,0,239517,1,0,1:0:0:0:
192,0,239517,1,0,1:0:0:0:
448,0,239517,1,0,1:0:0:0:
320,0,239688,1,0,1:0:0:0:
64,0,239859,1,0,1:0:0:0:
192,0,239859,1,0,1:0:0:0:
320,0,240029,1,0,1:0:0:0:
64,0,240200,1,0,1:0:0:0:
192,0,240200,1,0,1:0:0:0:
448,0,240200,1,0,1:0:0:0:
320,0,240371,1,0,1:0:0:0:
64,0,240541,1,0,1:0:0:0:
192,0,240541,1,0,1:0:0:0:
448,0,240541,1,0,1:0:0:0:
320,0,240712,1,0,1:0:0:0:
64,0,240883,1,0,1:0:0:0:
192,0,240883,1,0,1:0:0:0:
448,0,240883,1,0,1:0:0:0:
320,0,241053,1,0,1:0:0:0:
192,0,241139,1,0,1:0:0:0:
64,0,241224,1,0,1:0:0:0:
320,0,241224,1,0,1:0:0:0:
448,0,241224,1,0,1:0:0:0:
64,0,241395,1,0,1:0:0:0:
320,0,241565,1,0,1:0:0:0:
