osu file format v12

[General]
AudioFilename: bleed.mp3
AudioLeadIn: 0
PreviewTime: 87583
Countdown: 0
SampleSet: Normal
StackLeniency: 0.7
Mode: 3
LetterboxInBreaks: 0
SpecialStyle: 0
WidescreenStoryboard: 1

[Editor]
DistanceSpacing: 0.8
BeatDivisor: 1
GridSize: 32

[Metadata]
Title:bleed
TitleUnicode:bleed
Artist:MAX
ArtistUnicode:MAX
Creator:Aery-
Version:5key HD
Source:Ez2Dj -Bonus Edition-
Tags:MAX Simple_Star lZenxl lil_yumika_lil
BeatmapID:331671
BeatmapSetID:129388

[Difficulty]
HPDrainRate:6
CircleSize:5
OverallDifficulty:8
ApproachRate:5
SliderMultiplier:1.4
SliderTickRate:1

[Events]
//Background and Video events
0,0,"ugc.jpg",0,0
//Break Periods
//Storyboard Layer 0 (Background)
//Storyboard Layer 1 (Fail)
//Storyboard Layer 2 (Pass)
//Storyboard Layer 3 (Foreground)
//Storyboard Sound Samples
//Background Colour Transformations
3,100,163,162,255

[TimingPoints]
874,387.096774193548,4,1,0,65,1,0
87583,-100,4,1,0,65,0,1
100357,-100,4,1,0,65,0,0

[HitObjects]
51,192,874,1,4,3:0:0:0:
358,192,1067,1,0,0:0:0:0:
256,192,1261,1,0,0:0:0:0:
460,192,1454,1,4,3:0:0:0:
153,192,1551,1,4,3:0:0:0:
256,192,1648,1,4,3:0:0:0:
358,192,1745,1,0,0:0:0:0:
51,192,1841,1,4,3:0:0:0:
358,192,1938,1,0,0:0:0:0:
153,192,2132,1,0,0:0:0:0:
460,192,2229,1,0,0:0:0:0:
153,192,2325,1,0,0:0:0:0:
51,192,2422,1,0,0:0:0:0:
358,192,2616,1,0,0:0:0:0:
256,192,2809,1,0,0:0:0:0:
460,192,3003,1,4,3:0:0:0:
153,192,3099,1,4,3:0:0:0:
256,192,3196,1,4,3:0:0:0:
358,192,3293,1,0,0:0:0:0:
51,192,3390,1,4,3:0:0:0:
358,192,3487,1,0,0:0:0:0:
153,192,3680,1,0,0:0:0:0:
460,192,3777,1,0,0:0:0:0:
153,192,3874,1,0,0:0:0:0:
51,192,3970,1,0,0:0:0:0:
358,192,4164,1,0,0:0:0:0:
256,192,4358,1,0,0:0:0:0:
460,192,4551,1,4,3:0:0:0:
153,192,4648,1,4,3:0:0:0:
256,192,4745,1,4,3:0:0:0:
358,192,4841,1,0,0:0:0:0:
51,192,4938,1,4,3:0:0:0:
358,192,5035,1,0,0:0:0:0:
153,192,5229,1,0,0:0:0:0:
460,192,5325,1,0,0:0:0:0:
153,192,5422,1,0,0:0:0:0:
51,192,5519,1,0,0:0:0:0:
358,192,5712,1,0,0:0:0:0:
256,192,5906,1,0,0:0:0:0:
51,192,6099,128,4,6293:3:0:0:0:
460,192,6196,1,0,0:0:0:0:
358,192,6293,1,0,0:0:0:0:
460,192,6487,1,4,3:0:0:0:
153,192,6487,128,0,6680:0:0:0:0:
358,192,6583,1,0,0:0:0:0:
51,192,6777,1,4,3:0:0:0:
153,192,6874,1,4,3:0:0:0:
51,192,6970,1,4,3:0:0:0:
153,192,7067,1,4,3:0:0:0:
256,192,7067,1,0,0:0:0:0:
51,192,7261,1,4,3:0:0:0:
256,192,7454,1,4,3:0:0:0:
460,192,7454,1,0,0:0:0:0:
51,192,7648,1,4,3:0:0:0:
153,192,7745,1,4,3:0:0:0:
256,192,7841,1,4,3:0:0:0:
358,192,7938,1,0,0:0:0:0:
51,192,8035,1,4,3:0:0:0:
358,192,8132,1,0,0:0:0:0:
256,192,8229,1,4,3:0:0:0:
460,192,8325,1,0,0:0:0:0:
153,192,8422,1,4,3:0:0:0:
460,192,8519,1,0,0:0:0:0:
256,192,8616,1,4,3:0:0:0:
153,192,8616,1,0,0:0:0:0:
51,192,8809,1,4,3:0:0:0:
256,192,9003,1,4,3:0:0:0:
460,192,9003,1,0,0:0:0:0:
51,192,9196,1,4,3:0:0:0:
153,192,9293,1,4,3:0:0:0:
256,192,9390,1,4,3:0:0:0:
358,192,9487,1,0,0:0:0:0:
51,192,9583,1,4,3:0:0:0:
358,192,9680,1,0,0:0:0:0:
256,192,9777,1,4,3:0:0:0:
460,192,9874,1,0,0:0:0:0:
153,192,9970,1,4,3:0:0:0:
460,192,10067,1,0,0:0:0:0:
256,192,10164,1,4,3:0:0:0:
153,192,10164,1,0,0:0:0:0:
51,192,10358,1,4,3:0:0:0:
256,192,10551,1,4,3:0:0:0:
460,192,10551,1,0,0:0:0:0:
51,192,10745,1,4,3:0:0:0:
153,192,10841,1,4,3:0:0:0:
256,192,10938,1,4,3:0:0:0:
358,192,11035,1,0,0:0:0:0:
51,192,11132,1,4,3:0:0:0:
358,192,11229,1,0,0:0:0:0:
256,192,11325,1,4,3:0:0:0:
153,192,11422,1,0,0:0:0:0:
256,192,11519,1,4,3:0:0:0:
460,192,11519,1,0,0:0:0:0:
153,192,11616,1,0,0:0:0:0:
51,192,11712,128,4,13164:3:0:0:0:
358,192,11712,128,0,13164:2:0:0:0:
460,192,13261,1,8,1:0:0:0:
153,192,13358,1,0,0:0:0:0:
460,192,13454,1,0,0:0:0:0:
51,192,13551,1,0,0:0:0:0:
358,192,13648,1,8,1:0:0:0:
256,192,13745,1,0,0:0:0:0:
153,192,13841,1,0,0:0:0:0:
460,192,13938,1,0,0:0:0:0:
153,192,14132,1,0,0:0:0:0:
358,192,14229,1,0,0:0:0:0:
51,192,14325,1,0,0:0:0:0:
358,192,14422,1,8,1:0:0:0:
460,192,14519,1,0,0:0:0:0:
256,192,14616,128,0,14809:0:0:0:0:
153,192,14809,1,8,1:0:0:0:
460,192,14906,128,0,15099:0:0:0:0:
153,192,15099,1,0,0:0:0:0:
358,192,15196,128,8,15390:1:0:0:0:
153,192,15390,1,0,0:0:0:0:
460,192,15487,1,0,0:0:0:0:
153,192,15583,1,8,1:0:0:0:
51,192,15680,1,0,0:0:0:0:
460,192,15777,1,0,0:0:0:0:
153,192,15874,1,0,0:0:0:0:
358,192,15970,1,8,1:0:0:0:
153,192,16067,1,0,0:0:0:0:
256,192,16164,128,0,16358:0:0:0:0:
153,192,16358,1,8,1:0:0:0:
51,192,16454,1,0,0:0:0:0:
153,192,16551,1,0,0:0:0:0:
460,192,16648,1,0,0:0:0:0:
51,192,16745,1,8,1:0:0:0:
460,192,16841,1,0,0:0:0:0:
51,192,16938,1,0,0:0:0:0:
358,192,17035,1,0,0:0:0:0:
460,192,17132,1,8,1:0:0:0:
358,192,17229,1,0,0:0:0:0:
460,192,17325,1,0,0:0:0:0:
256,192,17422,1,0,0:0:0:0:
51,192,17519,1,8,1:0:0:0:
358,192,17616,1,0,0:0:0:0:
460,192,17712,1,0,0:0:0:0:
256,192,17809,1,0,0:0:0:0:
358,192,17906,1,8,1:0:0:0:
153,192,18003,1,0,0:0:0:0:
51,192,18099,1,0,0:0:0:0:
460,192,18196,1,0,0:0:0:0:
51,192,18293,1,8,1:0:0:0:
51,192,18390,1,0,0:0:0:0:
256,192,18487,1,0,0:0:0:0:
460,192,18583,1,0,0:0:0:0:
358,192,18680,1,8,1:0:0:0:
460,192,18777,128,0,18970:0:0:0:0:
153,192,18970,1,0,0:0:0:0:
460,192,19067,1,8,1:0:0:0:
153,192,19164,1,0,0:0:0:0:
358,192,19261,1,8,1:0:0:0:
51,192,19358,1,0,0:0:0:0:
460,192,19454,1,8,1:0:0:0:
153,192,19551,1,0,0:0:0:0:
460,192,19648,1,0,0:0:0:0:
51,192,19745,1,0,0:0:0:0:
358,192,19841,1,8,1:0:0:0:
256,192,19938,1,0,0:0:0:0:
153,192,20035,1,0,0:0:0:0:
460,192,20132,1,0,0:0:0:0:
153,192,20325,1,0,0:0:0:0:
358,192,20422,1,0,0:0:0:0:
51,192,20519,1,0,0:0:0:0:
358,192,20616,1,8,1:0:0:0:
460,192,20712,1,0,0:0:0:0:
256,192,20809,128,0,21003:0:0:0:0:
153,192,21003,1,8,1:0:0:0:
460,192,21099,128,0,21293:0:0:0:0:
153,192,21293,1,0,0:0:0:0:
358,192,21390,128,8,21583:1:0:0:0:
153,192,21583,1,0,0:0:0:0:
460,192,21680,1,0,0:0:0:0:
153,192,21777,1,8,1:0:0:0:
51,192,21874,1,0,0:0:0:0:
460,192,21970,1,0,0:0:0:0:
153,192,22067,1,0,0:0:0:0:
358,192,22164,1,8,1:0:0:0:
153,192,22261,1,0,0:0:0:0:
256,192,22358,128,0,22551:0:0:0:0:
153,192,22551,1,8,1:0:0:0:
51,192,22648,1,0,0:0:0:0:
153,192,22745,1,8,1:0:0:0:
460,192,22841,1,0,0:0:0:0:
51,192,22938,1,8,1:0:0:0:
460,192,23035,1,0,0:0:0:0:
51,192,23132,1,8,1:0:0:0:
358,192,23229,1,0,0:0:0:0:
460,192,23325,1,8,1:0:0:0:
358,192,23422,1,0,0:0:0:0:
460,192,23519,1,8,1:0:0:0:
256,192,23616,1,0,0:0:0:0:
51,192,23712,1,8,1:0:0:0:
358,192,23809,1,0,0:0:0:0:
460,192,23906,1,8,1:0:0:0:
256,192,24003,1,0,0:0:0:0:
460,192,24099,1,8,1:0:0:0:
51,192,24196,1,0,0:0:0:0:
153,192,24293,1,8,1:0:0:0:
358,192,24390,1,0,0:0:0:0:
51,192,24487,1,8,1:0:0:0:
153,192,24583,1,8,1:0:0:0:
460,192,24680,128,8,25454:1:0:0:0:
256,192,24874,1,8,1:0:0:0:
256,192,25067,1,0,0:0:0:0:
51,192,25261,128,12,25648:3:0:0:0:
460,192,25648,1,12,3:0:0:0:
153,192,25841,1,0,0:0:0:0:
153,192,26035,1,8,1:0:0:0:
358,192,26035,1,0,0:0:0:0:
256,192,26229,1,0,0:0:0:0:
460,192,26229,1,0,0:0:0:0:
153,192,26422,1,4,3:0:0:0:
153,192,26616,1,0,0:0:0:0:
358,192,26616,1,0,0:0:0:0:
460,192,26809,1,8,1:0:0:0:
460,192,27003,1,0,0:0:0:0:
256,192,27003,1,0,0:0:0:0:
51,192,27196,1,4,3:0:0:0:
153,192,27390,1,0,0:0:0:0:
153,192,27583,1,8,1:0:0:0:
460,192,27583,1,0,0:0:0:0:
51,192,27777,1,0,0:0:0:0:
358,192,27777,1,0,0:0:0:0:
153,192,27970,1,4,3:0:0:0:
153,192,28164,1,0,0:0:0:0:
256,192,28164,1,0,0:0:0:0:
51,192,28358,1,8,1:0:0:0:
153,192,28551,1,0,0:0:0:0:
358,192,28551,1,0,0:0:0:0:
51,192,28745,1,4,3:0:0:0:
153,192,28938,1,0,0:0:0:0:
153,192,29132,1,8,1:0:0:0:
460,192,29132,1,0,0:0:0:0:
51,192,29325,1,0,0:0:0:0:
358,192,29325,1,0,0:0:0:0:
153,192,29519,1,4,3:0:0:0:
153,192,29712,1,0,0:0:0:0:
460,192,29712,1,0,0:0:0:0:
51,192,29906,1,8,1:0:0:0:
51,192,30099,1,0,0:0:0:0:
358,192,30099,1,0,0:0:0:0:
256,192,30293,1,12,1:0:0:0:
460,192,30293,1,8,0:0:0:0:
153,192,30293,1,4,0:0:0:0:
358,192,30487,1,8,1:0:0:0:
51,192,30487,1,8,0:0:0:0:
358,192,30680,1,8,1:0:0:0:
256,192,30874,1,12,1:0:0:0:
153,192,30874,1,8,0:0:0:0:
460,192,30874,1,0,0:0:0:0:
358,192,31067,1,8,0:0:0:0:
358,192,31261,1,8,0:0:0:0:
51,192,31261,1,8,1:0:0:0:
153,192,31454,1,4,3:0:0:0:
256,192,31454,1,4,3:0:0:0:
460,192,31551,1,4,3:0:0:0:
256,192,31648,1,4,3:0:0:0:
153,192,31648,1,4,3:0:0:0:
460,192,31745,1,4,3:0:0:0:
256,192,31841,1,4,3:0:0:0:
153,192,31841,1,0,0:0:0:0:
51,192,32035,1,0,0:0:0:0:
358,192,32035,1,0,0:0:0:0:
153,192,32229,1,8,1:0:0:0:
358,192,32229,1,0,0:0:0:0:
256,192,32422,1,0,0:0:0:0:
460,192,32422,1,0,0:0:0:0:
358,192,32616,1,4,3:0:0:0:
153,192,32616,1,0,0:0:0:0:
358,192,32809,1,0,0:0:0:0:
51,192,32809,1,0,0:0:0:0:
153,192,33003,1,8,1:0:0:0:
256,192,33003,1,0,0:0:0:0:
256,192,33196,1,0,0:0:0:0:
460,192,33196,1,0,0:0:0:0:
358,192,33390,1,4,3:0:0:0:
153,192,33390,1,0,0:0:0:0:
256,192,33583,1,0,0:0:0:0:
460,192,33583,1,0,0:0:0:0:
153,192,33777,1,8,1:0:0:0:
460,192,33777,1,0,0:0:0:0:
358,192,33970,1,0,0:0:0:0:
51,192,33970,1,0,0:0:0:0:
153,192,34164,1,4,3:0:0:0:
460,192,34164,1,0,0:0:0:0:
460,192,34358,1,0,0:0:0:0:
256,192,34358,1,0,0:0:0:0:
358,192,34551,1,8,1:0:0:0:
153,192,34551,1,0,0:0:0:0:
358,192,34745,1,0,0:0:0:0:
51,192,34745,1,0,0:0:0:0:
153,192,34938,1,4,3:0:0:0:
460,192,34938,1,0,0:0:0:0:
358,192,35132,1,0,0:0:0:0:
51,192,35132,1,0,0:0:0:0:
51,192,35325,1,8,1:0:0:0:
153,192,35325,1,0,0:0:0:0:
256,192,35519,1,0,0:0:0:0:
460,192,35519,1,0,0:0:0:0:
51,192,35712,1,4,3:0:0:0:
153,192,35712,1,0,0:0:0:0:
51,192,35906,1,0,0:0:0:0:
358,192,35906,1,0,0:0:0:0:
153,192,36099,1,8,1:0:0:0:
460,192,36099,1,0,0:0:0:0:
153,192,36293,1,0,0:0:0:0:
256,192,36293,1,0,0:0:0:0:
460,192,36293,1,0,0:0:0:0:
153,192,36487,1,4,1:0:0:0:
51,192,36583,1,0,0:0:0:0:
460,192,36680,1,0,0:0:0:0:
358,192,36777,1,0,0:0:0:0:
153,192,36874,1,0,0:0:0:0:
51,192,36970,1,0,0:0:0:0:
460,192,37067,1,0,0:0:0:0:
256,192,37164,1,0,0:0:0:0:
153,192,37261,1,0,0:0:0:0:
51,192,37358,1,0,0:0:0:0:
358,192,37454,1,0,0:0:0:0:
256,192,37551,1,0,0:0:0:0:
51,192,37648,1,0,0:0:0:0:
460,192,37745,1,0,0:0:0:0:
358,192,37841,1,0,0:0:0:0:
256,192,37938,1,0,0:0:0:0:
153,192,38035,1,4,1:0:0:0:
51,192,38229,1,0,0:0:0:0:
153,192,38422,1,8,1:0:0:0:
358,192,38422,1,0,0:0:0:0:
358,192,38519,1,0,0:0:0:0:
358,192,38616,1,0,0:0:0:0:
153,192,38809,1,0,0:0:0:0:
460,192,38809,1,0,0:0:0:0:
358,192,39003,1,0,0:0:0:0:
153,192,39196,1,8,1:0:0:0:
256,192,39390,128,0,39777:0:0:0:0:
153,192,39583,1,0,0:0:0:0:
51,192,39777,1,0,0:0:0:0:
153,192,39970,1,8,1:0:0:0:
460,192,39970,1,0,0:0:0:0:
460,192,40067,1,0,0:0:0:0:
460,192,40164,1,0,0:0:0:0:
460,192,40261,1,0,0:0:0:0:
153,192,40358,1,0,0:0:0:0:
51,192,40551,1,0,0:0:0:0:
153,192,40745,1,8,1:0:0:0:
460,192,40938,1,0,0:0:0:0:
153,192,41132,1,8,1:0:0:0:
51,192,41325,1,0,0:0:0:0:
153,192,41519,1,8,1:0:0:0:
51,192,41519,128,0,41906:0:0:0:0:
153,192,41906,1,0,0:0:0:0:
460,192,41906,1,0,0:0:0:0:
256,192,42099,1,0,0:0:0:0:
153,192,42293,1,8,1:0:0:0:
256,192,42487,128,0,42874:0:0:0:0:
153,192,42680,1,0,0:0:0:0:
460,192,42874,1,0,0:0:0:0:
153,192,43067,1,8,1:0:0:0:
460,192,43261,128,0,43454:0:0:0:0:
358,192,43454,128,0,43648:0:0:0:0:
51,192,43841,128,4,44229:3:0:0:0:
460,192,43841,1,4,3:0:0:0:
153,192,43938,1,4,3:0:0:0:
358,192,44035,1,4,3:0:0:0:
153,192,44132,1,4,3:0:0:0:
460,192,44229,1,4,3:0:0:0:
51,192,44422,1,0,0:0:0:0:
153,192,44616,1,8,1:0:0:0:
358,192,44616,1,0,0:0:0:0:
358,192,44712,1,0,0:0:0:0:
358,192,44809,1,0,0:0:0:0:
153,192,45003,1,0,0:0:0:0:
460,192,45003,1,0,0:0:0:0:
358,192,45196,1,0,0:0:0:0:
153,192,45390,1,8,1:0:0:0:
256,192,45583,128,0,45970:0:0:0:0:
153,192,45777,1,0,0:0:0:0:
358,192,45970,1,0,0:0:0:0:
51,192,46164,1,8,1:0:0:0:
153,192,46164,1,0,0:0:0:0:
358,192,46358,1,0,0:0:0:0:
153,192,46551,1,0,0:0:0:0:
460,192,46551,1,0,0:0:0:0:
358,192,46841,1,0,0:0:0:0:
153,192,46938,1,8,1:0:0:0:
460,192,47132,1,0,0:0:0:0:
153,192,47325,1,0,0:0:0:0:
256,192,47519,1,0,0:0:0:0:
153,192,47712,1,8,1:0:0:0:
256,192,47906,1,0,0:0:0:0:
153,192,48099,1,0,0:0:0:0:
460,192,48099,1,0,0:0:0:0:
256,192,48293,1,0,0:0:0:0:
153,192,48487,1,8,1:0:0:0:
153,192,48680,1,0,0:0:0:0:
460,192,48680,128,0,48874:0:0:0:0:
153,192,48874,1,8,3:0:0:0:
51,192,49067,128,8,50325:3:0:0:0:
153,192,50422,1,8,1:0:0:0:
256,192,50422,1,4,3:0:0:0:
153,192,50809,1,8,1:0:0:0:
460,192,50809,1,0,0:0:0:0:
256,192,51003,1,0,0:0:0:0:
153,192,51196,1,8,1:0:0:0:
358,192,51196,1,0,0:0:0:0:
358,192,51390,1,0,0:0:0:0:
51,192,51390,1,0,0:0:0:0:
256,192,51583,1,8,1:0:0:0:
256,192,51777,1,0,0:0:0:0:
460,192,51777,1,0,0:0:0:0:
460,192,52164,1,0,0:0:0:0:
153,192,52164,1,0,0:0:0:0:
358,192,52358,1,8,1:0:0:0:
153,192,52551,1,0,0:0:0:0:
460,192,52551,1,0,0:0:0:0:
51,192,52745,1,8,1:0:0:0:
358,192,52745,1,0,0:0:0:0:
256,192,52938,1,0,0:0:0:0:
460,192,52938,1,0,0:0:0:0:
358,192,53035,1,0,0:0:0:0:
153,192,53132,1,8,1:0:0:0:
51,192,53325,1,0,0:0:0:0:
358,192,53325,1,0,0:0:0:0:
460,192,53325,1,0,0:0:0:0:
153,192,53519,1,8,1:0:0:0:
51,192,53616,1,0,0:0:0:0:
153,192,53712,1,0,0:0:0:0:
358,192,53712,1,0,0:0:0:0:
460,192,53712,1,0,0:0:0:0:
256,192,53906,1,8,1:0:0:0:
460,192,53906,1,0,0:0:0:0:
51,192,54099,1,0,0:0:0:0:
460,192,54099,1,0,0:0:0:0:
460,192,54196,1,0,0:0:0:0:
460,192,54293,1,8,1:0:0:0:
153,192,54487,1,0,0:0:0:0:
460,192,54583,1,0,0:0:0:0:
358,192,54680,1,8,1:0:0:0:
358,192,54874,1,0,0:0:0:0:
153,192,54874,1,0,0:0:0:0:
51,192,54874,1,0,0:0:0:0:
153,192,55261,1,0,0:0:0:0:
256,192,55261,1,0,0:0:0:0:
460,192,55261,1,0,0:0:0:0:
51,192,55454,1,8,1:0:0:0:
460,192,55454,1,0,0:0:0:0:
51,192,55648,1,0,0:0:0:0:
256,192,55648,1,0,0:0:0:0:
358,192,55648,1,0,0:0:0:0:
51,192,55841,1,8,1:0:0:0:
153,192,55841,1,0,0:0:0:0:
358,192,55938,1,0,0:0:0:0:
460,192,56035,1,0,0:0:0:0:
256,192,56132,1,0,0:0:0:0:
153,192,56229,1,8,1:0:0:0:
460,192,56229,1,0,0:0:0:0:
256,192,56325,1,0,0:0:0:0:
51,192,56325,1,0,0:0:0:0:
358,192,56422,1,0,0:0:0:0:
256,192,56519,1,0,0:0:0:0:
358,192,56616,1,8,1:0:0:0:
51,192,56616,1,0,0:0:0:0:
153,192,57003,1,8,1:0:0:0:
460,192,57003,1,0,0:0:0:0:
256,192,57196,1,0,0:0:0:0:
358,192,57390,1,8,1:0:0:0:
153,192,57390,1,0,0:0:0:0:
358,192,57583,1,0,0:0:0:0:
51,192,57583,1,0,0:0:0:0:
256,192,57777,1,8,1:0:0:0:
256,192,57970,1,0,0:0:0:0:
460,192,57970,1,0,0:0:0:0:
51,192,58358,1,0,0:0:0:0:
153,192,58358,1,0,0:0:0:0:
256,192,58551,1,8,1:0:0:0:
460,192,58551,1,0,0:0:0:0:
460,192,58648,1,0,0:0:0:0:
153,192,58745,1,0,0:0:0:0:
256,192,58745,1,0,0:0:0:0:
358,192,58938,1,8,1:0:0:0:
51,192,58938,1,0,0:0:0:0:
256,192,59132,1,0,0:0:0:0:
460,192,59132,1,0,0:0:0:0:
51,192,59325,1,8,1:0:0:0:
256,192,59519,1,0,0:0:0:0:
460,192,59519,1,0,0:0:0:0:
256,192,59906,1,0,0:0:0:0:
51,192,59906,128,0,60874:0:0:0:0:
256,192,60099,1,8,1:0:0:0:
358,192,60293,1,0,0:0:0:0:
358,192,60390,1,0,0:0:0:0:
358,192,60487,1,8,1:0:0:0:
460,192,60680,1,0,0:0:0:0:
153,192,60874,1,8,1:0:0:0:
51,192,60970,1,0,0:0:0:0:
460,192,61067,1,8,1:0:0:0:
358,192,61164,1,0,0:0:0:0:
153,192,61261,1,8,1:0:0:0:
51,192,61358,1,0,0:0:0:0:
460,192,61454,1,8,1:0:0:0:
256,192,61551,1,0,0:0:0:0:
153,192,61648,1,8,1:0:0:0:
51,192,61745,1,0,0:0:0:0:
358,192,61841,1,8,1:0:0:0:
256,192,61938,1,0,0:0:0:0:
153,192,62035,1,8,1:0:0:0:
460,192,62132,1,0,0:0:0:0:
358,192,62229,1,8,1:0:0:0:
256,192,62325,1,0,0:0:0:0:
51,192,62422,1,8,1:0:0:0:
153,192,62519,1,8,1:0:0:0:
460,192,62519,1,4,0:3:0:0:
358,192,62616,1,8,1:0:0:0:
51,192,62616,1,4,0:3:0:0:
153,192,62712,1,8,1:0:0:0:
256,192,62712,1,4,0:3:0:0:
51,192,62809,1,8,1:0:0:0:
358,192,62809,1,4,0:3:0:0:
153,192,63196,1,8,1:0:0:0:
460,192,63196,1,0,0:0:0:0:
256,192,63390,1,0,0:0:0:0:
153,192,63583,1,8,1:0:0:0:
358,192,63583,1,0,0:0:0:0:
358,192,63777,1,0,0:0:0:0:
51,192,63777,1,0,0:0:0:0:
256,192,63970,1,8,1:0:0:0:
256,192,64164,1,0,0:0:0:0:
460,192,64164,1,0,0:0:0:0:
153,192,64551,1,0,0:0:0:0:
460,192,64551,1,0,0:0:0:0:
358,192,64745,1,8,1:0:0:0:
460,192,64938,1,0,0:0:0:0:
153,192,64938,1,0,0:0:0:0:
358,192,65132,1,8,1:0:0:0:
51,192,65132,1,0,0:0:0:0:
256,192,65325,1,0,0:0:0:0:
460,192,65325,1,0,0:0:0:0:
358,192,65422,1,0,0:0:0:0:
153,192,65519,1,8,1:0:0:0:
51,192,65712,1,0,0:0:0:0:
358,192,65712,1,0,0:0:0:0:
460,192,65712,1,0,0:0:0:0:
153,192,65906,1,8,1:0:0:0:
51,192,66003,1,0,0:0:0:0:
153,192,66099,1,0,0:0:0:0:
358,192,66099,1,0,0:0:0:0:
460,192,66099,1,0,0:0:0:0:
256,192,66293,1,8,1:0:0:0:
460,192,66293,1,0,0:0:0:0:
51,192,66487,1,0,0:0:0:0:
460,192,66487,1,0,0:0:0:0:
460,192,66583,1,0,0:0:0:0:
460,192,66680,1,8,1:0:0:0:
153,192,66874,1,0,0:0:0:0:
460,192,66970,1,0,0:0:0:0:
358,192,67067,1,8,1:0:0:0:
358,192,67261,1,0,0:0:0:0:
153,192,67261,1,0,0:0:0:0:
51,192,67261,1,0,0:0:0:0:
153,192,67648,1,0,0:0:0:0:
256,192,67648,1,0,0:0:0:0:
460,192,67648,1,0,0:0:0:0:
460,192,67841,1,8,1:0:0:0:
51,192,67841,1,0,0:0:0:0:
358,192,68035,1,0,0:0:0:0:
256,192,68035,1,0,0:0:0:0:
51,192,68035,1,0,0:0:0:0:
51,192,68229,1,8,1:0:0:0:
153,192,68229,1,0,0:0:0:0:
358,192,68325,1,0,0:0:0:0:
460,192,68422,1,0,0:0:0:0:
256,192,68519,1,0,0:0:0:0:
460,192,68616,1,8,1:0:0:0:
153,192,68616,1,0,0:0:0:0:
51,192,68712,1,0,0:0:0:0:
256,192,68712,1,0,0:0:0:0:
358,192,68809,1,0,0:0:0:0:
256,192,68906,1,0,0:0:0:0:
358,192,69003,1,8,1:0:0:0:
51,192,69003,1,0,0:0:0:0:
153,192,69390,1,8,1:0:0:0:
460,192,69390,1,0,0:0:0:0:
256,192,69583,1,0,0:0:0:0:
153,192,69777,1,8,1:0:0:0:
358,192,69777,1,0,0:0:0:0:
358,192,69970,1,0,0:0:0:0:
51,192,69970,1,0,0:0:0:0:
256,192,70164,1,8,1:0:0:0:
256,192,70358,1,0,0:0:0:0:
460,192,70358,1,0,0:0:0:0:
51,192,70745,1,0,0:0:0:0:
153,192,70745,1,0,0:0:0:0:
256,192,70938,1,8,1:0:0:0:
460,192,70938,1,0,0:0:0:0:
256,192,71035,1,0,0:0:0:0:
153,192,71132,1,0,0:0:0:0:
460,192,71132,1,0,0:0:0:0:
51,192,71325,1,8,1:0:0:0:
358,192,71325,1,0,0:0:0:0:
256,192,71519,1,0,0:0:0:0:
460,192,71519,1,0,0:0:0:0:
51,192,71712,1,8,1:0:0:0:
256,192,71906,1,0,0:0:0:0:
460,192,71906,1,0,0:0:0:0:
51,192,72293,128,0,73261:0:0:0:0:
460,192,72293,1,0,0:0:0:0:
358,192,72487,1,8,1:0:0:0:
358,192,72583,1,0,0:0:0:0:
358,192,72680,1,0,0:0:0:0:
358,192,72777,1,0,0:0:0:0:
153,192,72874,1,8,1:0:0:0:
153,192,73067,1,0,0:0:0:0:
256,192,73261,1,8,1:0:0:0:
51,192,73454,1,0,0:0:0:0:
153,192,73648,1,8,1:0:0:0:
460,192,73648,1,8,1:0:0:0:
153,192,73841,1,8,1:0:0:0:
460,192,73841,1,8,1:0:0:0:
51,192,74229,1,8,1:0:0:0:
358,192,74229,1,8,1:0:0:0:
256,192,74616,1,8,1:0:0:0:
460,192,74616,1,8,1:0:0:0:
460,192,75196,1,8,1:0:0:0:
153,192,75293,1,0,0:0:0:0:
460,192,75390,1,0,0:0:0:0:
51,192,75487,1,0,0:0:0:0:
358,192,75583,1,8,1:0:0:0:
256,192,75680,1,0,0:0:0:0:
153,192,75777,1,0,0:0:0:0:
460,192,75874,1,0,0:0:0:0:
153,192,76067,1,0,0:0:0:0:
358,192,76164,1,0,0:0:0:0:
51,192,76261,1,0,0:0:0:0:
358,192,76358,1,8,1:0:0:0:
460,192,76454,1,0,0:0:0:0:
256,192,76551,128,0,76745:0:0:0:0:
153,192,76745,1,8,1:0:0:0:
460,192,76841,128,0,77035:0:0:0:0:
153,192,77035,1,0,0:0:0:0:
358,192,77132,128,8,77325:1:0:0:0:
153,192,77325,1,0,0:0:0:0:
460,192,77422,1,0,0:0:0:0:
153,192,77519,1,8,1:0:0:0:
51,192,77616,1,0,0:0:0:0:
460,192,77712,1,0,0:0:0:0:
153,192,77809,1,0,0:0:0:0:
358,192,77906,1,8,1:0:0:0:
153,192,78003,1,0,0:0:0:0:
256,192,78099,128,0,78293:0:0:0:0:
153,192,78293,1,8,1:0:0:0:
460,192,78390,1,0,0:0:0:0:
51,192,78487,1,0,0:0:0:0:
460,192,78583,1,0,0:0:0:0:
51,192,78680,1,8,1:0:0:0:
358,192,78777,1,0,0:0:0:0:
460,192,78874,1,0,0:0:0:0:
358,192,78970,1,0,0:0:0:0:
460,192,79067,1,8,1:0:0:0:
256,192,79164,1,0,0:0:0:0:
51,192,79261,1,0,0:0:0:0:
358,192,79358,1,0,0:0:0:0:
460,192,79454,1,8,1:0:0:0:
256,192,79551,1,0,0:0:0:0:
358,192,79648,1,0,0:0:0:0:
153,192,79745,1,0,0:0:0:0:
51,192,79841,1,8,1:0:0:0:
460,192,79938,1,0,0:0:0:0:
51,192,80035,1,8,1:0:0:0:
51,192,80132,1,0,0:0:0:0:
256,192,80229,1,8,1:0:0:0:
460,192,80325,1,0,0:0:0:0:
358,192,80422,1,8,1:0:0:0:
460,192,80519,128,0,80712:0:0:0:0:
153,192,80712,1,0,0:0:0:0:
460,192,80809,1,8,1:0:0:0:
153,192,80906,1,0,0:0:0:0:
358,192,81003,1,8,1:0:0:0:
51,192,81099,1,0,0:0:0:0:
460,192,81196,1,8,1:0:0:0:
153,192,81293,1,0,0:0:0:0:
460,192,81390,1,8,1:0:0:0:
153,192,81487,1,0,0:0:0:0:
460,192,81583,1,0,0:0:0:0:
51,192,81680,1,0,0:0:0:0:
358,192,81777,1,8,1:0:0:0:
256,192,81874,1,0,0:0:0:0:
153,192,81970,1,0,0:0:0:0:
460,192,82067,1,0,0:0:0:0:
153,192,82261,1,0,0:0:0:0:
358,192,82358,1,0,0:0:0:0:
51,192,82454,1,0,0:0:0:0:
358,192,82551,1,8,1:0:0:0:
460,192,82648,1,0,0:0:0:0:
256,192,82745,128,0,82938:0:0:0:0:
153,192,82938,1,8,1:0:0:0:
460,192,83035,128,0,83229:0:0:0:0:
153,192,83229,1,0,0:0:0:0:
358,192,83325,128,8,83519:1:0:0:0:
153,192,83519,1,0,0:0:0:0:
460,192,83616,1,0,0:0:0:0:
153,192,83712,1,8,1:0:0:0:
51,192,83809,1,0,0:0:0:0:
460,192,83906,1,0,0:0:0:0:
153,192,84003,1,0,0:0:0:0:
358,192,84099,1,8,1:0:0:0:
153,192,84196,1,0,0:0:0:0:
256,192,84293,128,0,84487:0:0:0:0:
153,192,84487,1,8,1:0:0:0:
51,192,84583,1,0,0:0:0:0:
153,192,84680,1,8,1:0:0:0:
460,192,84777,1,0,0:0:0:0:
51,192,84874,1,8,1:0:0:0:
460,192,84970,1,0,0:0:0:0:
51,192,85067,1,8,1:0:0:0:
358,192,85164,1,0,0:0:0:0:
460,192,85261,1,8,1:0:0:0:
358,192,85358,1,0,0:0:0:0:
460,192,85454,1,8,1:0:0:0:
256,192,85551,1,0,0:0:0:0:
51,192,85648,1,8,1:0:0:0:
358,192,85745,1,0,0:0:0:0:
460,192,85841,1,8,1:0:0:0:
256,192,85938,1,0,0:0:0:0:
460,192,86035,1,12,1:0:0:0:
153,192,86132,1,0,0:0:0:0:
358,192,86229,1,0,0:0:0:0:
51,192,86325,1,0,0:0:0:0:
460,192,86422,1,12,1:0:0:0:
153,192,86519,1,0,0:0:0:0:
358,192,86616,1,0,0:0:0:0:
51,192,86712,1,0,0:0:0:0:
460,192,86809,1,12,1:0:0:0:
153,192,86809,1,12,1:0:0:0:
153,192,87003,1,12,1:0:0:0:
460,192,87003,1,12,1:0:0:0:
460,192,87196,1,12,1:0:0:0:
153,192,87196,1,12,1:0:0:0:
153,192,87390,1,12,1:0:0:0:
460,192,87390,1,12,1:0:0:0:
358,192,87583,1,0,0:0:0:0:
51,192,87680,1,0,0:0:0:0:
460,192,87777,1,0,0:0:0:0:
51,192,87874,1,0,0:0:0:0:
358,192,87970,1,8,1:0:0:0:
256,192,88067,1,0,0:0:0:0:
153,192,88164,1,0,0:0:0:0:
358,192,88261,128,0,88454:0:0:0:0:
51,192,88454,1,0,0:0:0:0:
256,192,88551,1,0,0:0:0:0:
51,192,88648,1,0,0:0:0:0:
358,192,88745,1,8,1:0:0:0:
460,192,88841,1,0,0:0:0:0:
256,192,88938,128,0,89132:0:0:0:0:
460,192,89132,1,8,1:0:0:0:
153,192,89229,128,0,89422:0:0:0:0:
358,192,89422,1,0,0:0:0:0:
51,192,89519,128,8,89712:1:0:0:0:
460,192,89712,1,0,0:0:0:0:
358,192,89809,1,0,0:0:0:0:
153,192,89906,1,8,1:0:0:0:
256,192,90003,1,0,0:0:0:0:
460,192,90099,1,0,0:0:0:0:
51,192,90196,1,0,0:0:0:0:
358,192,90293,1,8,1:0:0:0:
51,192,90390,1,0,0:0:0:0:
256,192,90487,128,0,90680:0:0:0:0:
51,192,90680,1,8,1:0:0:0:
153,192,90777,1,0,0:0:0:0:
460,192,90874,1,0,0:0:0:0:
358,192,90970,1,0,0:0:0:0:
51,192,91067,1,8,1:0:0:0:
358,192,91164,1,0,0:0:0:0:
460,192,91261,1,0,0:0:0:0:
256,192,91358,1,0,0:0:0:0:
460,192,91454,1,8,1:0:0:0:
153,192,91551,1,0,0:0:0:0:
51,192,91648,1,0,0:0:0:0:
358,192,91745,1,0,0:0:0:0:
460,192,91841,1,8,1:0:0:0:
51,192,91938,1,0,0:0:0:0:
460,192,92035,1,0,0:0:0:0:
256,192,92132,1,0,0:0:0:0:
358,192,92229,1,8,1:0:0:0:
460,192,92325,1,0,0:0:0:0:
51,192,92422,1,8,1:0:0:0:
460,192,92519,1,0,0:0:0:0:
51,192,92616,1,0,0:0:0:0:
153,192,92712,1,0,0:0:0:0:
256,192,92809,1,8,1:0:0:0:
460,192,92906,1,0,0:0:0:0:
51,192,93003,1,0,0:0:0:0:
358,192,93099,128,0,93293:0:0:0:0:
153,192,93293,1,0,0:0:0:0:
460,192,93390,1,0,0:0:0:0:
153,192,93487,1,0,0:0:0:0:
51,192,93583,1,8,1:0:0:0:
153,192,93680,1,0,0:0:0:0:
358,192,93777,1,8,1:0:0:0:
51,192,93874,1,0,0:0:0:0:
460,192,93970,1,0,0:0:0:0:
51,192,94067,1,0,0:0:0:0:
358,192,94164,1,8,1:0:0:0:
256,192,94261,1,0,0:0:0:0:
153,192,94358,1,0,0:0:0:0:
358,192,94454,128,0,94648:0:0:0:0:
51,192,94648,1,0,0:0:0:0:
256,192,94745,1,0,0:0:0:0:
51,192,94841,1,0,0:0:0:0:
358,192,94938,1,8,1:0:0:0:
460,192,95035,1,0,0:0:0:0:
256,192,95132,128,0,95325:0:0:0:0:
460,192,95325,1,8,1:0:0:0:
153,192,95422,128,0,95616:0:0:0:0:
358,192,95616,1,0,0:0:0:0:
51,192,95712,128,8,95906:1:0:0:0:
460,192,95906,1,0,0:0:0:0:
358,192,96003,1,0,0:0:0:0:
153,192,96099,1,8,1:0:0:0:
256,192,96196,1,0,0:0:0:0:
460,192,96293,1,0,0:0:0:0:
51,192,96390,1,0,0:0:0:0:
358,192,96487,1,8,1:0:0:0:
51,192,96583,1,0,0:0:0:0:
256,192,96680,128,0,96874:0:0:0:0:
51,192,96874,1,8,1:0:0:0:
153,192,96970,1,0,0:0:0:0:
460,192,97067,1,8,1:0:0:0:
358,192,97164,1,0,0:0:0:0:
51,192,97261,1,8,1:0:0:0:
358,192,97358,1,0,0:0:0:0:
460,192,97454,1,8,1:0:0:0:
256,192,97551,1,0,0:0:0:0:
460,192,97648,1,8,1:0:0:0:
153,192,97745,1,0,0:0:0:0:
51,192,97841,1,8,1:0:0:0:
358,192,97938,1,0,0:0:0:0:
460,192,98035,1,8,1:0:0:0:
51,192,98132,1,0,0:0:0:0:
460,192,98229,1,8,1:0:0:0:
256,192,98325,1,0,0:0:0:0:
358,192,98422,1,8,1:0:0:0:
51,192,98519,1,0,0:0:0:0:
153,192,98616,1,8,1:0:0:0:
256,192,98712,1,0,0:0:0:0:
358,192,98809,1,8,1:0:0:0:
460,192,98809,1,0,0:0:0:0:
51,192,98906,1,0,0:0:0:0:
153,192,98906,1,0,0:0:0:0:
460,192,99003,128,8,99777:1:0:0:0:
358,192,99003,1,0,0:0:0:0:
51,192,99099,1,8,1:0:0:0:
358,192,99196,1,8,1:0:0:0:
358,192,99390,1,8,1:0:0:0:
153,192,99583,128,8,99970:1:0:0:0:
51,192,100358,1,4,1:0:0:0:
460,192,100358,128,4,103454:1:0:0:0:
153,192,100358,128,4,103454:1:0:0:0:
