osu file format v9

[General]
AudioFilename: Freezing.mp3
AudioLeadIn: 1500
PreviewTime: 57272
Countdown: 0
SampleSet: Soft
StackLeniency: 0.6
Mode: 0
LetterboxInBreaks: 0

[Editor]
Bookmarks: 74259
DistanceSpacing: 1
BeatDivisor: 4
GridSize: 4

[Metadata]
Title:COLOR (TV Size)
Artist:MARiA
Creator:galvenize
Version:Hard
Source:Freezing
Tags:

[Difficulty]
HPDrainRate:5
CircleSize:4
OverallDifficulty:5
ApproachRate:7
SliderMultiplier:1.4
SliderTickRate:1

[Events]
//Background and Video events
Video,0,"freez1k.avi"
0,0,"bg5.jpg"
//Break Periods
//Storyboard Layer 0 (Background)
//Storyboard Layer 1 (Fail)
//Storyboard Layer 2 (Pass)
//Storyboard Layer 3 (Foreground)
//Storyboard Sound Samples
//Background Colour Transformations
3,100,163,162,255

[TimingPoints]
580,357.142857142857,4,2,1,50,1,0
580,-200,4,2,1,30,0,0
12008,-100,4,2,1,60,0,0
32008,-200,4,2,1,50,0,0
34865,-100,4,2,1,50,0,0
39865,-200,4,2,1,50,0,0
40580,-100,4,1,1,40,0,0
50580,-200,4,1,1,50,0,0
52008,-100,4,1,0,40,0,0
57722,-90.9090909090909,4,1,1,50,0,1
80580,-200,4,2,0,40,0,0

[Colours]
Combo1 : 47,160,198
Combo2 : 60,210,181
Combo3 : 51,247,56

[HitObjects]
140,56,580,2,0,B|176:68|204:92,1,70,0|2
192,160,1294,2,0,B|217:189|252:204,1,70
304,160,2008,2,0,B|344:170|368:204,1,70
368,268,2722,1,0
304,300,3079,1,0
304,300,3258,1,0
304,300,3437,6,0,B|256:280|224:280,1,70,0|2
168,284,4151,2,0,B|128:268|96:244,1,70
136,188,4865,2,0,B|112:164|68:136,1,70
132,96,5580,2,0,B|168:80|208:68,1,70
196,72,6115,1,0
196,72,6294,6,0,B|236:68|276:72,1,70,0|2
332,52,7008,2,0,B|376:56|416:52,1,70
416,120,7722,2,0,B|420:168|408:200,1,70
341,182,8437,1,0
344,252,8794,1,0
356,292,8972,1,0
364,332,9151,6,0,B|324:348|284:336,1,70,0|2
264,276,9865,2,0,B|224:256|188:264,1,70
160,320,10580,2,0,B|88:324|16:276,1,140
132,124,12008,6,0,B|164:88|220:80,1,70
259,38,12365,1,2
336,72,12544,1,0
268,124,12722,1,8
268,124,12901,2,0,B|284:200|344:240,1,140
280,292,13437,5,0
208,248,13615,1,0
200,332,13794,1,2
136,280,13972,1,0
52,272,14151,2,0,B|52:312|40:368,2,70,8|0|0
208,72,14865,1,0
208,72,15044,5,0
288,52,15222,1,2
308,132,15401,1,0
228,152,15579,2,0,B|168:140|128:152,2,70,8|0|0
288,212,16115,1,0
372,216,16294,2,0,B|384:288|360:300,1,70
296,316,16651,2,0,B|240:328|212:312,1,70,2|0
156,272,17008,1,8
88,120,17365,1,0
248,68,17722,5,0
324,104,17901,2,0,B|368:68|408:68,1,70,0|2
456,116,18258,1,0
456,116,18437,2,0,B|416:156|428:256,1,140,8|0
488,308,18972,1,0
408,332,19151,5,0
344,276,19329,1,0
312,356,19508,1,2
312,356,19687,2,0,B|244:336|164:340,1,140
92,316,20222,1,0
136,244,20401,1,0
52,240,20579,6,0,B|24:160|72:80,1,140,0|2
128,152,21115,2,0,B|216:148|268:96,2,140,0|0|0
128,152,22008,5,0
256,260,22365,1,2
384,152,22722,1,8
256,44,23079,1,0
256,44,23437,6,0,B|256:136,1,70,0|0
212,188,23794,1,2
212,188,23972,2,0,B|240:216|256:248,1,70,0|8
232,324,24329,2,0,B|272:336|320:332,1,70
384,324,24687,1,0
464,300,24865,6,0,B|440:260|388:236,1,70,0|0
332,252,25222,2,0,B|336:212|368:184,1,70,2|0
380,108,25579,1,8
464,124,25758,1,0
464,40,25937,6,0,B|368:28|300:44,1,140
256,88,26472,1,0
188,40,26651,1,2
172,124,26829,1,0
88,112,27008,2,0,B|112:24,2,70,8|0|0
112,192,27544,1,0
32,212,27722,6,0,B|28:272|64:296,1,70
132,276,28079,1,0
204,320,28258,1,0
284,296,28437,2,0,B|352:320|436:312,2,140,8|0|0
332,228,29329,1,0
416,240,29508,1,2
488,196,29687,1,0
412,160,29865,2,0,B|392:124|384:80,1,70,8|0
228,40,30401,1,0
264,116,30579,6,0,B|292:152|292:196,1,70
220,224,30937,2,0,B|224:268|268:296,1,70,2|0
88,124,31472,6,0,B|144:80|240:72,1,140
300,96,32008,2,0,B|336:88|376:96,1,70
380,136,32544,2,0,B|428:160|428:200,2,70
340,152,33437,2,0,B|320:184|280:200,1,70
212,232,34151,1,0
132,204,34508,1,0
64,152,34865,6,0,B|104:88|188:64,1,140,4|0
208,144,35401,1,0
208,144,35579,2,0,B|292:140|364:88,1,140
408,52,36115,1,0
408,52,36294,6,0,B|448:112|444:188,1,140
364,212,36830,1,0
420,272,37008,2,4,B|476:336,1,70,0|0
384,344,37365,2,4,B|328:280,1,70,0|0
268,340,37722,6,0,B|188:328|108:344,1,140,4|0
52,304,38258,1,0
52,304,38437,2,0,B|76:232|152:204,1,140
200,272,38972,1,0
200,272,39151,2,0,B|272:240|312:176,1,140
256,116,39687,1,0
320,52,39865,6,0,B|284:32|252:28|220:32|184:48,1,140,0|4
96,92,40758,6,0,B|72:120|64:160,1,70
144,188,41115,2,0,B|176:156,2,35
76,240,41472,1,0
156,268,41651,1,0
92,324,41830,2,0,B|164:360|256:336,1,140
280,276,42365,5,0
352,316,42544,1,0
432,296,42722,2,0,B|472:336,2,35
380,228,43080,2,0,B|332:208,2,35
468,184,43437,6,0,B|448:104|376:64,1,140
312,104,43972,1,0
248,48,44151,1,0
216,124,44330,2,0,B|172:116|144:84,1,70
92,36,44687,6,0,B|60:120|92:192,1,140
160,212,45222,1,0
100,272,45401,1,0
180,304,45580,1,0
180,304,45669,1,0
180,304,45758,1,0
244,252,45937,2,0,B|280:224|328:216,1,70
380,180,46294,5,4
380,180,46472,1,0
156,60,47008,1,0
156,60,47187,1,0
224,304,47722,1,0
224,304,47901,1,0
256,56,48437,6,0,B|256:156,1,70
336,156,48794,2,0,B|320:200|304:224,1,70
224,224,49151,1,4
224,224,49330,1,0
436,84,49865,1,0
436,84,50044,1,0
428,208,50580,6,0,B|416:244|384:280,1,70
320,308,51294,2,0,B|264:320|216:304,1,105
216,304,52008,6,0,B|188:272|192:232,1,70,4|0
124,188,52365,1,0
140,104,52544,1,0
140,104,52633,1,0
140,104,52722,1,0
216,140,52901,1,0
272,76,53080,1,0
272,76,53258,2,0,B|348:76|424:96,1,140
480,140,53794,1,0
400,172,53972,2,0,B|328:184|272:232,1,140
240,308,54508,5,0
240,308,54597,1,0
240,308,54687,1,0
324,324,54865,2,0,B|400:312|456:268,1,140
424,192,55401,2,0,B|352:232|284:240,1,140
212,208,55937,1,0
260,140,56115,2,0,B|192:104|120:120,1,140
44,148,56651,1,0
368,276,57365,5,0
368,276,57722,2,0,B|300:268|228:216,1,153.999995410442,0|8
160,152,58258,2,0,B|160:100,2,38.4999988526106
68,168,58615,1,0
100,256,58794,1,8
100,256,58972,2,0,B|168:304|252:312,1,153.999995410442,0|0
328,344,59508,6,0,B|344:264|416:208,1,153.999995410442,8|0
496,184,60044,1,0
420,128,60222,1,8
476,52,60401,1,0
476,52,60580,6,0,B|400:48|320:72,1,153.999995410442,0|8
284,156,61115,1,0
284,156,61205,1,0
284,156,61294,1,0
224,88,61472,1,0
160,152,61651,1,8
216,224,61830,2,0,B|252:296|332:332,1,153.999995410442,0|0
240,360,62365,2,0,B|188:336|172:288,1,76.9999977052212,8|0
104,354,62722,2,0,B|84:302|100:252,1,76.9999977052212,0|0
56,196,63080,1,8
96,112,63258,5,0
96,112,63347,1,0
96,112,63437,2,0,B|130:80|184:68,1,76.9999977052212,0|0
232,144,63794,1,8
248,52,63972,2,0,B|280:44|328:48,1,76.9999977052212,0|0
324,48,64330,1,0
408,88,64508,1,8
408,88,64687,2,0,B|360:160|376:248,1,153.999995410442,0|0
352,324,65222,6,0,B|300:316|244:316,1,76.9999977052212,8|0
204,260,65580,2,0,B|264:232|300:232,1,76.9999977052212,0|0
340,168,65937,2,0,B|292:144|240:140,1,76.9999977052212,8|0
208,72,66294,2,0,B|128:112|88:200,1,153.999995410442,0|8
80,268,66830,2,0,B|164:256|224:176,1,153.999995410442,0|0
284,136,67365,1,8
284,136,67544,6,0,B|316:180|352:188,1,76.9999977052212,0|0
260,220,67901,2,0,B|292:252|336:264,1,76.9999977052212,0|8
244,300,68258,2,0,B|288:336|340:336,1,76.9999977052212,0|8
404,308,68615,1,8
404,308,68705,1,8
404,308,68794,1,8
440,224,68972,1,8
456,132,69151,6,0,B|400:72|316:40,1,153.999995410442,4|8
332,140,69687,1,0
284,220,69865,1,0
208,168,70044,1,0
152,244,70222,1,8
68,284,70401,2,0,B|44:204|68:124,1,153.999995410442,0|0
14,53,70937,2,0,B|94:41|172:60,1,153.999995410442,8|0
232,124,71472,1,0
294,49,71651,1,8
340,128,71830,1,0
340,128,71919,1,0
340,128,72008,6,0,B|392:104|432:96,1,76.9999977052212,0|0
452,184,72365,2,0,B|408:208|372:212,1,76.9999977052212,8|0
288,208,72722,2,0,B|260:180|204:160,1,76.9999977052212,0|0
132,192,73080,1,8
132,192,73258,2,0,B|148:272|212:320,1,153.999995410442,0|0
212,320,73794,5,8
394,291,74151,1,8
399,106,74508,1,8
216,132,74865,2,0,B|176:88|144:76,1,76.9999977052212,4|0
68,60,75222,1,8
68,60,75401,2,0,B|56:128|64:160,1,76.9999977052212,0|0
136,192,75758,1,0
44,204,75937,1,8
44,204,76115,6,0,B|68:280|160:308,1,153.999995410442,0|0
240,336,76651,1,8
240,336,76830,2,0,B|264:280|256:236,1,76.9999977052212,0|0
200,192,77187,2,0,B|240:108|328:76,1,153.999995410442,0|0
328,176,77722,6,0,B|392:224|488:212,1,153.999995410442,4|8
404,148,78258,2,0,B|392:256|344:296,1,153.999995410442,8|0
268,244,78794,1,8
276,336,78972,2,0,B|184:308|144:244,1,153.999995410442,0|0
88,184,79508,1,8
164,132,79687,1,0
76,108,79865,1,8
152,56,80044,1,0
64,32,80222,1,8
296,56,80580,6,0,B|272:105|312:164,1,105,4|0
332,186,81294,1,2
271,243,81651,1,0
213,181,82008,2,0,B|190:147|156:124,2,70,4|0|2
272,120,83080,1,0
256,192,83437,12,0,88972
