osu file format v8

[General]
AudioFilename: Kanashimi Rensa.mp3
AudioLeadIn: 1996
PreviewTime: 65790
Countdown: 0
SampleSet: Soft
StackLeniency: 0.5
Mode: 0
LetterboxInBreaks: 1

[Editor]
DistanceSpacing: 1
BeatDivisor: 4
GridSize: 8

[Metadata]
Title:Kanashimi Rensa (TV size)
Artist:MARIA
Creator:banvi
Version:Insane
Source:Valkyria Chronicles
Tags:OP Alicia Welkin

[Difficulty]
HPDrainRate:8
CircleSize:4
OverallDifficulty:8
ApproachRate:8
SliderMultiplier:1.8
SliderTickRate:2

[Events]
//Background and Video events
0,0,"BG3.jpg"
Video,0,"Valkyria Chronicles.avi"
//Break Periods
//Storyboard Layer 0 (Background)
//Storyboard Layer 1 (Fail)
//Storyboard Layer 2 (Pass)
//Storyboard Layer 3 (Foreground)
//Storyboard Sound Samples
//Background Colour Transformations
3,100,255,255,255

[TimingPoints]
754,923.076923076923,4,2,0,60,1,0
9984,-100,4,2,0,10,0,0
13676,342.857142857143,4,2,0,10,1,0
13847,-100,4,2,0,70,0,0
39818,-100,4,2,0,10,0,0
39990,-100,4,2,0,20,0,0
40161,-100,4,2,0,30,0,0
40333,-100,4,2,0,40,0,0
40504,-100,4,2,0,50,0,0
40676,-100,4,2,0,60,0,0
40847,-100,4,2,0,65,0,0
41018,-100,4,2,0,70,0,0
65790,-100,4,2,0,70,0,1
82247,-100,4,2,0,70,0,0

[Colours]
Combo1 : 0,255,255
Combo2 : 255,0,0
Combo3 : 0,128,192
Combo4 : 255,128,0

[HitObjects]
256,192,754,1,0
416,192,1215,1,0
464,128,1446,1,2
392,96,1677,2,0,B|360:56|304:48,1,90,0|2
317,51,2369,1,2
256,104,2600,5,0
208,168,2830,1,2
336,232,3292,1,2
208,296,3754,2,0,B|104:296,1,90,2|2
120,296,4446,5,0
152,224,4677,1,2
232,224,4907,1,0
280,160,5138,1,2
416,192,5600,5,0
256,56,6061,1,0
96,192,6523,1,0
256,328,6984,1,0
256,192,7446,6,0,B|256:128,2,45,0|2|0
176,192,8138,1,0
216,264,8369,1,2
296,264,8600,1,0
336,192,8830,1,2
296,120,9061,2,0,B|328:80,1,45,0|2
216,120,9523,2,0,B|184:80,1,45,0|2
256,192,10215,12,0,13676
256,64,15047,5,0
256,112,15133,1,0
256,160,15218,1,0
256,208,15304,1,0
256,256,15390,1,0
160,256,15561,1,0
208,336,15733,1,0
304,336,15904,1,0
352,256,16076,1,4
256,64,16418,5,4
320,128,16590,2,0,B|384:128,2,45,2|0|0
256,192,16933,1,2
200,264,17104,2,0,B|136:264,2,45,2|0|0
256,336,17447,1,2
256,336,17618,1,0
256,336,17790,1,2
312,264,17961,6,0,B|432:264,1,90,0|2
368,136,18390,1,2
368,136,18476,1,2
432,72,18647,1,2
456,160,18818,1,2
256,56,19161,5,4
104,192,19504,6,0,B|104:296,1,90,0|2
176,336,19847,1,0
256,296,20018,1,0
256,296,20104,1,0
256,296,20190,1,2
336,336,20361,2,0,B|448:352|456:224,1,180,2|2
455,235,20876,1,2
256,64,21218,5,2
168,80,21390,1,2
192,168,21561,1,2
104,192,21733,2,0,B|48:248|72:312,2,90,0|2|0
168,256,22247,2,0,B|208:312|184:368,1,90,2|2
464,192,23276,6,0,B|432:256|232:255|208:173,1,270
336,56,24133,5,0
352,144,24304,1,2
264,112,24476,1,0
264,112,24561,1,0
264,112,24647,2,0,B|224:64|152:64,1,90,2|0
99,47,24990,1,2
99,47,25161,2,0,B|100:249,1,180,2|2
99,226,25847,2,0,B|232:336|368:208,1,270,2|2
184,72,26704,5,2
120,136,26876,1,0
200,184,27047,1,2
264,120,27218,1,0
328,56,27390,6,0,B|448:32,1,90,0|2
400,128,27733,2,0,B|488:168,1,90,0|2
416,232,28076,2,0,B|416:336,1,90,0|2
328,296,28418,2,0,B|255:349,1,90,0|2
216,272,28761,6,0,B|88:272,1,90,0|2
32,272,29104,1,0
80,192,29276,1,0
80,144,29361,1,0
80,96,29447,1,2
80,96,29618,1,2
80,96,29790,1,2
256,48,30133,5,0
184,216,30476,1,2
256,272,30647,1,0
328,216,30818,1,2
328,216,30904,1,0
328,216,30990,1,2
256,272,31161,2,0,B|256:368,1,90,0|2
112,320,31847,5,0
256,200,32190,1,2
400,320,32533,1,0
256,200,32876,1,2
394,86,33218,1,0
326,142,33390,1,2
256,200,33561,1,0
256,200,33647,1,0
256,200,33733,2,0,B|72:200,1,180,2|2
256,48,35104,5,0
288,128,35276,1,2
256,216,35447,1,0
272,304,35618,2,0,B|368:288|408:192,1,180,0|2
456,272,36133,2,0,B|360:296|288:200,1,180,0|2
376,168,36647,1,0
432,96,36818,1,2
344,72,36990,6,0,B|256:128|167:68,1,180,0|2
256,32,37504,2,0,B|288:128|256:208,1,180,0|2
184,152,38018,1,2
112,208,38190,1,2
184,264,38361,1,2
352,328,38704,5,0
440,328,38875,1,2
272,264,39218,1,0
184,264,39390,1,2
112,208,39561,1,0
112,208,39647,1,0
112,208,39733,1,0
192,168,39904,5,0
256,104,40075,1,0
320,168,40247,1,0
256,232,40418,5,0
165,76,40590,1,0
352,74,40761,1,0
256,232,40933,1,0
256,48,41104,1,4
64,112,41447,5,0
32,288,41790,1,0
164,166,42133,1,2
348,166,42475,1,0
480,296,42818,1,0
448,120,43161,1,2
256,120,43504,5,0
256,168,43590,1,0
256,216,43675,1,0
256,264,43761,1,0
256,312,43847,1,4
400,192,44190,5,0
344,264,44361,1,2
168,264,44704,2,0,B|112:296,2,45,0|0|2
112,192,45047,1,0
160,112,45218,2,0,B|248:-8|448:64,1,270,2|2
480,104,45904,1,0
416,168,46075,1,2
328,152,46247,1,0
328,152,46333,1,0
328,152,46418,1,0
328,152,46504,1,0
328,152,46590,1,4
56,280,46933,5,0
136,328,47104,1,2
224,296,47275,1,0
304,344,47447,1,2
392,312,47618,2,0,B|432:280|440:208,1,90,0|2
391,156,47961,2,0,B|343:180|331:242,1,90,0|2
256,280,48304,1,0
176,224,48475,1,2
208,136,48647,1,0
304,136,48818,1,2
336,224,48990,1,2
336,224,49333,1,4
256,56,49675,5,0
168,40,49847,1,2
256,200,50190,1,2
344,40,50533,1,0
344,40,50618,1,0
344,40,50704,1,2
356,219,51047,1,2
300,291,51218,1,0
212,291,51390,1,2
156,219,51561,1,0
184,136,51733,5,0
216,104,51818,1,0
256,88,51904,1,0
296,104,51990,1,0
328,136,52075,1,4
392,304,52418,5,0
472,344,52590,1,2
392,304,52761,2,0,B|472:240|416:136,1,180,0|2
120,304,53447,5,0
40,344,53618,1,2
120,304,53790,2,0,B|40:240|96:136,2,180,0|2|2
256,184,54818,5,0
189,122,54990,1,2
256,64,55161,1,0
325,121,55333,1,2
72,40,55847,1,2
40,120,56018,1,0
80,200,56190,1,2
192,344,56533,1,0
256,280,56704,1,2
432,272,57047,1,0
424,184,57218,1,0
424,184,57304,1,0
424,184,57390,1,0
424,184,57475,1,0
424,184,57561,1,4
416,96,57733,6,0,B|336:40,1,90,0|2
264,96,58075,2,0,B|192:40,1,90,0|2
104,64,58418,1,0
40,128,58590,1,2
96,200,58761,1,0
96,200,58847,1,0
96,200,58933,1,2
184,216,59104,1,0
272,192,59275,1,2
344,136,59447,1,0
264,96,59618,5,8
224,192,59790,1,8
256,296,59961,1,8
432,192,60304,1,4
256,192,60475,12,0,63047
256,96,63390,5,0
176,136,63561,1,2
256,296,63904,1,0
336,344,64075,1,2
416,296,64247,1,0
256,96,64590,5,0
160,192,64761,1,2
256,288,64933,1,0
352,192,65104,1,2
208,80,65275,5,0
128,240,65447,1,2
296,312,65618,1,0
376,152,65790,1,4
256,192,66133,6,0,B|160:192,1,90,0|2
88,232,66475,1,0
64,192,66561,1,0
88,152,66647,1,2
144,80,66818,2,0,B|160:32|216:32,1,90,0|2
368,80,67161,2,0,B|352:32|296:32,1,90,0|2
256,112,67504,2,0,B|256:312,1,180,0|2
256,292,68018,1,0
256,292,68104,1,0
256,292,68190,1,2
256,292,68361,1,0
184,232,68533,5,0
256,176,68704,1,2
328,232,68875,1,0
384,160,69047,1,2
384,160,69390,1,2
384,160,69733,1,2
472,192,69904,5,8
256,40,70247,1,8
40,192,70590,1,8
256,344,70933,1,8
256,192,71275,6,0,B|152:176|112:280,1,180,0|2
208,272,71790,1,0
256,344,71961,1,2
344,312,72133,1,0
344,224,72304,1,0
344,224,72390,1,0
344,224,72475,1,2
416,168,72647,6,0,B|336:96|248:88,1,180,0|2
98,168,73161,2,0,B|178:96|266:88,1,180,0|2
256,176,73675,1,0
256,176,73761,1,0
256,176,73847,1,0
256,176,73933,1,0
256,176,74018,2,0,B|256:288,2,90,0|2|0
208,96,74533,2,0,B|152:24,1,90,2|0
304,96,74875,2,0,B|360:24,1,90,2|0
256,192,75218,12,0,76247
256,192,76418,5,0
256,192,76504,1,0
256,192,76590,1,0
256,192,76675,1,0
256,192,76761,1,4
440,192,77104,5,0
472,104,77275,1,2
392,56,77447,2,0,B|272:56,1,90,0|2
120,56,77961,2,0,B|168:152,1,90,2|0
248,128,78304,2,0,B|320:208|248:288,2,180,2|2|2
104,208,79333,5,0
192,208,79504,1,2
368,208,79847,1,0
456,208,80018,1,2
464,48,80361,5,8
464,336,80704,1,8
48,336,81047,1,8
48,48,81390,1,8
256,248,81733,1,8
256,248,82075,1,8
256,88,82590,5,2
224,168,82761,1,0
168,240,82933,1,0
208,320,83104,1,0
304,320,83275,1,2
344,240,83447,1,0
344,240,83533,1,0
344,240,83618,1,0
472,192,83961,5,8
256,40,84304,1,8
40,192,84647,1,8
256,192,84990,12,0,87733
256,56,88076,5,2
256,144,88247,1,0
256,232,88418,1,0
256,280,88504,1,0
256,328,88590,1,2
168,304,88761,5,2
344,304,88933,1,2
