osu file format v12

[General]
AudioFilename: MAN WITH A MISSION - Database (feat. Takuma).mp3
AudioLeadIn: 0
PreviewTime: 51855
Countdown: 0
SampleSet: Normal
StackLeniency: 0.7
Mode: 0
LetterboxInBreaks: 1
WidescreenStoryboard: 1

[Editor]
Bookmarks: 13889,46431,51855,62702
DistanceSpacing: 0.8
BeatDivisor: 2
GridSize: 4
TimelineZoom: 1

[Metadata]
Title:Database (feat. Takuma) (TV Size)
TitleUnicode:Database (feat. Takuma) (TV Size)
Artist:MAN WITH A MISSION
ArtistUnicode:MAN WITH A MISSION
Creator:Simon
Version:Easy
Source:Log Horizon
Tags:log horizon opening op 10-feet feat. takuma - database log horizon ログ・ホライズン Mikarunoel131 w1dth
BeatmapID:330487
BeatmapSetID:131151

[Difficulty]
HPDrainRate:2
CircleSize:3
OverallDifficulty:3
ApproachRate:4
SliderMultiplier:1.2
SliderTickRate:1

[Events]
//Background and Video events
0,0,"Log Horizon.jpg",0,0
Video,0,"LH OP.avi"
//Break Periods
//Storyboard Layer 0 (Background)
//Storyboard Layer 1 (Fail)
//Storyboard Layer 2 (Pass)
//Storyboard Layer 3 (Foreground)
//Storyboard Sound Samples
//Background Colour Transformations
3,100,163,162,255

[TimingPoints]
1686,338.983050847458,4,1,1,60,1,0
3041,-100,4,1,1,45,0,0
24228,-100,4,1,1,25,0,0
24397,-100,4,1,1,35,0,0
24567,-100,4,1,1,45,0,0
24736,-111.111111111111,4,1,1,40,0,0
35584,-100,4,1,1,45,0,0
51855,-100,4,1,1,50,0,1
81686,-111.111111111111,4,1,1,30,0,0

[Colours]
Combo1 : 255,0,0
Combo2 : 255,255,0
Combo3 : 0,0,255

[HitObjects]
171,242,3041,6,2,P|112:181|117:125,1,120,8|0,0:0|0:0,0:0:0:0:
200,156,3719,1,4,0:0:0:0:
379,193,4397,2,0,P|400:248|462:286,2,120,4|2|4,0:0|0:0|0:0,0:0:0:0:
462,144,5414,1,4,0:0:0:0:
398,74,5753,6,0,P|298:76|176:186,1,240,8|4,0:0|0:0,0:0:0:0:
166,254,6770,1,4,0:0:0:0:
260,269,7109,6,0,B|320:278|320:278|369:230,1,120,4|2,0:0|0:0,0:0:0:0:
439,178,7787,2,0,B|391:140|391:140|393:72,1,120,4|2,0:0|0:0,0:0:0:0:
301,49,8465,6,0,P|202:109|132:226,1,240,8|4,0:0|0:0,0:0:0:0:
214,267,9482,2,0,P|265:316|317:329,2,120,4|2|4,0:0|0:0|0:0,0:0:0:0:
294,214,10499,2,0,P|275:150|224:97,1,120,4|2,0:0|0:0,0:0:0:0:
148,134,11177,6,0,P|107:201|170:298,1,120,8|4,0:0|0:0,0:0:0:0:
200,275,11855,2,2,L|251:307,2,60
268,207,12533,2,2,L|217:174,2,60
364,211,13211,5,4,0:0:0:0:
421,287,13550,1,2,0:0:0:0:
327,305,13889,1,12,0:0:0:0:
147,236,14567,5,4,0:0:0:0:
240,216,14906,2,4,P|256:144|256:80,2,120
61,190,16262,1,0,0:0:0:0:
154,215,16601,2,0,P|143:279|62:299,2,120,4|2|4,0:0|0:0|0:0,0:0:0:0:
305,96,17957,5,2,0:0:0:0:
373,322,18635,1,2,0:0:0:0:
134,293,19313,2,4,P|72:188|161:94,1,240
226,122,20330,5,0,0:0:0:0:
316,155,20669,1,2,0:0:0:0:
375,337,21347,5,2,0:0:0:0:
207,247,22024,2,4,P|157:111|246:21,1,240
393,82,23380,2,2,L|375:202,1,120
329,285,24058,1,4,0:0:0:0:
150,254,24736,6,0,P|192:166|297:112,2,215.999993408203,8|4|8,0:0|0:0|0:0,0:0:0:0:
254,279,26431,2,0,P|326:281|350:305,2,107.999996704102
157,334,27448,2,10,P|78:284|48:148,1,215.999993408203
210,124,28804,6,0,L|301:60,1,107.999996704102,8|0,0:0|0:0,0:0:0:0:
371,108,29482,2,0,L|282:169,1,107.999996704102,8|0,0:0|0:0,0:0:0:0:
318,248,30160,2,0,P|295:290|228:318,2,107.999996704102,8|2|8,0:0|0:0|0:0,0:0:0:0:
150,286,31516,6,0,P|127:205|73:132,2,161.999995056153,4|8|4,0:0|0:0|0:0,0:0:0:0:
247,231,32872,2,2,P|326:257|445:331,1,215.999993408203
417,106,34228,2,2,P|337:129|215:199,1,215.999993408203
190,274,35245,5,4,0:0:0:0:
269,328,35584,2,0,P|390:308|439:186,1,240,8|4,0:0|0:0,0:0:0:0:
247,208,36940,2,0,P|303:197|332:136,2,120,4|2|4,0:0|0:0|0:0,0:0:0:0:
154,182,37957,5,4,0:0:0:0:
217,110,38296,2,0,P|322:42|444:123,1,240,8|4,0:0|0:0,0:0:0:0:
329,195,39482,2,0,P|324:253|360:310,2,120,4|2|4,0:0|0:0|0:0,0:0:0:0:
467,152,40669,5,4,0:0:0:0:
401,82,41008,2,0,P|297:112|207:207,1,240,8|4,0:0|0:0,0:0:0:0:
180,346,42194,2,0,P|113:343|69:297,2,120,8|4|8,0:0|0:0|0:0,0:0:0:0:
287,248,43380,5,4,0:0:0:0:
391,194,43719,2,0,P|353:121|193:78,1,240,8|4,0:0|0:0,0:0:0:0:
103,221,44906,2,0,P|62:292|61:340,2,120,4|2|4,0:0|0:0|0:0,0:0:0:0:
274,280,46092,5,4,0:0:0:0:
359,197,46431,2,8,P|328:141|178:46,1,240
83,210,47787,5,4,0:0:0:0:
103,304,48126,1,2,0:0:0:0:
198,297,48465,1,4,0:0:0:0:
256,192,49143,12,4,51177,0:0:0:0:
403,267,51855,6,0,L|332:156,2,120,8|4|8,0:0|0:0|0:0,0:0:0:0:
307,280,52872,2,0,P|241:259|208:92,1,240,8|4,0:0|0:0,0:0:0:0:
280,57,53889,5,2,0:0:0:0:
375,67,54228,1,4,0:0:0:0:
395,160,54567,2,0,P|294:245|161:236,1,240,8|4,0:0|0:0,0:0:0:0:
110,193,55584,6,2,P|91:147|245:122,1,240
229,184,56601,1,6,0:0:0:0:
304,243,56940,1,2,0:0:0:0:
396,220,57279,6,0,P|360:116|213:85,1,240,8|4,0:0|0:0,0:0:0:0:
181,149,58296,1,4,0:0:0:0:
171,244,58635,2,0,P|278:274|403:167,1,240,8|4,0:0|0:0,0:0:0:0:
296,166,59652,5,4,0:0:0:0:
202,144,59991,2,4,P|137:109|124:62,2,120,12|6|12,0:0|0:0|0:0,0:0:0:0:
301,248,61177,6,2,L|363:122,1,120
289,68,61855,2,2,L|236:175,1,120
101,227,62702,6,0,P|112:114|219:30,2,240,8|4|8,0:0|0:0|0:0,0:0:0:0:
288,266,64736,5,8,0:0:0:0:
380,237,65075,1,4,0:0:0:0:
382,140,65414,2,0,P|336:99|217:84,2,180,8|4|8,0:0|0:0|0:0,0:0:0:0:
406,245,66770,5,4,0:0:0:0:
250,290,67279,2,4,B|200:291|200:291|180:276|180:276|120:284|88:240,1,180
98,144,68126,6,8,P|178:101|339:109,1,240
412,238,69482,2,8,P|334:301|170:286,1,240
257,118,70838,6,2,B|256:139|256:139|260:168|260:168|252:167|252:167|256:178|256:178|255:235,2,120,8|4|8,0:0|0:0|0:0,0:0:0:0:
350,86,71855,1,4,0:0:0:0:
402,167,72194,2,0,P|401:240|453:301,2,120,8|2|8,0:0|0:0|0:0,0:0:0:0:
223,104,73550,6,2,P|135:195|154:303,1,240,10|6,0:0|0:0,0:0:0:0:
258,296,74567,2,4,P|314:289|390:209,2,120
242,191,75584,5,8,0:0:0:0:
147,246,75923,1,4,0:0:0:0:
116,142,76262,2,2,P|170:90|344:73,1,240,8|4,0:0|0:0,0:0:0:0:
290,132,78974,6,4,P|375:154|400:300,1,240,12|4,0:0|0:0,0:0:0:0:
287,265,79991,2,0,P|195:243|107:295,2,180,8|4|8,0:0|0:0|0:0,0:0:0:0:
289,165,81347,1,8,0:0:0:0:
256,192,81686,12,2,83719,0:0:0:0:
208,151,84397,6,0,P|172:102|105:90,2,107.999996704102,0|8|4,0:0|0:0|0:0,0:0:0:0:
191,246,85414,1,8,0:0:0:0:
256,192,85753,12,0,88465,0:0:0:0:
