osu file format v12

[General]
AudioFilename: WindClimbing.mp3
AudioLeadIn: 500
PreviewTime: 38361
Countdown: 0
SampleSet: Soft
StackLeniency: 0.7
Mode: 0
LetterboxInBreaks: 0

[Editor]
DistanceSpacing: 1.1
BeatDivisor: 4
GridSize: 8

[Metadata]
Title:Wind Climbing ~ Kaze ni Asobarete
TitleUnicode:Wind Climbing ~ 風にあそばれて
Artist:MAKI
ArtistUnicode:MAKI
Creator:jacob
Version:Hard
Source:Mahoujin Guru Guru
Tags:aki cover okui magical circle guruguru exit trance code speed anime テーマ 魔法陣グルグルエンディングテーマ
BeatmapID:253706
BeatmapSetID:94196

[Difficulty]
HPDrainRate:6
CircleSize:4
OverallDifficulty:6
ApproachRate:7
SliderMultiplier:1.5
SliderTickRate:2

[Events]
//Background and Video events
0,0,"BG.jpg",0,0
//Break Periods
2,51894,64128
2,103561,122461
//Storyboard Layer 0 (Background)
//Storyboard Layer 1 (Fail)
//Storyboard Layer 2 (Pass)
//Storyboard Layer 3 (Foreground)
//Storyboard Sound Samples
//Background Colour Transformations
3,100,163,162,255

[TimingPoints]
28,416.666666666667,4,2,0,100,1,0
19194,-100,4,2,0,70,0,0
20028,-100,4,2,0,100,0,0
25861,-100,4,1,0,70,0,0
26278,-100,4,2,0,100,0,0
38361,-100,4,1,1,80,0,1
51590,-100,4,1,1,80,0,0
51694,-100,4,1,1,80,0,1
51798,-100,4,1,1,80,0,0
65028,-100,4,2,0,100,0,0
70861,-100,4,1,0,70,0,0
71278,-100,4,2,0,100,0,0
77528,-100,4,1,0,70,0,0
77944,-100,4,2,0,100,0,0
90028,-100,4,1,1,80,0,1
100028,-100,4,2,0,100,0,0
101694,-100,4,2,0,80,0,0
103361,-100,4,2,0,100,0,1
103465,-100,4,2,0,100,0,0
123361,-100,4,2,0,80,0,0
128361,-100,4,2,0,90,0,0
135028,-100,4,1,1,80,0,1
148257,-100,4,1,1,80,0,0
148361,-100,4,1,1,80,0,1
161590,-100,4,1,1,80,0,0
161694,-100,4,1,1,80,0,1
161798,-100,4,1,1,80,0,0

[Colours]
Combo1 : 150,252,219
Combo2 : 249,205,72
Combo3 : 255,159,159
Combo4 : 253,138,62

[HitObjects]
258,192,13361,1,4,0:0:0:0:
229,269,13569,1,0,0:0:0:0:
163,217,13778,2,0,P|131:195|103:164,1,75,0|0,1:0|0:0,0:0:0:0:
239,78,14194,2,0,P|209:104|186:138,2,75,0|0|0,0:0|0:0|1:0,0:0:0:0:
313,40,14819,1,0,0:0:0:0:
313,39,15028,6,0,L|391:50,1,75,0|2,0:0|0:0,0:0:0:0:
471,156,15444,2,0,L|393:145,1,75,0|2,1:0|0:0,0:0:0:0:
291,224,15861,2,0,L|369:235,1,75,0|2,0:0|0:0,0:0:0:0:
448,349,16278,2,0,L|331:331,1,75,0|2,1:0|0:0,0:0:0:0:
292,325,16694,6,0,P|248:308|198:308,1,75,0|0,0:0|0:0,0:0:0:0:
139,322,17111,1,0,1:0:0:0:
62,295,17319,1,0,0:0:0:0:
125,239,17528,2,0,L|160:162,1,75
237,185,17944,2,0,L|272:108,2,75,0|0|0,1:0|0:0|0:0,0:0:0:0:
208,264,18569,5,0,0:0:0:0:
272,312,18778,2,0,P|304:328|368:344,1,75,0|0,1:0|0:0,0:0:0:0:
443,150,19194,2,0,P|418:220|408:296,2,150,2|2|4,1:0|1:0|0:0,0:0:0:0:
304,64,20444,6,0,L|256:72,3,37.5,0|0|0|0,1:0|0:0|0:0|0:0,0:0:0:0:
256,48,20861,2,0,L|184:96,1,75
184,216,21278,2,0,L|256:168,1,75,0|0,1:0|0:0,0:0:0:0:
304,232,21694,5,0,0:0:0:0:
385,219,21903,1,2,0:0:0:0:
291,312,22111,1,0,1:0:0:0:
291,312,22319,2,0,P|245:324|202:318,1,75,2|0,0:0|0:0,0:0:0:0:
140,293,22736,1,2,0:0:0:0:
124,212,22944,2,0,P|87:190|-1:191,1,112.5,0|0,1:0|0:0,0:0:0:0:
13,173,23361,6,0,L|63:90,1,75
134,108,23778,2,0,L|184:25,2,75,0|0|0,1:0|0:0|0:0,0:0:0:0:
185,172,24403,2,0,L|146:236,2,75,0|0|0,0:0|1:0|0:0,0:0:0:0:
266,160,25028,6,0,L|304:95,2,75,0|0|0,0:0|0:0|1:0,0:0:0:0:
214,276,25653,1,0,0:0:0:0:
214,276,25861,2,2,P|270:326|356:309,1,150,2|0,1:0|1:0,0:0:0:0:
409,255,26486,2,0,L|422:199,1,37.5
409,254,26694,6,0,P|342:223|296:160,1,150,4|0,0:0|1:0,0:0:0:0:
260,89,27319,1,0,0:0:0:0:
176,101,27528,2,0,L|112:112,2,37.5
346,79,27944,2,0,L|444:66,1,75,0|0,1:0|0:0,0:0:0:0:
471,134,28361,6,0,P|429:195|407:293,1,150,2|0,0:0|1:0,0:0:0:0:
446,340,28986,1,0,0:0:0:0:
363,346,29194,2,0,P|328:331|288:323,1,75
111,285,29611,2,0,P|146:300|186:308,1,75,0|0,1:0|0:0,0:0:0:0:
248,258,30028,6,0,P|249:159|304:109,1,150,2|0,0:0|1:0,0:0:0:0:
295,119,30548,2,0,L|399:132,1,75
389,132,30861,1,0,0:0:0:0:
437,197,31069,1,0,0:0:0:0:
378,253,31278,1,0,1:0:0:0:
433,313,31486,1,0,0:0:0:0:
433,313,31694,6,0,P|367:352|277:352,1,150,2|0,0:0|1:0,0:0:0:0:
212,348,32319,1,0,0:0:0:0:
213,348,32423,2,0,P|157:324|112:282,1,112.5,2|0,0:0|0:0,0:0:0:0:
192,253,32944,2,0,P|168:221|152:187,1,75,0|0,1:0|0:0,0:0:0:0:
164,60,33361,6,0,P|116:72|59:98,1,112.5,4|0,0:0|0:0,0:0:0:0:
36,86,33778,2,0,L|96:177,1,75,0|0,1:0|0:0,0:0:0:0:
120,219,34194,2,0,P|210:180|283:201,1,150,0|0,0:0|1:0,0:0:0:0:
327,234,34819,1,0,0:0:0:0:
394,281,35028,6,0,L|346:346,2,75,0|2|0,0:0|0:0|1:0,0:0:0:0:
440,212,35653,1,2,0:0:0:0:
406,136,35861,2,0,L|309:95,1,75,0|2,0:0|0:0,0:0:0:0:
256,127,36278,2,0,L|159:86,1,75,0|2,1:2|0:0,0:0:0:0:
108,73,36694,6,0,P|21:155|107:314,1,300,2|0,0:0|0:0,0:0:0:0:
164,294,37736,1,2,0:0:0:0:
234,336,37944,1,0,0:0:0:0:
315,324,38153,1,2,0:0:0:0:
315,324,38361,6,0,P|336:264|376:200,1,112.5,4|0,0:0|0:0,0:0:0:0:
376,224,38778,2,0,L|304:144,1,75,8|2,0:0|0:2,0:0:0:0:
272,104,39194,1,2,0:2:0:0:
200,144,39403,2,0,P|160:168|112:208,2,75,0|8|2,0:0|0:0|0:2,0:0:0:0:
267,95,40028,5,0,0:0:0:0:
230,21,40236,1,2,0:2:0:0:
158,61,40444,1,8,0:0:0:0:
230,21,40653,1,2,0:2:0:0:
70,45,40861,2,0,P|27:108|50:185,1,150,2|8,0:2|0:0,0:0:0:0:
89,243,41486,1,0,0:1:0:0:
89,243,41590,6,0,P|153:234|203:251,1,112.5,2|2,0:2|0:2,0:0:0:0:
218,328,42111,1,8,0:0:0:0:
299,315,42319,1,2,0:2:0:0:
288,232,42528,1,2,0:2:0:0:
288,232,42736,2,0,P|291:195|303:133,2,75,2|8|2,0:2|0:0|0:2,0:0:0:0:
437,266,43361,6,0,L|363:264,1,75,0|2,0:0|0:2,0:0:0:0:
469,186,43778,2,0,L|394:183,1,75,8|2,0:0|0:2,0:0:0:0:
502,104,44194,2,0,L|340:97,1,150,2|8,0:2|0:0,0:0:0:0:
186,94,45028,5,0,0:0:0:0:
103,98,45236,1,2,0:2:0:0:
143,169,45444,2,0,P|143:229|179:276,2,112.5,8|2|2,0:0|0:2|0:2,0:0:0:0:
261,42,46278,1,8,0:0:0:0:
261,42,46486,1,2,0:2:0:0:
342,56,46694,6,0,P|371:87|386:121,1,75,0|2,0:0|0:2,0:0:0:0:
339,243,47111,2,0,P|310:212|295:178,1,75,8|2,0:0|0:2,0:0:0:0:
215,116,47528,2,0,P|142:91|56:95,1,150,2|8,0:2|0:0,0:0:0:0:
18,156,48153,1,0,0:0:0:0:
18,156,48257,6,0,L|54:266,1,112.5,2|2,0:2|0:2,0:0:0:0:
78,341,48778,1,8,0:0:0:0:
143,291,48986,1,0,0:0:0:0:
143,291,49090,2,0,P|199:266|257:262,1,112.5,2|2,0:2|0:2,0:0:0:0:
319,305,49611,1,8,0:0:0:0:
393,270,49819,1,2,0:2:0:0:
393,270,50028,6,0,L|400:170,1,75,0|2,0:0|0:2,0:0:0:0:
284,116,50444,2,0,L|278:190,1,75,8|2,0:0|0:2,0:0:0:0:
270,304,50861,2,0,P|68:278|59:192,1,300,2|4,0:2|0:0,0:0:0:0:
480,152,65028,6,0,P|412:105|330:92,1,150,4|0,0:0|1:0,0:0:0:0:
272,136,65653,1,0,0:0:0:0:
227,205,65861,2,0,P|188:214|151:231,1,75
116,300,66278,1,0,1:0:0:0:
116,300,66486,2,0,P|30:275|9:211,1,150,0|2,0:0|0:0,0:0:0:0:
25,143,67111,5,0,1:0:0:0:
73,76,67319,1,2,0:0:0:0:
172,191,67528,2,0,L|110:149,1,75,0|2,0:0|0:0,0:0:0:0:
232,128,67944,2,0,L|215:54,1,75,0|2,1:0|0:0,0:0:0:0:
213,44,68257,1,0,0:0:0:0:
211,33,68361,6,0,P|289:25|387:65,1,150,0|0,0:0|1:0,0:0:0:0:
353,128,68986,1,0,0:0:0:0:
435,121,69194,2,0,P|464:147|495:190,1,75
420,226,69611,2,0,P|433:262|440:315,1,75,0|0,1:0|0:0,0:0:0:0:
381,356,70028,5,0,0:0:0:0:
234,332,70236,1,0,0:0:0:0:
313,308,70444,1,0,1:0:0:0:
249,254,70653,1,0,0:0:0:0:
249,254,70861,2,2,P|208:186|148:137,1,150,2|0,0:0|1:0,0:0:0:0:
84,96,71486,1,0,0:0:0:0:
73,177,71694,6,0,L|59:298,1,112.5,4|0,0:0|0:0,0:0:0:0:
60,313,72111,2,0,P|104:343|178:358,2,112.5,0|0|0,1:0|0:0|0:0,0:0:0:0:
74,177,72944,1,0,1:0:0:0:
153,155,73153,1,0,0:0:0:0:
224,192,73361,6,0,L|312:184,1,75,0|2,0:0|0:0,0:0:0:0:
328,264,73778,2,0,L|416:256,1,75,0|2,1:0|0:0,0:0:0:0:
440,328,74194,2,0,L|484:323,2,37.5,0|0|2,0:0|0:0|0:0,0:0:0:0:
357,338,74611,1,0,1:0:0:0:
274,345,74819,1,2,0:0:0:0:
198,311,75028,6,0,P|146:278|115:183,1,150,0|0,0:0|1:0,0:0:0:0:
140,119,75653,1,0,0:0:0:0:
140,119,75861,2,0,P|175:104|232:100,1,75
375,62,76278,2,0,P|340:77|283:81,1,75,0|0,1:0|0:0,0:0:0:0:
271,157,76694,5,0,0:0:0:0:
353,157,76903,1,0,0:0:0:0:
308,240,77111,1,0,1:0:0:0:
275,165,77319,1,0,0:0:0:0:
357,164,77528,2,2,L|470:199,1,112.5,2|0,0:0|2:0,0:0:0:0:
480,202,77944,2,0,P|430:268|424:352,1,150,0|4,1:0|0:0,0:0:0:0:
255,342,78778,5,0,1:0:0:0:
226,264,78986,1,0,0:0:0:0:
151,299,79194,1,0,0:0:0:0:
26,190,79611,1,0,1:0:0:0:
104,161,79819,1,0,0:0:0:0:
68,86,80028,6,0,P|139:51|232:58,1,150,2|0,0:0|1:0,0:0:0:0:
289,67,80653,1,0,0:0:0:0:
369,83,80861,1,0,0:0:0:0:
465,217,81278,1,0,1:0:0:0:
385,237,81486,1,0,0:0:0:0:
304,256,81694,6,0,L|143:289,1,150,2|0,0:0|1:0,0:0:0:0:
104,222,82319,1,0,2:0:0:0:
104,222,82528,2,0,L|265:189,1,150,0|0,0:0|1:0,0:0:0:0:
331,173,83153,1,0,0:0:0:0:
383,244,83361,6,0,L|371:336,1,75,2|0,0:0|0:0,0:0:0:0:
471,228,83778,2,0,L|480:153,1,75,0|0,1:0|0:0,0:0:0:0:
484,71,84194,2,0,P|414:31|331:61,1,150,2|0,0:0|1:0,0:0:0:0:
296,166,84819,1,0,0:0:0:0:
178,151,85028,6,0,L|23:250,2,150,4|0|0,2:0|1:0|0:0,0:0:0:0:
314,57,86278,1,0,1:0:0:0:
314,57,86694,6,0,L|351:131,1,75,0|2,0:0|0:0,0:0:0:0:
297,210,87111,2,0,L|263:142,1,75,0|2,1:0|0:0,0:0:0:0:
382,203,87528,2,0,L|415:270,1,75,0|2,0:0|0:0,0:0:0:0:
361,352,87944,2,0,L|327:284,1,75,0|2,1:0|0:0,0:0:0:0:
261,335,88361,6,0,B|199:203|199:203|227:133|200:48,1,300,2|0,0:0|0:0,0:0:0:0:
121,29,89403,1,2,0:0:0:0:
61,85,89611,1,0,0:0:0:0:
6,147,89819,1,2,0:0:0:0:
153,213,90028,6,0,L|87:163,1,75,4|0,0:0|0:0,0:0:0:0:
152,112,90444,2,0,P|232:96|272:48,1,112.5,8|2,0:0|0:2,0:0:0:0:
248,56,90861,2,0,L|336:64,1,75,0|2,0:0|0:2,0:0:0:0:
408,72,91278,1,8,0:0:0:0:
408,72,91486,1,2,0:2:0:0:
368,144,91694,6,0,L|344:232,1,75,0|2,0:0|1:2,0:0:0:0:
224,144,92111,2,0,L|243:71,1,75,8|2,0:0|1:2,0:0:0:0:
168,32,92528,2,0,P|88:32|24:56,1,150,2|8,0:2|0:0,0:0:0:0:
32,136,93153,2,0,L|56:200,2,37.5,0|2|0,0:0|0:2|0:0,0:0:0:0:
112,120,93569,6,0,L|144:200,1,75,2|8,0:2|0:0,0:0:0:0:
256,224,93986,2,0,L|228:154,1,75,2|2,0:2|0:2,0:0:0:0:
200,80,94403,1,2,0:2:0:0:
200,80,94611,1,8,0:0:0:0:
280,88,94819,1,2,0:2:0:0:
433,75,95028,6,0,P|400:72|360:80,1,75,0|2,0:0|0:2,0:0:0:0:
400,240,95444,2,0,P|392:200|395:166,1,75,8|2,0:0|0:2,0:0:0:0:
192,312,95861,2,0,P|259:297|339:305,1,150,2|8,0:2|0:0,0:0:0:0:
296,144,96694,5,4,0:0:0:0:
232,96,96903,1,2,0:2:0:0:
160,136,97111,2,0,P|120:160|88:208,1,75,8|0,0:0|0:0,0:0:0:0:
96,200,97423,2,0,L|160:320,1,112.5,2|2,0:2|0:2,0:0:0:0:
225,267,97944,2,0,L|270:348,2,75,8|2|0,0:0|0:2|0:2,0:0:0:0:
188,192,98569,5,2,0:2:0:0:
143,122,98778,1,8,0:0:0:0:
143,122,98986,1,2,1:2:0:0:
143,122,99194,2,0,P|215:82|301:96,1,150,2|8,0:2|0:0,0:0:0:0:
342,141,99819,1,0,0:0:0:0:
423,154,100028,6,0,L|445:338,1,150,2|0,0:0|1:0,0:0:0:0:
365,336,100653,1,0,0:0:0:0:
352,254,100861,2,0,L|334:97,1,150,0|0,0:0|1:0,0:0:0:0:
321,23,101486,1,0,0:0:0:0:
256,74,101694,5,0,0:0:0:0:
244,77,102111,1,0,0:0:0:0:
233,83,102528,2,0,P|204:188|26:189,1,300,0|4,0:0|0:0,0:0:0:0:
413,199,123361,6,0,P|373:202|316:222,1,75,4|2,0:0|0:0,0:0:0:0:
319,225,123673,2,0,L|277:236,1,37.5,0|0,0:0|1:0,0:0:0:0:
204,199,123986,2,0,L|158:208,2,37.5,2|0|0,0:0|0:0|0:0,0:0:0:0:
242,125,124403,2,0,L|278:117,2,37.5,2|0|0,0:0|0:0|1:0,0:0:0:0:
162,102,124819,1,2,0:0:0:0:
162,102,125028,6,0,P|85:101|6:120,1,150,0|0,0:0|1:0,0:0:0:0:
18,200,125653,2,0,L|31:259,2,37.5,2|0|0,0:0|0:0|0:0,0:0:0:0:
99,208,126069,2,0,L|137:253,2,37.5,2|0|0,0:0|0:0|1:0,0:0:0:0:
174,173,126486,1,2,0:0:0:0:
174,173,126694,6,0,P|256:163|341:189,1,150,0|0,0:0|1:0,0:0:0:0:
340,259,127319,2,0,L|314:347,1,75,2|0,0:0|0:0,0:0:0:0:
458,240,127736,2,0,L|479:168,2,75,2|0|2,0:0|1:0|0:0,0:0:0:0:
393,188,128361,6,0,L|440:28,1,150,0|0,0:0|1:0,0:0:0:0:
354,27,128986,1,2,0:0:0:0:
354,27,129090,2,0,P|297:26|230:51,1,112.5,0|2,0:0|0:0,0:0:0:0:
217,167,129611,2,0,L|185:100,1,75,0|2,1:0|0:0,0:0:0:0:
142,28,130028,5,0,0:0:0:0:
89,184,130444,1,0,1:0:0:0:
14,36,130861,1,2,0:0:0:0:
89,184,131278,2,0,L|148:309,1,112.5,0|0,1:0|0:0,0:0:0:0:
145,300,131694,6,0,P|181:285|239:282,1,75,0|2,0:0|0:0,0:0:0:0:
375,191,132111,2,0,P|339:206|281:209,1,75,0|2,1:0|0:0,0:0:0:0:
204,92,132528,2,0,P|219:128|222:186,1,75,0|2,0:0|0:0,0:0:0:0:
319,382,132944,2,0,P|304:346|301:288,1,75,0|2,1:0|0:0,0:0:0:0:
304,227,133361,5,2,0:0:0:0:
136,341,134194,1,0,0:0:0:0:
165,330,134611,1,0,0:0:0:0:
197,322,135028,6,0,P|176:262|136:198,1,112.5,4|0,0:0|0:0,0:0:0:0:
136,222,135445,2,0,L|208:142,1,75,8|2,0:0|0:2,0:0:0:0:
240,102,135861,1,2,0:2:0:0:
312,142,136070,2,0,P|352:166|400:206,2,75,0|8|2,0:0|0:0|0:2,0:0:0:0:
245,93,136695,5,0,0:0:0:0:
282,19,136903,1,2,0:2:0:0:
354,59,137111,1,8,0:0:0:0:
282,19,137320,1,2,0:2:0:0:
442,43,137528,2,0,P|485:106|462:183,1,150,2|8,0:2|0:0,0:0:0:0:
423,241,138153,1,0,0:1:0:0:
423,241,138257,6,0,P|359:232|309:249,1,112.5,2|2,0:2|0:2,0:0:0:0:
294,326,138778,1,8,0:0:0:0:
213,313,138986,1,2,0:2:0:0:
224,230,139195,1,2,0:2:0:0:
224,230,139403,2,0,P|221:193|209:131,2,75,2|8|2,0:2|0:0|0:2,0:0:0:0:
75,264,140028,6,0,L|149:262,1,75,0|2,0:0|0:2,0:0:0:0:
43,184,140445,2,0,L|118:181,1,75,8|2,0:0|0:2,0:0:0:0:
10,102,140861,2,0,L|172:95,1,150,2|8,0:2|0:0,0:0:0:0:
326,92,141695,5,0,0:0:0:0:
409,96,141903,1,2,0:2:0:0:
369,167,142111,2,0,P|369:227|333:274,2,112.5,8|2|2,0:0|0:2|0:2,0:0:0:0:
251,40,142945,1,8,0:0:0:0:
251,40,143153,1,2,0:2:0:0:
170,54,143361,6,0,P|141:85|126:119,1,75,0|2,0:0|0:2,0:0:0:0:
173,241,143778,2,0,P|202:210|217:176,1,75,8|2,0:0|0:2,0:0:0:0:
297,114,144195,2,0,P|370:89|456:93,1,150,2|8,0:2|0:0,0:0:0:0:
494,154,144820,1,0,0:0:0:0:
494,154,144924,6,0,L|458:264,1,112.5,2|2,0:2|0:2,0:0:0:0:
434,339,145445,1,8,0:0:0:0:
369,289,145653,1,0,0:0:0:0:
369,289,145757,2,0,P|313:264|255:260,1,112.5,2|2,0:2|0:2,0:0:0:0:
193,303,146278,1,8,0:0:0:0:
119,268,146486,1,2,0:2:0:0:
119,268,146695,6,0,L|112:168,1,75,0|2,0:0|0:2,0:0:0:0:
228,114,147111,2,0,L|234:188,1,75,8|2,0:0|0:2,0:0:0:0:
242,302,147528,2,0,P|352:311|405:279,1,150,2|8,0:2|0:0,0:0:0:0:
438,231,148153,1,0,0:0:0:0:
370,183,148361,6,0,P|316:129|287:39,1,150,4|8,0:0|0:0,0:0:0:0:
210,36,148986,1,0,0:0:0:0:
210,36,149090,2,0,P|196:118|170:163,1,112.5,2|2,0:2|0:2,0:0:0:0:
137,212,149611,1,8,0:0:0:0:
68,166,149819,1,2,0:2:0:0:
68,166,150028,6,0,L|35:256,2,75,0|2|8,0:0|0:2|0:0,0:0:0:0:
86,85,150653,1,2,0:2:0:0:
161,51,150861,2,0,P|232:30|330:45,1,150,2|8,0:2|0:0,0:0:0:0:
369,90,151486,1,0,0:0:0:0:
369,90,151590,6,0,L|340:222,1,112.5,2|2,0:2|0:2,0:0:0:0:
322,279,152111,1,8,0:0:0:0:
251,237,152319,1,2,0:2:0:0:
193,297,152528,1,0,0:2:0:0:
122,254,152736,2,0,P|101:215|95:166,2,75,2|8|2,0:2|0:0|0:2,0:0:0:0:
192,121,153361,6,0,P|182:149|180:194,2,75,0|2|8,0:2|0:2|0:1,0:0:0:0:
249,61,153986,1,2,0:2:0:0:
303,122,154194,2,0,P|374:139|477:138,1,150,2|8,0:2|0:1,0:0:0:0:
480,303,155028,5,0,0:0:0:0:
404,336,155236,1,2,0:2:0:0:
334,291,155444,2,0,L|207:273,2,112.5,8|2|2,0:0|0:2|0:2,0:0:0:0:
363,213,156278,2,0,L|264:198,1,75,8|2,0:0|0:2,0:0:0:0:
206,193,156694,5,0,0:0:0:0:
123,185,156903,1,2,0:2:0:0:
174,120,157111,2,0,L|186:43,1,75,8|2,0:0|0:2,0:0:0:0:
103,34,157528,2,0,P|63:101|-19:154,1,150,2|8,0:2|0:0,0:0:0:0:
46,216,158153,1,0,0:0:0:0:
46,216,158257,6,0,P|103:218|186:248,1,112.5,2|2,0:2|0:2,0:0:0:0:
222,282,158778,1,8,0:0:0:0:
291,326,158986,2,0,L|341:323,2,37.5,0|2|0,0:0|0:2|0:0,0:0:0:0:
313,246,159403,1,2,0:2:0:0:
313,246,159611,2,0,L|388:238,1,75,8|2,0:0|0:2,0:0:0:0:
469,229,160028,6,0,P|467:189|449:137,1,75,0|2,0:0|0:2,0:0:0:0:
312,85,160444,2,0,P|314:125|332:177,1,75,0|2,0:0|0:2,0:0:0:0:
256,192,160861,12,4,161694,0:0:0:0:
