osu file format v11

[General]
AudioFilename: Pegasus Fantasy Ver Omega -amplified vr2-.mp3
AudioLeadIn: 982
PreviewTime: 45292
Countdown: 1
SampleSet: Soft
StackLeniency: 0.7
Mode: 0
LetterboxInBreaks: 1

[Editor]
Bookmarks: 30202,42748
DistanceSpacing: 0.8
BeatDivisor: 4
GridSize: 8

[Metadata]
Title:Pegasus Fantasy Ver. Omega
TitleUnicode:Pegasus Fantasy Ver. Ω
Artist:MAKE-UP (feat. Shouko Nakagawa)
ArtistUnicode:MAKE-UP (feat. Shouko Nakagawa)
Creator:masamune11
Version:Normal
Source:Saint Seiya Omega
Tags:Saint Seiya Omega, Anime, Opening Theme
BeatmapID:198774
BeatmapSetID:68779

[Difficulty]
HPDrainRate:5
CircleSize:4
OverallDifficulty:5
ApproachRate:5
SliderMultiplier:1
SliderTickRate:2

[Events]
//Background and Video events
Video,50,"HD_720p_Saint_Seiya_Omega_OP.flv"
0,0,"Saint-Seiya-Omega-768x1024.jpg"
//Break Periods
//Storyboard Layer 0 (Background)
//Storyboard Layer 1 (Fail)
//Storyboard Layer 2 (Pass)
//Storyboard Layer 3 (Foreground)
//Storyboard Sound Samples
//Background Colour Transformations
3,100,192,192,192

[TimingPoints]
9292,363.641641337386,4,2,0,70,1,0
22748,-100,4,1,0,50,0,0
45837,-100,4,1,0,70,0,1
51656,-100,4,1,0,70,0,1
57474,-100,4,1,0,70,0,1
67474,-100,4,2,0,70,0,1
71839,-100,4,1,0,70,0,0

[Colours]
Combo1 : 128,64,64
Combo2 : 208,230,249
Combo3 : 151,245,214
Combo4 : 255,128,0
Combo5 : 124,141,238
Combo6 : 131,23,110
Combo7 : 61,18,65

[HitObjects]
80,80,10746,5,0,0:0:0
160,80,11110,2,0,P|240:80|432:176,1,300
416,256,13656,5,0,0:0:0
336,256,14019,2,0,P|256:256|64:160,1,300
248,168,16019,5,0,0:0:0
288,168,16201,1,0,0:0:0
328,168,16383,2,2,P|392:176|416:224,2,100
296,96,17474,1,0,0:0:0
272,64,17656,1,0,0:0:0
232,48,17838,2,2,P|168:56|144:104,2,100
216,176,18928,5,0,0:0:0
256,176,19110,1,0,0:0:0
296,176,19292,2,2,P|360:168|384:120,2,100
416,256,20383,1,0,0:0:0
376,256,20565,1,0,0:0:0
336,256,20747,2,2,P|272:264|248:312,2,100
256,168,22019,6,0,P|256:56,1,100,0|8,0:0|0:0,2:0:0
344,32,22747,2,2,P|432:48|336:248,1,400,0|8,0:0|0:0,0:0:0
280,208,24565,1,0,0:0:0
208,248,24929,2,2,P|120:232|216:32,1,400,2|10,0:0|0:0,0:0:0
256,112,26747,1,0,0:0:0
112,64,27656,5,0,0:0:0
136,96,27838,1,0,0:0:0
160,64,28019,2,0,P|272:40|368:64,1,200
472,80,29292,1,0,0:0:0
464,160,29655,2,0,P|448:224|416:264,1,100
367,303,30383,1,0,0:0:0
328,314,30565,1,0,0:0:0
280,312,30746,1,0,0:0:0
240,304,30928,2,0,P|144:256|88:168,3,200
128,64,34020,21,0,0:0:0
152,96,34201,1,0,0:0:0
184,112,34383,2,0,P|248:144|328:80|392:112,1,200,0|4,0:0|0:0,0:0:0
440,160,35474,1,0,0:0:0
416,192,35656,1,0,0:0:0
376,200,35838,2,0,P|312:168|232:232|168:200,1,200,0|4,0:0|0:0,0:0:0
176,136,36929,6,0,P|224:80,2,50,0|0|8,0:0|0:0|0:0,0:0:0
128,200,37656,2,0,P|80:256,2,50,0|0|8,0:0|0:0|0:0,0:0:0
224,272,38383,6,0,P|176:328,2,50,0|0|8,0:0|0:0|0:0,0:0:0
276,212,39111,2,0,P|324:156,2,50,0|0|8,0:0|0:0|0:0,0:0:0
368,88,39838,5,0,0:0:0
336,112,40020,1,0,0:0:0
304,88,40201,2,0,P|200:112|136:192,1,200
192,240,41292,37,0,0:0:0
224,264,41474,1,0,0:0:0
256,240,41656,2,0,P|360:216|424:136,1,200,8|4,0:0|0:0,0:0:0
256,192,42747,12,0,44929,0:0:0
112,160,45292,5,8,0:0:0
144,136,45474,1,8,0:0:0
180,120,45656,1,8,0:0:0
220,120,45838,2,10,P|272:132|316:176,1,100
440,256,46929,69,0,0:0:0
400,256,47111,2,8,P|337:254|280:297,2,100
400,176,48202,1,0,0:0:0
320,176,48565,2,0,P|224:168|152:80,2,200,8|8|8,0:0|0:0|0:0,0:0:0
376,120,50383,1,0,0:0:0
440,168,50747,1,0,0:0:0
376,216,51111,21,8,0:0:0
340,236,51293,1,8,0:0:0
300,232,51474,1,8,0:0:0
264,220,51656,2,8,P|224:160|256:104,1,100
88,88,52747,53,0,0:0:0
120,120,52929,2,0,P|232:120,2,100,8|8|8,0:0|0:0|0:0,0:0:0
136,160,53838,1,0,0:0:0
152,196,54020,1,0,0:0:0
172,232,54202,2,0,P|252:264|328:240,1,150,0|8,0:0|0:0,0:0:0
388,228,55111,1,0,0:0:0
424,212,55293,1,0,0:0:0
452,184,55474,2,0,P|468:132|461:40|364:39,1,200,0|8,0:0|0:0,0:0:0
144,64,56929,5,8,0:0:0
144,104,57111,1,8,0:0:0
144,144,57293,1,8,0:0:0
144,184,57474,2,8,P|168:220|240:240,1,100
352,208,58384,53,0,0:0:0
352,168,58565,1,0,0:0:0
352,128,58747,1,8,0:0:0
272,128,59111,2,0,P|272:24,2,100,8|4|8,0:0|0:0|0:0,0:0:0
272,200,60202,2,8,P|272:304,2,100,4|8|0,0:0|0:0|0:0,0:0:0
192,200,61293,2,0,P|48:200|48:64|72:64,1,200,8|8,0:0|0:0,0:0:0
232,72,62747,69,8,0:0:0
264,52,62929,1,8,0:0:0
304,44,63111,1,8,0:0:0
344,52,63293,2,4,P|400:92|400:148,1,100,8|4,0:0|0:0,0:0:0
360,272,64202,69,8,0:0:0
336,304,64384,1,8,0:0:0
300,316,64565,1,8,0:0:0
260,312,64747,2,8,P|148:269|90:150,1,250
288,136,66384,1,12,0:0:0
208,136,66747,1,12,0:0:0
128,136,67111,1,12,0:0:0
72,192,67475,5,0,0:0:0
104,216,67656,1,0,0:0:0
144,216,67838,1,8,0:0:0
184,216,68020,2,2,P|296:216,1,100,8|4,0:0|0:0,0:0:0
324,216,68566,1,0,0:0:0
364,204,68747,2,10,P|420:176|484:112,1,150,8|4,0:0|0:0,0:0:0
256,192,69656,12,8,71838,0:0:0
