osu file format v11

[General]
AudioFilename: Pegasus Fantasy Ver Omega -amplified vr2-.mp3
AudioLeadIn: 982
PreviewTime: 45292
Countdown: 1
SampleSet: Soft
StackLeniency: 0.8
Mode: 0
LetterboxInBreaks: 1

[Editor]
Bookmarks: 28019,46861,49043,49746
DistanceSpacing: 1
BeatDivisor: 4
GridSize: 4

[Metadata]
Title:Pegasus Fantasy Ver. Omega
TitleUnicode:Pegasus Fantasy Ver. Ω
Artist:MAKE-UP (feat. Shouko Nakagawa)
ArtistUnicode:MAKE-UP (feat. Shouko Nakagawa)
Creator:masamune11
Version:Hard
Source:Saint Seiya Omega
Tags:Saint Seiya Omega, Anime, Opening Theme
BeatmapID:198773
BeatmapSetID:68779

[Difficulty]
HPDrainRate:6
CircleSize:5
OverallDifficulty:7
ApproachRate:8
SliderMultiplier:1
SliderTickRate:2

[Events]
//Background and Video events
Video,50,"HD_720p_Saint_Seiya_Omega_OP.flv"
0,0,"Saint-Seiya-Omega-768x1024.jpg"
//Break Periods
//Storyboard Layer 0 (Background)
//Storyboard Layer 1 (Fail)
//Storyboard Layer 2 (Pass)
//Storyboard Layer 3 (Foreground)
//Storyboard Sound Samples
//Background Colour Transformations
3,100,192,192,192

[TimingPoints]
9292,363.636363636364,4,2,0,70,1,0
22382,-100,4,1,0,50,0,0
45837,-100,4,1,0,70,0,1
52043,-100,4,1,0,70,0,1
57922,-100,4,1,0,70,0,1
67473,-100,4,2,1,70,0,1
70019,-100,4,2,1,70,0,1
71837,-100,4,2,0,70,0,0

[Colours]
Combo1 : 128,64,64
Combo2 : 208,230,249
Combo3 : 151,245,214
Combo4 : 255,128,0
Combo5 : 124,141,238
Combo6 : 131,23,110
Combo7 : 61,18,65

[HitObjects]
272,304,9837,101,0,0:0:0
160,204,10201,1,0,0:0:0
128,168,10382,1,0,0:0:0
128,168,10564,1,0,0:0:0
128,168,10746,2,0,P|288:72|440:208,1,400
368,312,12746,5,0,0:0:0
288,312,13110,1,0,0:0:0
288,312,13292,1,0,0:0:0
288,312,13473,1,0,0:0:0
288,312,13655,2,0,P|111:229|125:49,1,400
224,96,15564,1,0,0:0:0
288,56,16019,5,0,0:0:0
321,34,16201,1,0,0:0:0
360,29,16382,2,0,P|399:28|409:29,1,50
409,29,16746,2,0,P|442:80|444:130,1,100
408,216,17473,1,0,0:0:0
386,256,17655,1,0,0:0:0
359,285,17837,2,0,P|312:312,1,50
316,310,18201,2,0,P|247:327|182:312,1,100,0|0,0:3|0:0,0:0:0
141,305,18928,5,0,0:0:0
106,281,19110,1,0,0:0:0
82,242,19292,2,0,P|57:198,1,50
57,199,19655,2,0,P|60:124|84:94,1,100
128,47,20382,1,0,0:0:0
165,33,20564,1,0,0:0:0
204,27,20746,2,0,P|254:28|332:49,1,100
375,71,21473,1,0,0:0:0
368,208,21837,5,0,0:0:0
328,208,22019,1,0,0:0:0
288,208,22201,1,0,0:0:0
288,168,22382,2,0,P|288:112,2,50,8|8|8,0:0|0:0|0:0,0:0:0
288,88,23110,2,8,P|272:76|244:100,2,50
208,88,23837,2,8,P|184:80|160:96,2,50
228,124,24382,2,0,P|228:228,1,100,0|8,0:0|0:0,0:0:0
228,224,24928,1,0,0:0:0
216,256,25110,1,8,0:0:0
176,256,25292,2,0,P|128:244|112:212,2,75,4|8|4,0:0|0:0|0:0,0:0:0
216,320,26201,5,0,0:0:0
256,320,26382,2,2,P|399:308|501:256,1,250
484,181,27655,1,0,0:0:0
474,142,27837,1,0,0:0:0
460,104,28019,2,0,P|445:82|425:68,1,50
425,68,28382,2,0,P|392:60|356:68,1,50
377,61,28746,1,0,0:0:0
310,160,29292,2,0,P|301:189|284:195,1,50,0|8,0:0|0:0,0:0:0
244,196,29655,2,0,P|215:187|208:160,1,50,0|8,0:0|0:0,0:0:0
204,130,30019,2,0,P|213:101|239:94,1,50,0|8,0:0|0:0,0:0:0
269,90,30382,2,0,P|298:99|304:125,1,50,0|8,0:0|0:0,0:0:0
304,115,30746,1,8,0:0:0
384,118,31110,6,0,P|414:124|448:151,1,50
462,157,31473,1,0,0:0:0
466,196,31655,2,0,P|464:282|422:299|395:300,1,100,8|0,0:0|0:0,0:0:0
433,287,32201,2,0,P|406:300|386:302,1,50,0|8,0:0|0:0,0:0:0
306,303,32746,6,0,P|242:303,1,50
215,301,33110,1,8,0:0:0
135,301,33473,2,0,P|79:301,1,50,0|8,0:0|0:0,0:0:0
47,229,34019,5,0,0:0:0
86,223,34201,1,0,0:0:0
124,211,34382,2,0,P|151:187|159:149,1,50
146,135,34746,1,0,0:0:0
118,106,34928,1,0,0:0:0
103,70,35110,2,0,P|144:28|212:47,2,100
103,70,36019,1,0,0:0:0
182,71,36382,5,0,0:0:0
222,71,36564,1,0,0:0:0
260,83,36746,1,0,0:0:0
291,107,36928,2,0,P|329:151|350:214,1,100,0|8,0:0|0:0,0:0:0
404,240,37655,5,0,0:0:0
372,264,37837,1,0,0:0:0
340,288,38019,2,0,P|304:316|240:320,1,100,8|0,0:0|0:0,0:0:0
172,316,38746,1,8,0:0:0
89,286,39110,5,0,0:0:0
54,267,39292,1,0,0:0:0
89,246,39473,1,8,0:0:0
52,229,39655,2,2,P|40:169|90:60,1,150,0|8,0:0|0:0,0:0:0
124,31,40564,37,0,0:0:0
163,22,40746,1,0,0:0:0
203,22,40928,2,0,P|260:56|308:60,1,100,0|8,0:0|0:0,0:0:0
332,52,41473,1,0,0:0:0
372,44,41655,1,0,0:0:0
412,36,41837,2,0,P|483:84|471:138|455:194,1,150,0|8,0:0|0:0,0:0:0
416,244,42746,86,0,P|356:279,1,50
366,229,43110,2,0,P|306:264,1,50
321,214,43473,2,0,P|261:249,1,50
277,198,43837,2,0,P|217:233,1,50
153,225,44382,1,0,0:0:0
153,225,44564,1,0,0:0:0
153,225,44746,1,0,0:0:0
153,225,44928,1,8,0:0:0
73,225,45291,21,0,0:0:0
73,185,45473,1,0,0:0:0
77,145,45655,1,0,0:0:0
89,107,45837,2,0,P|124:64|163:46,1,100,0|12,0:0|0:0,0:0:0
324,48,46928,69,0,0:0:0
364,48,47110,2,0,P|420:52|448:92,1,100,0|8,0:0|0:0,0:0:0
444,84,47837,1,0,0:0:0
444,124,48019,1,0,0:0:0
444,164,48201,1,8,0:0:0
440,244,48564,2,0,P|409:280|332:308|288:304,1,150,0|8,0:0|0:0,0:0:0
192,304,49655,1,0,0:0:0
152,308,49837,2,0,P|136:308|68:304|42:280,1,100,0|8,0:0|0:0,0:0:0
56,288,50564,2,0,P|56:244|60:220,1,50
136,144,51110,21,0,0:0:0
169,164,51291,1,0,0:0:0
208,171,51473,1,0,0:0:0
248,171,51655,2,0,P|305:160|346:120,1,100,0|12,0:0|0:0,0:0:0
237,259,52746,53,0,0:0:0
196,260,52928,2,0,P|128:248|96:228,1,100
60,164,53655,1,0,0:0:0
84,132,53837,1,0,0:0:0
108,164,54019,1,0,0:0:0
148,164,54201,2,0,P|212:140|256:64,1,150,0|12,0:0|0:0,0:0:0
320,28,55110,1,0,0:0:0
356,28,55291,1,0,0:0:0
396,36,55473,1,0,0:0:0
432,52,55655,2,0,P|496:88|504:124|496:174,1,150,0|8,0:0|0:0,0:0:0
496,173,56382,1,12,0:0:0
369,303,56928,5,0,0:0:0
329,303,57110,1,0,0:0:0
289,303,57291,1,0,0:0:0
249,303,57473,2,0,P|183:293|154:259,1,100,0|12,0:0|0:0,0:0:0
217,121,58564,5,0,0:0:0
241,89,58746,2,0,P|288:58|349:55,1,100,0|8,0:0|0:0,0:0:0
409,63,59473,2,0,P|446:86|459:107,1,50
460,129,59837,2,0,P|452:168|441:209|406:226,2,100,8|0|8,0:0|0:0|0:0,0:0:0
460,129,60746,1,8,0:0:0
370,49,61291,1,0,0:0:0
370,49,61473,1,8,0:0:0
289,49,61837,1,0,0:0:0
208,49,62201,1,0,0:0:0
208,49,62382,1,8,0:0:0
159,112,62746,5,0,0:0:0
178,146,62928,1,0,0:0:0
209,171,63110,1,0,0:0:0
248,177,63291,2,0,P|301:200|328:257,1,100,0|12,0:0|0:0,0:0:0
216,264,64201,5,0,0:0:0
182,286,64382,1,0,0:0:0
142,293,64564,1,0,0:0:0
102,287,64746,2,0,P|53:260|42:204,1,100,0|12,0:0|0:0,0:0:0
98,165,65473,1,0,0:0:0
127,137,65655,1,0,0:0:0
155,165,65837,1,0,0:0:0
184,137,66019,1,0,0:0:0
263,141,66382,2,0,P|333:142|375:150,1,100
448,168,67110,1,0,0:0:0
392,224,67473,5,0,0:0:0
362,250,67655,1,0,0:0:0
325,266,67837,1,0,0:0:0
284,266,68019,1,8,0:0:0
288,186,68382,1,0,0:0:0
288,186,68564,1,0,0:0:0
288,186,68746,2,0,P|243:215|222:258,1,100,8|0,0:0|0:0,0:0:0
183,266,69291,1,0,0:0:0
142,266,69473,2,0,P|98:248|72:188,1,100,8|0,0:0|0:0,0:0:0
73,203,70019,1,0,0:0:0
202,123,70382,70,0,P|192:140|200:168,1,50
200,122,70746,2,0,P|184:112|156:120,1,50,0|0,0:0|0:0,0:0:0
201,120,71110,2,0,P|212:104|204:76,1,50,0|0,0:0|0:0,0:0:0
200,120,71473,2,0,P|216:130|244:122,1,50,0|0,0:0|0:0,0:0:0
280,160,71837,2,0,P|289:196|284:206,1,50,0|12,0:0|0:0,0:0:0
207,228,72382,2,0,P|202:238|211:274,1,50,0|12,0:0|0:0,0:0:0
291,273,72928,2,0,P|295:283|286:319,3,50,0|0|0|12,0:0|0:0|0:0|0:0,0:0:0
