osu file format v11

[General]
AudioFilename: Nightcore - Indecent.mp3
AudioLeadIn: 500
PreviewTime: 45586
Countdown: 0
SampleSet: Normal
StackLeniency: 0.7
Mode: 0
LetterboxInBreaks: 1

[Editor]
DistanceSpacing: 1
BeatDivisor: 4
GridSize: 4

[Metadata]
Title:Indecent (Nightcore Mix)
TitleUnicode:Indecent (Nightcore Mix)
Artist:MAK & SAK feat. XANA
ArtistUnicode:MAK & SAK feat. XANA
Creator:Gero
Version:XinDecent
Source:
Tags:XinCrin Catalan Remix eLtigreXXx
BeatmapID:190110
BeatmapSetID:64525

[Difficulty]
HPDrainRate:6
CircleSize:4
OverallDifficulty:6
ApproachRate:7
SliderMultiplier:1.6
SliderTickRate:1

[Events]
//Background and Video events
0,0,"BG.jpg"
//Break Periods
2,40919,45029
2,68704,75592
//Storyboard Layer 0 (Background)
//Storyboard Layer 1 (Fail)
//Storyboard Layer 2 (Pass)
//Storyboard Layer 3 (Foreground)
//Storyboard Sound Samples
//Background Colour Transformations
3,100,163,162,255

[TimingPoints]
1822,347.302616346377,4,1,0,60,1,0
1822,-100,4,2,0,45,0,0
12588,-100,4,1,0,60,0,0
32384,-100,4,2,0,60,0,0
35163,-100,4,1,0,60,0,0
46276,-100,4,1,0,60,0,1
56001,-100,4,1,0,60,0,0
57390,-100,4,1,0,60,0,1
67114,-100,4,1,0,60,0,0
79617,-100,4,1,0,60,0,1
89342,-100,4,1,0,60,0,0
112958,-100,4,1,0,60,0,1
124072,-100,4,1,0,60,0,0
135186,-133.333333333333,4,2,0,60,0,0

[Colours]
Combo1 : 255,98,98
Combo2 : 255,206,255
Combo3 : 192,192,192
Combo4 : 255,215,196
Combo5 : 211,160,67

[HitObjects]
428,88,1822,1,4,1:0:0
472,192,2169,1,8,0:0:0
416,292,2516,1,8,0:0:0
216,192,3211,6,2,P|184:172|140:176,1,80,8|0,0:0|0:0,0:0:0
259,258,3558,2,0,P|247:294|259:338,1,80,8|0,0:0|0:0,0:0:0
325,297,3905,1,8,0:0:0
396,148,4253,5,8,0:0:0
336,96,4426,1,0,0:0:0
256,100,4600,2,0,P|192:64|108:80,1,160,8|8,0:0|0:0,0:0:0
44,120,5121,1,0,0:0:0
42,40,5295,2,0,P|113:82|114:155,1,160,8|8,0:0|0:0,0:0:0
140,324,5989,6,0,P|176:340|216:328,1,80,8|0,0:0|0:0,0:0:0
184,256,6336,2,0,P|221:245|257:261,1,80,8|0,0:0|0:0,0:0:0
303,327,6684,1,8,0:0:0
326,168,7031,5,8,0:0:0
326,168,7205,1,0,0:0:0
326,168,7378,2,0,P|258:136|184:168,1,160,4|8,0:0|0:0,0:0:0
256,208,7899,1,0,0:0:0
256,208,8073,2,0,P|256:44,1,160,8|8,0:0|0:0,0:0:0
101,90,8768,6,0,P|72:113|60:157,1,80,8|0,0:0|0:0,0:0:0
59,233,9115,2,0,P|71:272|100:295,1,80,8|0,0:0|0:0,0:0:0
132,200,9462,2,0,P|192:160|184:80,1,160,8|8,0:0|0:0,0:0:0
252,36,9983,1,0,0:0:0
256,192,10157,12,4,11546,1:0:0
256,232,12588,5,0,0:0:0
312,292,12762,1,0,0:0:0
232,304,12935,2,0,P|182:254|205:173,1,160,4|8,0:0|0:0,0:0:0
270,131,13456,1,0,0:0:0
208,80,13630,2,0,P|136:56|44:56,1,160,0|8,0:0|0:0,0:0:0
271,131,14324,2,0,P|289:166|326:174,1,80
381,217,14672,2,0,P|363:182|326:174,1,80,8|0,0:0|0:0,0:0:0
306,251,15019,1,0,0:0:0
140,324,15366,5,8,0:0:0
72,280,15540,1,0,0:0:0
64,200,15714,1,0,0:0:0
148,64,16061,1,8,0:0:0
216,108,16235,1,0,0:0:0
224,188,16408,2,0,P|249:260|324:283,1,160,0|8,0:0|0:0,0:0:0
420,180,17103,2,0,P|472:116,1,80
360,132,17450,2,0,P|312:196,2,80,8|0|0,0:0|0:0|0:0,0:0:0
212,68,18145,5,8,0:0:0
164,132,18318,1,0,0:0:0
224,188,18492,2,0,P|284:224|292:308,1,160,0|8,0:0|0:0,0:0:0
220,268,19013,1,0,0:0:0
220,268,19187,2,0,P|369:194,1,160,0|8,0:0|0:0,0:0:0
256,88,19881,2,0,P|232:52|196:36,1,80
184,116,20229,1,8,0:0:0
216,188,20402,1,0,0:0:0
296,188,20576,1,0,0:0:0
316,348,20923,5,8,0:0:0
256,296,21097,1,0,0:0:0
196,348,21270,2,0,P|152:360|68:340,2,120,2|2|0,0:0|0:0|0:0,0:0:0
316,348,21965,2,0,P|360:360|444:340,2,120,2|2|0,0:0|0:0|0:0,0:0:0
256,296,22660,1,4,0:0:0
76,84,23875,5,0,0:0:0
156,80,24049,2,0,P|232:80|300:36,1,160,4|8,0:0|0:0,0:0:0
380,52,24570,1,0,0:0:0
328,112,24743,2,0,P|256:156,1,80,0|0,0:0|0:0,0:0:0
272,244,25091,2,0,P|343:201,1,80,8|0,0:0|0:0,0:0:0
340,203,25438,5,0,0:0:0
448,324,25785,1,8,0:0:0
256,352,26133,1,0,0:0:0
68,328,26480,1,8,0:0:0
84,248,26654,1,0,0:0:0
84,248,26827,6,0,P|56:168|64:92,1,160,0|8,0:0|0:0,0:0:0
136,64,27348,1,0,0:0:0
216,80,27522,1,0,0:0:0
260,148,27696,1,0,0:0:0
308,88,27869,2,0,P|384:60,1,80,8|0,0:0|0:0,0:0:0
412,136,28216,2,0,P|460:148|476:180|476:180|464:212|416:228,3,160,0|8|0|8,0:0|0:0|0:0|0:0,0:0:0
448,304,29432,5,0,0:0:0
368,316,29606,2,0,P|320:256|304:172,1,160,4|8,0:0|0:0,0:0:0
256,112,30127,1,0,0:0:0
208,175,30300,2,0,P|192:256|144:316,1,160,0|8,0:0|0:0,0:0:0
68,296,30821,1,0,0:0:0
96,220,30995,1,0,0:0:0
256,284,31342,1,8,0:0:0
408,332,31690,1,0,0:0:0
372,176,32037,1,8,0:0:0
256,72,32384,5,2,2:0:0
192,120,32558,1,0,2:0:0
216,196,32731,1,2,2:0:0
296,196,32905,1,2,2:0:0
316,120,33079,1,0,2:0:0
300,280,33426,6,0,P|256:336|212:280,1,160,2|0,0:0|0:0,0:0:0
176,128,34121,1,2,0:0:0
336,124,34468,1,4,0:0:0
100,332,34989,5,2,0:0:0
76,255,35163,2,0,P|152:267|180:339,1,160,4|8,0:0|0:0,0:0:0
256,308,35684,1,0,0:0:0
280,232,35857,2,0,P|352:196|376:124,1,160,0|8,0:0|0:0,0:0:0
295,124,36378,1,0,0:0:0
320,48,36552,2,0,P|384:104|456:124,1,160,2|8,0:0|0:0,0:0:0
348,352,37246,2,0,P|388:288|468:244,1,160,2|8,0:0|0:0,0:0:0
440,332,37767,1,0,0:0:0
508,292,37941,6,0,P|416:156,1,160,0|8,0:0|0:0,0:0:0
361,102,38462,2,0,P|337:178,1,80
176,188,38983,1,8,0:0:0
256,332,39330,2,0,P|184:312|96:320,2,160,2|8|2,0:0|0:0|0:0,0:0:0
276,172,40372,1,8,0:0:0
128,108,40719,1,4,0:0:0
356,104,45929,6,0,P|432:76,1,80
356,104,46276,2,0,P|296:68|208:80,1,160,4|8,0:0|0:0,0:0:0
140,116,46797,1,0,0:0:0
184,184,46971,2,0,P|248:234|272:306,1,160,0|8,0:0|0:0,0:0:0
408,220,47665,2,0,P|448:224|484:248,1,80
424,136,48013,1,8,0:0:0
312,176,48186,1,0,0:0:0
336,292,48360,1,0,0:0:0
60,188,48707,6,0,P|72:232|68:268,1,80,8|0,0:0|0:0,0:0:0
60,188,49055,2,0,P|80:120|160:96,1,160,0|8,0:0|0:0,0:0:0
140,172,49576,1,0,0:0:0
217,150,49749,1,0,0:0:0
184,308,50097,1,8,0:0:0
344,308,50444,2,0,P|384:312|416:292,1,80
364,232,50791,1,8,0:0:0
420,152,50965,1,0,0:0:0
352,84,51138,1,0,0:0:0
260,216,51486,6,0,P|324:164,1,80,8|0,0:0|0:0,0:0:0
260,216,51833,2,0,P|260:288|184:296,1,160,4|8,0:0|0:0,0:0:0
176,216,52354,1,0,0:0:0
196,140,52528,2,0,P|272:120|272:120|344:160,1,160,0|8,0:0|0:0,0:0:0
244,32,53222,2,0,P|164:54,1,80
90,79,53570,1,8,0:0:0
21,154,53743,1,0,0:0:0
93,226,53917,1,0,0:0:0
176,364,54264,5,8,0:0:0
256,360,54438,1,0,0:0:0
316,308,54611,2,0,P|380:352|380:352|468:360,1,160,0|8,0:0|0:0,0:0:0
484,284,55132,1,0,0:0:0
456,208,55306,2,0,P|408:148|328:144,1,160,0|8,0:0|0:0,0:0:0
290,73,55827,2,0,P|332:148,1,80
176,96,56348,1,4,0:0:0
168,256,56695,1,4,0:0:0
332,256,57043,6,0,P|400:300,1,80,8|0,0:0|0:0,0:0:0
332,256,57390,2,0,P|372:184|372:184|376:104,1,160,4|8,0:0|0:0,0:0:0
300,76,57911,1,0,0:0:0
220,64,58085,2,0,P|144:72|96:136,1,160,0|8,0:0|0:0,0:0:0
160,284,58779,2,0,P|196:264|216:228,1,80
352,284,59126,2,0,P|316:264|296:228,1,80,8|0,0:0|0:0,0:0:0
256,160,59474,1,0,0:0:0
96,188,59821,6,0,P|180:188,1,80,8|0,0:0|0:0,0:0:0
96,188,60168,2,0,P|100:104|52:40,1,160,0|8,0:0|0:0,0:0:0
28,120,60689,1,0,0:0:0
16,200,60863,2,0,P|52:252|144:248,1,160,0|8,0:0|0:0,0:0:0
300,272,61558,2,0,P|376:296,1,80
300,192,61905,2,0,P|376:164,1,80,8|0,0:0|0:0,0:0:0
424,228,62252,1,0,0:0:0
340,92,62599,5,8,0:0:0
260,76,62773,1,0,0:0:0
260,76,62947,2,0,P|184:96|184:96|112:144,1,160,0|8,0:0|0:0,0:0:0
72,208,63468,1,0,0:0:0
52,288,63641,2,0,P|104:324|196:304,1,160,0|8,0:0|0:0,0:0:0
356,316,64336,2,0,P|348:276|316:252,1,80
318,172,64683,2,0,P|358:164|382:132,1,80,8|0,0:0|0:0,0:0:0
460,153,65031,2,0,P|438:72|372:56,1,160,0|8,0:0|0:0,0:0:0
304,100,65552,5,0,0:0:0
228,76,65725,2,0,P|68:68,1,160,0|8,0:0|0:0,0:0:0
12,164,66246,1,0,0:0:0
56,257,66420,2,0,P|216:265,1,160,0|8,0:0|0:0,0:0:0
294,184,66941,1,0,0:0:0
368,272,67114,1,4,0:0:0
256,192,67288,12,4,68504,0:0:0
256,192,76492,12,4,78228,0:0:0
256,120,78923,5,2,0:0:0
316,172,79096,1,2,0:0:0
312,252,79270,1,10,0:0:0
236,284,79444,1,2,0:0:0
232,204,79617,2,0,P|80:268,1,160,2|8,0:0|0:0,0:0:0
60,124,80312,6,0,P|100:132|144:124,1,80,2|0,0:0|0:0,0:0:0
180,56,80659,2,0,P|140:48|96:56,1,80,8|0,0:0|0:0,0:0:0
220,120,81006,2,0,P|292:84|332:16,1,160,2|8,0:0|0:0,0:0:0
396,164,81701,5,2,0:0:0
364,320,82048,2,0,P|328:332|288:320,1,80,10|0,0:0|0:0,0:0:0
328,252,82396,1,2,0:0:0
260,108,82743,1,8,0:0:0
216,264,83090,2,0,P|136:280|72:324,2,160,2|8|2,0:0|0:0|0:0,0:0:0
376,264,84132,1,8,0:0:0
372,104,84480,6,0,P|340:84|296:84,1,80,2|2,0:0|0:0,0:0:0
218,84,84827,2,0,P|176:84|144:104,1,80,8|2,0:0|0:0,0:0:0
201,161,85174,2,0,P|253:205|317:157,1,160,2|8,0:0|0:0,0:0:0
348,316,85869,5,2,0:0:0
256,348,86042,1,2,0:0:0
160,324,86216,1,8,0:0:0
92,256,86390,1,2,0:0:0
88,160,86563,2,0,P|144:100|144:24,1,160,2|8,0:0|0:0,0:0:0
256,124,87258,5,2,0:0:0
392,208,87605,1,10,0:0:0
368,284,87779,1,0,0:0:0
448,272,87953,2,0,P|488:200|480:120,1,160,2|8,0:0|0:0,0:0:0
324,100,88647,2,0,P|284:172|292:252,1,160,2|8,0:0|0:0,0:0:0
140,300,89342,1,4,0:0:0
32,72,90036,5,0,0:0:0
32,72,90210,2,0,P|112:48,1,80,0|0,0:0|0:0,0:0:0
136,124,90557,1,0,0:0:0
184,60,90731,1,4,0:0:0
340,96,91078,1,8,0:0:0
232,236,91426,1,0,0:0:0
312,228,91599,1,0,0:0:0
392,220,91773,6,0,P|400:304|344:340,1,160,8|0,0:0|0:0,0:0:0
184,328,92467,1,8,0:0:0
32,276,92815,1,0,0:0:0
168,188,93162,1,8,0:0:0
324,228,93509,6,2,P|408:148|388:36,2,240,2|0|2,0:0|0:0|0:0,0:0:0
164,228,94899,2,2,P|80:148|100:36,2,240,2|0|2,0:0|0:0|0:0,0:0:0
240,200,96114,1,0,0:0:0
184,144,96288,6,2,P|256:68|348:140,2,240,2|0|2,0:0|0:0|0:0,0:0:0
240,200,97503,1,0,0:0:0
228,280,97677,2,2,P|176:324|120:292|120:292|64:260|-8:304,2,240,2|0|2,0:0|0:0|0:0,0:0:0
256,116,99066,5,4,0:0:0
72,324,100108,1,0,0:0:0
232,312,100455,1,4,0:0:0
60,48,101845,6,0,P|220:48,1,160,6|0,2:0|0:0,0:0:0
380,56,102539,1,0,0:0:0
500,352,103234,2,0,P|340:352,1,160,2|0,2:0|0:0,0:0:0
180,360,103928,1,0,0:0:0
320,72,104623,6,0,P|328:144|404:132,2,160,2|0|0,2:0|0:0|0:0,0:0:0
192,312,106012,2,0,P|184:240|108:252,2,160,2|0|0,2:0|0:0|0:0,0:0:0
168,112,107401,6,0,P|104:100|32:40,2,160,2|0|0,2:0|0:0|0:0,0:0:0
344,272,108791,2,0,P|408:284|480:344,2,160,2|0|0,2:0|0:0|0:0,0:0:0
256,192,110180,12,4,111569,0:0:0
196,296,112611,6,0,P|124:336,1,80,0|0,0:0|0:0,0:0:0
156,260,112958,2,0,P|232:288|300:256,1,160,4|8,0:0|0:0,0:0:0
252,192,113479,1,0,0:0:0
304,132,113653,2,0,P|380:120|388:44,1,160,0|8,0:0|0:0,0:0:0
272,92,114348,2,0,P|192:96,1,80
180,176,114695,2,0,P|112:128,1,80,8|0,0:0|0:0,0:0:0
132,52,115042,2,0,P|52:68|32:140,1,160,0|8,0:0|0:0,0:0:0
68,208,115563,5,0,0:0:0
128,260,115737,2,0,P|176:284|176:284|216:248|280:264,1,160,4|8,0:0|0:0,0:0:0
236,332,116258,2,0,P|272:348|316:344,1,80
360,192,116779,1,8,0:0:0
252,72,117126,2,0,P|288:52|328:48,1,80
308,128,117473,2,0,P|236:168,1,80,8|0,0:0|0:0,0:0:0
292,228,117821,2,0,P|308:304|384:320,1,160,0|8,0:0|0:0,0:0:0
448,280,118342,5,0,0:0:0
372,252,118515,2,0,P|296:292|252:352,1,160,4|8,0:0|0:0,0:0:0
200,292,119036,2,0,P|139:233,1,80
40,112,119557,1,8,0:0:0
200,100,119904,1,0,0:0:0
276,80,120078,1,0,0:0:0
256,156,120252,2,0,P|228:184|188:184,2,80,8|0|0,0:0|0:0|0:0,0:0:0
412,196,120946,5,8,0:0:0
404,276,121120,1,0,0:0:0
324,284,121294,2,0,P|264:324|176:320,1,160,0|8,0:0|0:0,0:0:0
132,256,121815,1,0,0:0:0
147,177,121988,2,0,P|207:137|292:139,1,160,0|8,0:0|0:0,0:0:0
348,84,122509,2,0,P|367:119|368:164,1,80,0|4,0:0|0:0,0:0:0
60,60,123725,5,0,0:0:0
88,136,123898,1,0,0:0:0
96,216,124072,2,4,P|156:244|156:244|176:200|232:188,1,160,4|8,0:0|0:0,0:0:0
232,268,124593,1,0,0:0:0
296,224,124767,2,0,P|297:154|219:114,1,160,0|8,0:0|0:0,0:0:0
432,64,125461,5,0,0:0:0
460,140,125635,1,0,0:0:0
436,216,125809,1,8,0:0:0
392,280,125982,1,0,0:0:0
324,324,126156,2,0,P|256:360|176:344,1,160,0|8,0:0|0:0,0:0:0
104,308,126677,5,0,0:0:0
84,232,126850,2,0,P|96:184|130:175|180:168|184:108,1,160,0|8,0:0|0:0,0:0:0
112,76,127371,1,0,0:0:0
112,76,127545,2,0,P|188:112|268:104,1,160,0|8,0:0|0:0,0:0:0
344,228,128240,6,0,P|372:260|408:268,1,80
304,166,128587,2,0,P|292:126|260:106,1,80,8|0,0:0|0:0,0:0:0
384,160,128934,2,0,P|460:128|460:56,1,160,0|8,0:0|0:0,0:0:0
384,80,129455,5,0,0:0:0
384,80,129629,2,0,P|448:136|472:208,1,160,0|8,0:0|0:0,0:0:0
448,284,130150,1,0,0:0:0
388,336,130323,2,0,P|324:280|300:208,1,160,0|8,0:0|0:0,0:0:0
168,304,131018,5,0,0:3:0
164,224,131192,1,0,0:3:0
87,203,131365,1,8,0:0:0
43,270,131539,1,0,0:3:0
94,333,131713,1,0,0:3:0
332,68,132060,5,8,0:0:0
256,88,132234,1,0,0:0:0
256,88,132407,2,0,P|200:112|172:84|148:56|92:92,1,160,0|8,0:0|0:0,0:0:0
36,136,132928,1,0,0:0:0
12,220,133102,2,0,P|68:196|96:224|120:252|176:216,1,160,0|8,0:0|0:0,0:0:0
244,212,133623,2,0,P|229:175|197:148,1,80,0|4,0:0|0:0,0:0:0
429,320,134838,5,0,0:0:0
468,248,135012,1,0,0:0:0
476,168,135186,2,0,P|472:100|432:68,1,120.000004577637,4|2,0:0|0:0,0:0:0
402,140,135707,1,0,0:0:0
328,168,135880,2,0,P|332:100|369:69,1,120.000004577637,0|2,1:0|0:0,0:0:0
212,88,136575,2,0,P|156:112,1,60.0000022888184,0|0,0:0|0:0,0:0:0
140,188,136922,2,0,P|84:212,1,60.0000022888184,2|0,0:0|0:0,0:0:0
56,284,137270,1,0,1:0:0
208,324,137617,5,0,0:0:0
208,324,137790,1,0,0:0:0
208,324,137964,2,0,P|264:292|320:320|320:320|360:264|424:264,1,240.000009155274,4|0,0:0|1:0,0:0:0
176,80,139353,2,0,P|220:36,1,60.0000022888184,2|0,0:0|0:0,0:0:0
293,37,139701,2,0,P|336:80,1,60.0000022888184,2|0,0:0|0:0,0:0:0
256,100,140048,1,0,1:0:0
256,256,140395,5,2,0:0:0
256,256,140569,1,0,0:0:0
256,256,140743,2,0,P|192:280|140:272,2,120.000004577637,4|0|0,0:0|0:0|1:0,0:0:0
396,192,141784,1,0,0:0:0
244,160,142132,2,0,P|188:136,1,60.0000022888184,2|0,0:0|0:0,0:0:0
112,132,142479,2,0,P|52:104,1,60.0000022888184,2|0,0:0|0:0,0:0:0
56,28,142826,1,0,1:0:0
212,36,143174,5,2,0:0:0
288,36,143347,1,0,0:0:0
364,60,143521,2,0,P|412:88|440:148,1,120.000004577637,4|0,0:0|0:0,0:0:0
460,228,144042,1,2,0:0:0
420,304,144216,2,0,P|372:340|312:340,1,120.000004577637,0|0,1:0|0:0,0:0:0
244,292,144737,1,0,0:0:0
172,248,144910,1,4,0:0:0
