osu file format v9

[General]
AudioFilename: Ojamajo+de+BAN^.mp3
AudioLeadIn: 500
PreviewTime: 45948
Countdown: 0
SampleSet: Normal
StackLeniency: 0.7
Mode: 0
LetterboxInBreaks: 0

[Editor]
DistanceSpacing: 0
BeatDivisor: 4
GridSize: 4

[Metadata]
Title:Ojamajo de BAN^2 (TV Size)
Artist:MAHO-Dou
Creator:Kawayi Rika
Version:Rika
Source:Mo~tto! Ojamajo Doremi
Tags:spboxer3 DJPop Miya opening Harukaze Doremi Fujiwara Hazuki Senoo Aiko Segawa Onpu Momoko Asuka Chiba Chiemi Akiya Tomoko Matsuoka Yuki Shishido Rumi Miyahara Nami

[Difficulty]
HPDrainRate:7
CircleSize:4
OverallDifficulty:8
ApproachRate:8
SliderMultiplier:1.96
SliderTickRate:1

[Events]
//Background and Video events
Video,-705,"Ojamajo+de+BAN^.avi"
0,0,"BG.jpg"
//Break Periods
//Storyboard Layer 0 (Background)
//Storyboard Layer 1 (Fail)
//Storyboard Layer 2 (Pass)
//Storyboard Layer 3 (Foreground)
//Storyboard Sound Samples
//Background Colour Transformations
3,100,163,162,255

[TimingPoints]
949,405.405405405405,4,1,1,60,1,0
3787,-100,4,1,1,70,0,0
16759,-100,4,2,1,65,0,0
30138,-100,4,2,1,70,0,0
39665,-100,4,2,0,70,0,0
40070,-100,4,2,1,70,0,0
40476,-100,4,2,0,70,0,0
40526,-100,4,2,1,70,0,0
40678,-100,4,2,0,70,0,0
40881,-100,4,2,1,70,0,0
42908,-100,4,2,0,70,0,0
43314,-100,4,2,1,70,0,0
43719,-100,4,2,0,70,0,0
43770,-100,4,2,1,70,0,0
43922,-100,4,2,0,70,0,0
44530,-100,4,2,1,70,0,0
45948,-100,4,1,1,75,0,1
55881,-100,4,2,0,70,0,1
56287,-100,4,1,1,70,0,1
56692,-100,4,2,0,70,0,1
57097,-100,4,1,1,70,0,1
58922,-100,4,1,1,75,0,1
68854,-100,4,2,0,70,0,1
69259,-100,4,1,1,70,0,1
69665,-100,4,2,0,70,0,1
70273,-100,4,2,1,70,0,1
73516,-100,4,1,1,75,0,0
84868,-100,4,1,1,80,0,0
86489,-100,4,1,1,85,0,0
88516,-100,4,1,1,90,0,0

[Colours]
Combo1 : 222,227,13
Combo2 : 255,26,26
Combo3 : 244,130,26
Combo4 : 35,62,250
Combo5 : 119,68,196

[HitObjects]
128,192,1962,1,0
256,312,2266,1,0
384,192,2570,1,0
256,72,2874,1,0
256,192,3178,1,0
280,212,3280,1,0
304,232,3381,1,0
328,252,3482,1,0
352,272,3584,1,0
376,292,3685,1,0
400,312,3786,6,0,B|480:241|492:141,1,196,4|8
440,60,4394,1,0
344,40,4597,2,0,B|296:28,1,49
168,72,4901,2,0,B|216:84,1,49,0|8
300,136,5205,1,0
304,232,5408,2,0,B|200:264,2,98,0|0|8
464,312,6219,5,4
48,312,6624,1,8
159,64,7030,38,0,B|355:64,1,196,4|8
348,260,7840,1,0
348,260,7942,1,0
164,260,8144,1,0
164,260,8246,1,8
256,348,8449,1,0
256,252,8651,6,0,B|256:154,1,98
102,35,9057,2,0,B|188:84,1,98,8|0
409,35,9462,2,0,B|324:84,1,98,0|8
256,154,9867,1,8
56,192,10273,38,0,B|84:292|192:340,1,196,4|10
456,192,11084,2,0,B|428:292|320:340,1,196,0|10
256,272,11692,1,0
256,172,11894,5,0
172,220,12097,1,0
340,220,12300,1,10
256,272,12705,5,4
256,76,13111,1,10
120,56,13516,6,0,B|104:108|32:124,1,98,4|0
116,192,13921,2,0,B|216:192,1,98,10|0
299,295,14327,2,0,B|256:272,1,49
299,88,14631,2,0,B|256:112,1,49,0|10
312,192,14935,1,0
472,44,15138,5,0
472,144,15340,1,0
472,240,15543,1,10
472,340,15746,1,0
305,340,16151,6,8,B|205:340,1,98
176,192,16759,6,0,B|139:155|87:155,2,98,4|0|8
256,136,17367,1,0
336,192,17570,2,0,B|380:252|460:264,2,147
488,88,18381,1,0
488,88,18584,2,0,B|436:172,1,98,0|8
380,92,18989,1,0
292,44,19192,2,0,B|220:28|220:28|144:36,1,147
36,132,19800,1,0
104,316,20205,6,0,B|152:316|196:284,1,98,0|8
256,208,20611,1,0
316,284,20813,2,0,B|380:332|456:320,1,147
512,192,21421,1,0
440,124,21624,5,4
256,56,22030,1,8
72,124,22435,1,4
256,192,22840,1,8
256,220,22942,1,0
256,248,23043,1,0
256,276,23144,1,0
256,304,23246,1,4
96,280,23448,6,0,B|168:348,1,98,0|8
415,280,23854,2,0,B|344:348,1,98
256,220,24361,1,0
256,72,24665,1,0
256,72,24766,1,0
256,72,24867,1,0
72,116,25070,5,0
136,192,25273,1,8
180,280,25476,1,0
180,280,25678,2,0,B|132:316|76:296|40:336,2,147
252,344,26489,1,0
332,280,26692,2,0,B|428:280,1,98,0|8
504,100,27097,1,0
504,100,27300,2,0,B|444:241,1,147
308,192,27908,5,0
308,192,28009,1,0
308,192,28111,1,4
160,64,28516,1,8
12,192,28921,1,4
160,320,29327,1,8
256,196,29732,6,0,B|256:296,2,98,4|0|8
328,336,30340,2,0,B|418:373,1,98
372,248,30746,2,0,B|472:248,1,98,0|8
404,152,31151,2,0,B|491:108,1,98
312,32,31759,1,8
284,128,31962,2,0,B|188:128|144:160|144:224|188:252|284:256,1,294,0|8
446,362,32773,2,0,B|360:316,1,98,0|4
124,352,33381,5,8
56,280,33584,1,0
12,192,33786,1,4
96,140,33989,2,0,B|172:72|288:80,1,196
208,8,34597,2,0,B|360:168,1,196,4|8
336,252,35205,5,0
256,312,35408,1,0
176,252,35611,1,8
256,192,35813,1,8
256,312,36016,2,0,B|256:360,2,49,8|8|4
68,128,36624,6,0,B|176:76,1,98,8|0
256,192,37030,1,0
256,96,37232,1,0
328,36,37435,2,0,B|424:36,1,98,8|0
512,84,37840,6,0,B|408:120|388:248,1,196,4|8
338,309,38448,2,0,B|306:369|206:369|174:305,1,196
120,228,39057,1,8
12,73,39259,6,0,B|52:109|52:160,1,98,4|4
120,228,39665,1,8
120,228,39766,1,0
120,228,39867,1,8
208,192,40070,2,4,B|304:192,1,98
388,136,40476,2,0,B|436:104,2,49,8|0|8
420,228,40881,6,4,B|420:326,1,98
504,276,41286,2,0,B|412:332,1,98,0|8
336,276,41692,2,0,B|428:332,1,98,0|0
420,326,42097,1,0
420,326,42199,1,0
420,326,42300,1,8
256,344,42503,5,4
60,344,42705,1,4
160,344,42908,1,8
160,344,43009,1,0
160,344,43111,1,8
160,244,43313,2,4,B|212:236|248:188,1,98
73,103,43719,2,8,B|125:111|156:152,1,98
244,104,44124,1,4
328,52,44327,5,4
472,116,44530,1,8
472,268,44732,1,8
328,332,44935,1,8
256,192,45138,1,8
256,192,45543,5,4
180,252,45746,5,0
180,252,45847,1,0
180,252,45949,2,0,B|89:304,1,98,4|0
116,204,46354,2,0,B|18:204,1,98,8|0
84,132,46759,2,0,B|0:83,1,98
88,36,47165,1,8
184,48,47367,1,0
256,112,47570,5,0
332,172,47773,2,0,B|440:156|500:56,1,196
417,4,48381,2,0,B|491:69,1,98
496,204,48786,2,0,B|422:139,1,98,8|0
336,328,49192,5,0
276,252,49394,1,0
216,328,49597,1,8
308,292,49800,1,0
240,220,50003,2,0,B|191:209|143:225,1,98
0,306,50408,2,0,B|47:322|96:312,1,98,8|0
52,224,50813,5,0
52,224,51016,2,0,B|92:128|200:92,1,196
128,20,51624,2,0,B|124:72|152:116,1,98
228,176,52030,1,8
296,104,52232,1,0
296,104,52334,1,0
296,104,52435,1,4
392,116,52638,6,0,B|500:92,1,98,0|8
456,188,53043,2,0,B|364:248|348:360,1,196,0|0
256,372,53651,1,8
256,272,53854,1,0
256,272,53955,1,0
256,272,54057,1,4
196,192,54259,6,0,B|100:192,1,98,0|8
38,270,54665,2,0,B|166:102,1,196
176,92,55171,1,0
196,68,55273,1,8
316,68,55476,5,0
412,96,55678,1,4
332,152,55881,2,8,B|368:188|436:192,1,98
331,228,56286,2,0,B|367:192|420:190,1,98,0|4
412,288,56692,1,8
316,316,56894,1,8
216,320,57097,6,0,B|116:320,1,98,0|4
40,260,57503,1,0
116,200,57705,1,0
216,200,57908,2,0,B|284:120,1,98
344,52,58313,5,0
372,52,58415,1,0
400,52,58516,1,0
428,52,58617,1,0
456,52,58719,1,0
484,52,58820,1,0
512,52,58921,6,0,B|448:132,1,98,4|0
368,184,59327,2,0,B|396:232|456:228,1,98,8|0
420,324,59732,2,0,B|324:324,1,98
224,324,60138,2,0,B|128:324,1,98,8|0
36,156,60543,5,0
36,156,60746,2,0,B|124:232|128:336,1,196
276,200,61354,2,0,B|192:252,1,98
284,104,61759,2,0,B|368:52,1,98,8|0
480,212,62165,5,4
488,116,62367,1,0
400,156,62570,1,8
512,164,62773,5,0
432,112,62976,1,0
424,208,63178,1,0
424,208,63381,2,0,B|356:284,1,98,8|0
300,360,63786,5,0
212,320,63989,2,0,B|132:256|24:256,1,196
106,77,64597,2,0,B|60:164,1,98
156,192,65003,2,0,B|252:144,1,98,8|0
328,100,65408,1,4
412,52,65611,6,0,B|408:108|408:108|440:152,1,98,0|8
511,83,66016,2,0,B|351:207,1,196
332,300,66624,1,8
256,364,66827,1,0
180,300,67030,6,0,B|82:300,2,98,4|0|8
175,200,67638,2,0,B|205:138|305:138|337:198,1,196
416,136,68246,1,8
448,44,68449,6,0,B|348:44,1,98,0|4
64,44,68854,2,8,B|164:44,1,98
392,124,69259,2,0,B|299:157,1,98,0|4
120,124,69665,2,8,B|212:157,1,98
256,248,70070,5,0
256,248,70273,1,4
256,248,70476,2,0,B|256:346,1,98,0|8
172,340,70881,1,0
36,216,71084,1,4
80,304,71286,1,0
84,132,71489,1,8
80,304,71692,1,0
256,192,71894,12,4,73111
60,192,73516,6,0,B|160:228|208:328,1,196,4|8
296,352,74124,1,0
388,324,74327,1,0
388,324,74428,1,0
444,244,74631,1,0
444,244,74732,1,8
420,148,74935,1,0
328,188,75138,5,0
256,124,75340,1,0
256,256,75543,1,8
184,188,75746,1,0
104,248,75948,2,0,B|36:248|20:192|28:132|124:132,1,196,4|8
156,48,76557,1,0
156,48,76759,6,0,B|352:48,1,196,4|8
491,187,77367,2,0,B|420:120,1,98
400,100,77671,1,0
356,188,77874,2,0,B|308:224,1,49,0|8
256,292,78178,1,0
84,292,78381,5,0
156,108,78584,1,0
356,108,78786,1,8
428,292,78989,1,0
256,192,79394,6,8,B|256:304,1,98
168,328,79800,5,0
168,328,79901,1,0
168,328,80003,2,0,B|120:304|68:316,1,98,4|0
12,240,80408,2,0,B|12:144,1,98,10|0
64,60,80813,2,0,B|160:20|272:64,1,196,0|10
446,54,81624,6,0,B|350:94|255:57,1,196,0|10
256,156,82232,1,0
340,208,82435,2,0,B|432:276,1,98,4|0
352,340,82840,2,0,B|304:360|252:348,1,98,10|0
180,288,83246,6,0,B|105:216|1:212,1,196,0|10
60,132,83854,1,0
128,60,84057,2,0,B|180:60,1,49
305,116,84361,2,0,B|256:116,1,49,0|10
164,152,84665,1,0
256,192,84867,6,0,B|308:300,1,98
492,240,85273,2,0,B|449:151,1,98
303,141,85678,2,0,B|396:108,1,98
448,292,86084,2,0,B|352:324,1,98
256,336,86489,5,0
44,192,86894,1,0
256,48,87300,1,0
468,192,87705,1,0
256,192,88516,5,4
