osu file format v14

[General]
AudioFilename: Rude You!.mp3
AudioLeadIn: 0
PreviewTime: 41107
Countdown: 0
SampleSet: Soft
StackLeniency: 0.3
Mode: 0
LetterboxInBreaks: 0
WidescreenStoryboard: 0

[Editor]
Bookmarks: 54884
DistanceSpacing: 1.5
BeatDivisor: 2
GridSize: 4
TimelineZoom: 1.6

[Metadata]
Title:Rude
TitleUnicode:Rude
Artist:MAGIC!
ArtistUnicode:MAGIC!
Creator:XeroiZi HD
Version:Normal
Source:
Tags:reggae fusion don't kill the magic lanturn
BeatmapID:676020
BeatmapSetID:297693

[Difficulty]
HPDrainRate:4
CircleSize:3.5
OverallDifficulty:4
ApproachRate:5.5
SliderMultiplier:1.1
SliderTickRate:1

[Events]
//Background and Video events
0,0,"RudeBG.jpg",0,0
//Break Periods
//Storyboard Layer 0 (Background)
//Storyboard Layer 1 (Fail)
//Storyboard Layer 2 (Pass)
//Storyboard Layer 3 (Foreground)
//Storyboard Sound Samples

[TimingPoints]
1135,416.652199576404,4,2,1,50,1,0
13634,-100,4,3,1,35,0,0
14884,-100,4,2,1,50,0,0
26134,-100,4,3,1,40,0,0
27800,-100,4,2,1,70,0,0
28217,-100,4,2,1,60,0,0
40300,-100,4,3,1,45,0,0
41133,-100,4,2,1,70,0,1
41550,-100,4,2,2,50,0,1
54049,-100,4,2,2,35,0,1
54466,-100,4,2,2,80,0,1
54883,-100,4,2,2,50,0,1
67799,-100,4,2,1,5,0,0

[Colours]
Combo1 : 244,244,0
Combo2 : 7,240,175
Combo3 : 0,128,255
Combo4 : 0,255,255
Combo5 : 253,171,2

[HitObjects]
271,329,1135,6,0,P|287:273|263:205,1,110,8|2,0:0|0:0,0:0:0:0:
179,89,1968,2,0,P|163:145|187:213,1,110,8|2,0:0|0:0,0:0:0:0:
212,268,2593,1,0,0:0:0:0:
277,218,2801,6,0,L|405:210,2,110,8|2|8,0:0|0:0|0:0,0:0:0:0:
170,344,4051,2,0,P|119:364|65:358,1,110,2|8,0:0|0:0,0:0:0:0:
141,204,4884,2,0,P|195:197|245:218,2,110,2|8|2,0:0|0:0|0:0,0:0:0:0:
261,316,6134,6,0,L|384:307,1,110,8|2,0:0|0:0,0:0:0:0:
474,179,6968,2,0,L|351:188,1,110,8|2,0:0|0:0,0:0:0:0:
286,216,7593,1,0,0:0:0:0:
305,135,7801,2,0,P|307:82|290:27,1,110,8|2,0:0|0:0,0:0:0:0:
133,79,8634,6,0,P|131:133|148:185,1,110,8|2,0:0|0:0,0:0:0:0:
225,155,9259,1,0,0:0:0:0:
283,214,9468,2,0,B|276:253|276:253|261:281|261:281|254:323,2,110,8|2|8,0:0|0:0|0:0,0:0:0:0:
441,165,10718,1,2,0:0:0:0:
330,42,11134,6,0,B|285:46|285:46|265:60|265:60|224:64,1,110,8|2,0:0|0:0,0:0:0:0:
142,53,11759,1,0,0:0:0:0:
176,127,11967,2,0,P|174:180|191:235,1,110,8|2,0:0|0:0,0:0:0:0:
348,183,12800,6,0,P|350:129|333:77,1,110,8|2,0:0|0:0,0:0:0:0:
275,231,13634,2,0,L|283:302,2,55,2|0|2,0:0|0:0|0:0,0:0:0:0:
238,70,14467,2,0,P|186:47|120:57,1,110,0|2,0:0|0:0,0:0:0:0:
208,199,15301,6,0,P|262:202|311:180,2,110,8|2|8,0:0|0:0|0:0,0:0:0:0:
62,121,16551,2,0,L|73:241,1,110,2|8,0:0|0:0,0:0:0:0:
228,178,17384,1,2,0:0:0:0:
164,330,17801,6,0,L|153:210,1,110,8|2,0:0|0:0,0:0:0:0:
228,178,18426,1,0,0:0:0:0:
296,223,18634,2,0,P|356:229|415:202,1,110,8|2,0:0|0:0,0:0:0:0:
379,48,19467,6,0,P|319:42|260:69,1,110,8|2,0:0|0:0,0:0:0:0:
132,145,20301,2,0,P|192:151|251:124,1,110,8|2,0:0|0:0,0:0:0:0:
273,59,20926,1,0,0:0:0:0:
328,120,21134,2,0,L|319:239,1,110,8|2,0:0|0:0,0:0:0:0:
232,372,21967,6,0,L|224:260,2,110,8|2|8,0:0|0:0|0:0,0:0:0:0:
383,306,23217,1,2,0:0:0:0:
307,160,23634,2,0,B|303:120|303:120|288:89|288:89|285:49,1,110,8|2,0:0|0:0,0:0:0:0:
234,211,24467,6,0,P|182:231|116:223,1,110,8|2,0:0|0:0,0:0:0:0:
103,64,25300,2,8,P|155:44|221:52,1,110,8|2,0:0|0:0,0:0:0:0:
234,211,26134,2,0,L|231:282,2,55,2|0|2,0:0|0:0|0:0,0:0:0:0:
393,169,26967,2,0,L|396:98,2,55,2|0|2,0:0|0:0|0:0,0:0:0:0:
234,211,27800,6,0,P|179:215|128:195,1,110,4|2,0:0|0:0,0:0:0:0:
151,31,28634,2,0,P|206:27|257:47,1,110,8|2,0:0|0:0,0:0:0:0:
301,116,29259,1,0,0:0:0:0:
379,89,29467,2,0,L|371:217,1,110,8|2,0:0|0:0,0:0:0:0:
288,341,30300,6,0,L|268:208,1,110,8|2,0:0|0:0,0:0:0:0:
206,180,30925,1,0,0:0:0:0:
133,219,31133,2,0,P|111:158|119:93,1,110,8|2,0:0|0:0,0:0:0:0:
253,26,31967,6,0,P|275:87|267:152,1,110,8|2,0:0|0:0,0:0:0:0:
205,179,32592,1,0,0:0:0:0:
271,228,32800,2,0,L|397:232,1,110,8|2,0:0|0:0,0:0:0:0:
238,314,33633,6,0,L|128:317,1,110,8|2,0:0|0:0,0:0:0:0:
48,338,34258,1,0,0:0:0:0:
76,260,34467,2,0,P|88:201|79:140,1,110,8|2,0:0|0:0,0:0:0:0:
201,37,35300,6,0,P|195:91|207:145,1,110,8|2,0:0|0:0,0:0:0:0:
272,195,35925,1,0,0:0:0:0:
351,173,36133,2,0,L|344:302,2,110,8|2|8,0:0|0:0|0:0,0:0:0:0:
208,89,37383,1,2,0:0:0:0:
372,66,37800,6,0,B|368:106|368:106|353:137|353:137|350:177,1,110,8|2,0:0|0:0,0:0:0:0:
468,288,38633,2,0,L|334:296,1,110,8|2,0:0|0:0,0:0:0:0:
201,241,39467,2,0,L|335:233,1,110,8|2,0:0|0:0,0:0:0:0:
461,167,40300,2,0,P|478:103|456:47,2,110,2|8|4,0:0|0:0|0:0,0:0:0:0:
304,116,41966,6,0,P|252:132|180:120,1,110,8|2,0:0|0:0,0:0:0:0:
124,88,42591,1,0,0:0:0:0:
56,135,42800,2,0,L|64:259,1,110,8|2,0:0|0:0,0:0:0:0:
196,342,43633,2,0,L|200:218,1,110,8|2,0:0|0:0,0:0:0:0:
128,83,44466,2,0,P|185:64|257:82,1,110,8|2,0:0|0:0,0:0:0:0:
361,175,45300,6,0,P|306:181|255:162,1,110,8|2,0:0|0:0,0:0:0:0:
229,84,45925,1,0,0:0:0:0:
174,145,46133,2,0,P|164:198|175:252,1,110,8|2,0:0|0:0,0:0:0:0:
329,313,46966,2,0,P|339:259|330:205,1,110,8|2,0:0|0:0,0:0:0:0:
174,145,47800,2,0,B|176:108|176:108|193:74|193:74|196:34,1,110,8|2,0:0|0:0,0:0:0:0:
248,195,48633,6,0,L|241:315,1,110,8|2,0:0|0:0,0:0:0:0:
314,344,49258,1,0,0:0:0:0:
380,292,49466,2,0,P|432:296|485:274,1,110,8|2,0:0|0:0,0:0:0:0:
452,110,50299,2,0,P|400:106|347:128,1,110,8|2,0:0|0:0,0:0:0:0:
232,246,51133,2,0,L|225:136,1,110,8|2,0:0|0:0,0:0:0:0:
77,62,51966,6,0,L|84:172,1,110,8|2,0:0|0:0,0:0:0:0:
172,311,52799,2,0,P|226:330|297:307,1,110,8|2,0:0|0:0,0:0:0:0:
356,342,53424,1,0,0:0:0:0:
334,262,53633,2,0,L|327:152,1,110,8|4,0:0|0:0,0:0:0:0:
179,227,54466,6,0,P|121:223|64:247,2,110,12|8|10,0:0|0:0|0:0,0:0:0:0:
289,349,55716,1,8,0:0:0:0:
414,241,56133,2,0,L|407:131,1,110,10|8,0:0|0:0,0:0:0:0:
329,160,56758,1,0,0:0:0:0:
277,102,56966,2,0,P|221:94|158:115,1,110,10|8,0:0|0:0,0:0:0:0:
210,268,57799,6,0,P|155:276|103:261,2,110,12|8|10,0:0|0:0|0:0,0:0:0:0:
167,110,59049,1,8,0:0:0:0:
329,160,59466,2,0,B|324:208|324:208|312:227|312:227|308:267,1,110,10|8,0:0|0:0,0:0:0:0:
260,333,60091,1,0,0:0:0:0:
209,268,60299,2,0,P|154:277|102:262,1,110,10|8,0:0|0:0,0:0:0:0:
167,110,61132,6,0,P|114:95|60:104,2,110,12|8|10,0:0|0:0|0:0,0:0:0:0:
278,232,62382,1,8,0:0:0:0:
434,179,62799,2,0,L|427:69,1,110,10|8,0:0|0:0,0:0:0:0:
353,32,63424,1,0,0:0:0:0:
295,90,63632,2,0,P|239:82|176:103,1,110,10|8,0:0|0:0,0:0:0:0:
117,245,64466,6,0,P|169:259|223:251,1,110,10|8,0:0|0:0,0:0:0:0:
350,145,65299,2,0,P|404:136|456:151,2,110,10|8|10,0:0|0:0|0:0,0:0:0:0:
400,302,66549,1,8,0:0:0:0:
277,191,66966,6,0,P|267:138|287:79,1,110,8|4,3:0|0:0,0:0:0:0:
256,192,67799,12,2,71132,0:0:0:0:
