osu file format v14

[General]
AudioFilename: Rude You!.mp3
AudioLeadIn: 0
PreviewTime: 41107
Countdown: 0
SampleSet: Soft
StackLeniency: 0.3
Mode: 0
LetterboxInBreaks: 0
WidescreenStoryboard: 1

[Editor]
Bookmarks: 54884
DistanceSpacing: 1
BeatDivisor: 4
GridSize: 4
TimelineZoom: 1.2

[Metadata]
Title:Rude
TitleUnicode:Rude
Artist:MAGIC!
ArtistUnicode:MAGIC!
Creator:XeroiZi HD
Version:Easy
Source:
Tags:reggae fusion don't kill the magic lanturn
BeatmapID:722115
BeatmapSetID:297693

[Difficulty]
HPDrainRate:3
CircleSize:3
OverallDifficulty:3
ApproachRate:4
SliderMultiplier:1
SliderTickRate:1

[Events]
//Background and Video events
0,0,"RudeBG.jpg",0,0
//Break Periods
//Storyboard Layer 0 (Background)
//Storyboard Layer 1 (Fail)
//Storyboard Layer 2 (Pass)
//Storyboard Layer 3 (Foreground)
//Storyboard Sound Samples

[TimingPoints]
1135,416.652199576404,4,2,1,50,1,0
13634,-100,4,3,1,35,0,0
14884,-100,4,2,1,50,0,0
26134,-100,4,3,1,40,0,0
27800,-100,4,2,1,70,0,0
28217,-100,4,2,1,60,0,0
40300,-100,4,3,1,45,0,0
41133,-100,4,2,1,70,0,1
41550,-100,4,2,2,50,0,1
54049,-100,4,2,2,35,0,1
54466,-100,4,2,2,80,0,1
54883,-100,4,2,2,50,0,1
67799,-100,4,2,1,5,0,0

[Colours]
Combo1 : 244,244,0
Combo2 : 7,240,175
Combo3 : 0,128,255
Combo4 : 0,255,255
Combo5 : 253,171,2

[HitObjects]
104,280,1968,6,0,B|144:276|176:300|176:300|236:328|304:288,1,200,8|2,0:0|0:0,0:0:0:0:
390,322,3218,1,8,0:0:0:0:
365,225,3634,2,0,P|377:157|297:45,1,200,2|8,0:0|0:0,0:0:0:0:
112,80,5301,6,0,B|108:156|108:156|136:188|136:188|124:316,1,200,2|8,0:0|0:0,0:0:0:0:
220,232,6551,1,2,0:0:0:0:
264,321,6968,2,0,P|360:337|448:273,1,200,8|2,0:0|0:0,0:0:0:0:
414,77,8634,6,0,P|318:61|230:125,1,200,8|2,0:0|0:0,0:0:0:0:
315,176,9884,1,8,0:0:0:0:
225,220,10301,2,0,P|129:236|41:172,2,200,2|8|2,0:0|0:0|0:0,0:0:0:0:
411,293,12801,2,0,B|420:216|420:216|396:184|396:184|412:52,1,200,8|2,0:0|0:0,0:0:0:0:
220,32,14467,6,0,L|236:232,1,200,2|8,0:0|0:0,0:0:0:0:
320,285,15717,1,2,0:0:0:0:
399,346,16134,2,8,B|434:293|405:227|405:227|381:195|385:155,1,200,8|2,0:0|0:0,0:0:0:0:
432,67,17384,1,8,0:0:0:0:
332,76,17801,6,0,P|224:44|104:84,1,200,2|8,0:0|0:0,0:0:0:0:
128,261,19467,2,0,P|236:293|356:253,1,200,2|8,0:0|0:0,0:0:0:0:
401,332,20717,1,2,0:0:0:0:
410,232,21134,2,0,B|401:155|401:155|425:123|425:123|409:-9,1,200,8|2,0:0|0:0,0:0:0:0:
236,132,22800,6,0,P|204:240|244:360,1,200,8|2,0:0|0:0,0:0:0:0:
312,276,24050,1,8,0:0:0:0:
392,340,24467,2,0,P|424:232|384:112,1,200,2|8,0:0|0:0,0:0:0:0:
246,27,26134,6,0,P|145:21|60:73,1,200,2|8,0:0|0:0,0:0:0:0:
150,116,27384,1,0,0:0:0:0:
75,176,27800,2,0,B|66:253|66:253|90:285|90:285|80:366,1,200,4|2,0:0|0:0,0:0:0:0:
284,336,29467,6,0,B|280:297|304:265|304:265|333:199|298:146,1,200,8|0,0:0|0:0,0:0:0:0:
220,84,30717,1,2,0:0:0:0:
312,48,31133,2,0,P|432:68|504:40,2,200,8|2|8,0:0|0:0|0:0,0:0:0:0:
144,160,33633,6,0,P|141:272|210:378,1,200,2|8,0:0|0:0,0:0:0:0:
254,279,34883,1,2,0:0:0:0:
348,320,35300,2,0,P|350:207|281:101,1,200,8|2,0:0|0:0,0:0:0:0:
128,52,36967,6,0,L|344:44,1,200,8|2,0:0|0:0,0:0:0:0:
408,104,38217,1,8,0:0:0:0:
316,144,38633,2,0,B|304:264|304:264|344:344,2,200,2|8|2,0:0|0:0|0:0,0:0:0:0:
124,64,41133,6,0,L|140:288,1,200,4|8,0:0|0:0,0:0:0:0:
208,336,42383,1,2,0:0:0:0:
304,304,42800,2,0,P|420:292|476:228,2,200,8|2|8,0:0|0:0|0:0,0:0:0:0:
136,196,45300,6,0,L|344:184,1,200,2|8,0:0|0:0,0:0:0:0:
432,212,46550,1,2,0:0:0:0:
404,116,46966,2,0,B|375:59|303:51|303:51|264:56|232:33,2,200,8|2|8,0:0|0:0|0:0,0:0:0:0:
352,308,49466,6,0,P|248:300|168:216,1,200,2|8,0:0|0:0,0:0:0:0:
128,324,50716,1,2,0:0:0:0:
64,248,51133,2,0,L|56:36,2,200,8|2|8,0:0|0:0|0:0,0:0:0:0:
244,336,53633,2,0,B|255:255|255:255|286:230|286:230|298:153,1,200,2|4,0:0|0:0,0:0:0:0:
104,104,55299,6,0,P|187:51|285:58,2,200,8|10|8,0:0|0:0|0:0,0:0:0:0:
188,156,57383,1,10,0:0:0:0:
276,200,57799,2,0,P|192:252|94:245,2,200,12|10|8,0:0|0:0|0:0,0:0:0:0:
412,52,60299,6,0,B|463:90|458:162|458:162|446:200|463:235,2,200,10|12|10,2:0|2:0|2:0,2:0:0:0:
364,140,62382,1,8,0:0:0:0:
312,224,62799,2,0,B|260:185|265:113|265:113|277:75|260:40,2,200,10|8|10,2:0|2:0|2:0,2:0:0:0:
388,288,64882,5,8,0:0:0:0:
296,328,65299,2,0,P|192:344|84:292,1,200,10|10,0:0|0:0,0:0:0:0:
124,112,66966,2,0,P|228:96|336:148,1,200,2|0,3:0|0:0,0:0:0:0:
256,192,68007,12,2,71132,0:0:0:0:
