osu file format v5

[General]
AudioFilename: Tauch The Sky.mp3
AudioLeadIn: 0
PreviewTime: -1
Countdown: 0
SampleSet: Soft
StackLeniency: 0.7
Mode: 0
LetterboxInBreaks: 0
EditorBookmarks: 84556

[Metadata]
Title:Touch The Sky
Artist:MAD
Creator:beatmastermap
Version:Hard
Source:
Tags:

[Difficulty]
HPDrainRate:6
CircleSize:5
OverallDifficulty:7
SliderMultiplier:1.8
SliderTickRate:2

[Events]
//Background and Video events
0,0,"paradise.jpg"
//Break Periods
2,16872,17743
2,20376,21247
2,23880,24750
2,27383,28254
2,41398,42269
//Storyboard Layer 0 (Background)
//Storyboard Layer 1 (Failing)
//Storyboard Layer 2 (Passing)
//Storyboard Layer 3 (Foreground)
//Storyboard Sound Samples
//Background Colour Transformations
3,100,255,255,255

[TimingPoints]
14702,437.956204379562,4,2,0,100,1,0
43170,-100,4,1,0,100,0,0
84774,-100,4,1,0,0,0,0
85212,-100,4,1,0,100,0,0

[Colours]
Combo1 : 0,0,160
Combo2 : 128,255,255
Combo3 : 0,128,192
Combo4 : 0,128,255
Combo5 : 0,0,255

[HitObjects]
88,184,15140,1,0
88,328,15577,1,0
232,328,16015,1,0
304,328,16234,1,0
448,328,16672,1,0
448,56,18643,5,0
304,56,19081,1,0
160,56,19519,1,0
88,56,19738,1,0
88,200,20176,1,0
256,192,22147,5,0
256,192,22585,1,0
256,192,23023,1,0
256,192,23242,1,0
256,192,23680,1,0
472,344,25650,5,0
360,256,26088,1,0
248,160,26526,1,0
192,112,26745,1,0
48,112,27183,1,0
368,136,29154,5,0
368,136,29592,1,0
368,136,30030,1,0
368,136,30249,1,0
368,136,30687,1,0
80,136,31563,6,2,B|80:40,5,90
224,48,33096,5,0
224,192,33534,1,0
224,192,33753,1,0
224,336,34191,1,0
352,80,35066,6,2,B|448:80,5,90
440,224,36599,5,0
328,320,37037,1,0
328,320,37256,1,0
184,320,37694,1,0
72,56,38570,6,2,B|72:160,5,90
72,288,40103,5,0
216,288,40541,1,0
288,288,40760,1,0
432,288,41198,1,0
256,192,43169,5,0
400,192,43607,1,0
400,336,44045,1,0
400,192,44483,1,0
400,48,44920,1,0
256,48,45358,5,0
256,192,45796,1,0
256,336,46234,1,0
256,192,46672,1,0
112,192,47110,1,0
112,336,47548,5,0
256,336,47986,1,0
256,192,48424,1,0
256,336,48862,1,0
328,336,49081,1,0
328,264,49300,5,0
328,264,49519,1,0
328,192,49738,5,8
328,264,49957,1,0
400,264,50176,5,8
400,120,50614,1,0
400,120,51052,1,8
400,120,51271,1,8
400,120,51709,1,2
184,120,52366,5,8
184,120,52585,1,0
112,120,52804,1,8
112,120,53023,1,0
112,192,53242,5,8
112,192,53461,1,0
184,192,53680,1,8
184,336,54118,5,0
184,336,54556,1,8
184,336,54774,1,8
184,336,55212,1,2
344,96,56088,6,0,B|232:96,5,90,0|8|0|8|0|8
112,96,57621,1,0
112,240,58059,1,8
112,312,58278,1,8
256,312,58716,1,2
256,240,58935,6,0,B|440:240,1,180
432,168,59592,5,0
432,96,59811,1,8
360,96,60030,1,0
288,96,60249,1,8
216,96,60468,5,0
144,96,60687,2,0,B|64:96|64:96|64:200,1,180,8|0
64,336,61563,6,8,B|64:240,1,90
176,336,62220,1,2
248,336,62439,5,8
248,336,62877,1,8
320,336,63096,5,0
392,336,63315,1,8
464,336,63534,1,0
464,264,63753,1,8
392,264,63972,1,0
320,264,64191,6,0,B|320:80,1,180
176,80,65066,1,8
176,80,65285,1,8
32,80,65723,5,2
32,264,66380,6,0,B|216:264,1,180
208,200,67037,2,2,B|312:200,2,90
208,136,67694,5,0
336,136,68132,2,8,B|424:192|424:192|336:240|336:240|336:312,1,270
336,305,69227,1,2
40,48,70322,5,8
472,48,70760,1,8
256,200,71198,6,0,B|256:304,2,90,8|2|8
320,200,71855,5,0
192,200,72074,1,8
192,136,72293,1,2
128,136,72512,1,8
64,136,72731,5,0
64,200,72950,1,8
80,256,73169,1,2
120,304,73388,1,8
176,328,73607,1,0
240,344,73826,1,8
304,344,74045,1,2
368,344,74264,2,8,B|464:344|464:344|464:256,1,180
464,200,74920,5,2
400,200,75139,1,8
400,40,75358,1,0
400,344,75796,1,2
272,344,76234,1,2
144,344,76672,1,2
144,216,77110,1,6
424,72,78205,5,0
424,200,78643,6,8,B|312:200,2,90
424,72,79519,6,2,B|528:72,2,90
360,72,80176,6,8,B|248:72,2,90,0|8|0
360,136,80833,1,8
296,136,81052,1,0
232,136,81271,1,8
168,136,81490,1,0
168,72,81709,1,8
168,8,81928,1,0
104,8,82147,1,8
104,72,82366,1,0
256,40,82804,5,2
256,344,83242,1,2
464,192,83680,1,2
48,192,84118,1,6
256,192,84556,12,0,84993
400,320,85212,6,0,B|208:320,1,180,0|8
96,320,86088,2,0,B|96:128,1,180,0|8
96,16,86964,2,0,B|296:16,1,180,0|8
400,24,87840,6,0,B|400:216,1,180,0|8
400,328,88716,5,8
336,328,88935,1,2
272,328,89154,1,8
208,328,89373,1,2
48,328,89811,5,2
464,328,90249,1,2
256,24,90687,1,2
256,328,91125,1,6
