osu file format v14

[General]
AudioFilename: MACROSS 82-99 - - 01 BIG CITY NIGHTS.mp3
AudioLeadIn: 0
PreviewTime: 68985
Countdown: 0
SampleSet: Normal
StackLeniency: 0.7
Mode: 0
LetterboxInBreaks: 1
WidescreenStoryboard: 0

[Editor]
Bookmarks: 17712,35167,87530
DistanceSpacing: 1.3
BeatDivisor: 2
GridSize: 4
TimelineZoom: 1

[Metadata]
Title:Banira To Misato BIG CITY NIGHTS
TitleUnicode:バニラと美里BIG CITY NIGHTS
Artist:MACROSS 82-99
ArtistUnicode:マクロスMACROSS 82-99
Creator:annika69
Version:Intermediate
Source:
Tags:Keats//Collective Spacebop Electronic Disco Future Funk Glo-fi T-square Samurai Metropolis Lumael
BeatmapID:720952
BeatmapSetID:324472

[Difficulty]
HPDrainRate:5
CircleSize:3.4
OverallDifficulty:5
ApproachRate:6
SliderMultiplier:1.4
SliderTickRate:1

[Events]
//Background and Video events
0,0,"bGz8ige.png",0,0
//Break Periods
2,52822,62480
//Storyboard Layer 0 (Background)
//Storyboard Layer 1 (Fail)
//Storyboard Layer 2 (Pass)
//Storyboard Layer 3 (Foreground)
//Storyboard Sound Samples

[TimingPoints]
258,545.454545454546,4,1,1,5,1,0
15803,-100,4,1,1,50,0,0
17712,-100,4,1,1,50,0,1
26712,-100,4,1,2,50,0,1
27530,-100,4,1,1,50,0,1
32985,-100,4,1,1,50,0,0
35167,-100,4,1,1,50,0,1
44167,-100,4,1,2,50,0,1
44985,-100,4,1,1,50,0,1
50439,-100,4,1,1,30,0,0
50439,-100,4,1,1,40,0,0
51803,-100,4,1,1,10,0,0
52621,-100,4,1,1,50,0,1
52894,-100,4,1,1,50,0,0
67621,-100,4,1,1,5,0,0
70076,-100,4,1,1,50,0,1
79076,-100,4,1,2,50,0,1
79894,-100,4,1,1,50,0,1
85348,-100,4,1,1,50,0,0
100348,-100,4,1,2,50,0,0
100894,-100,4,1,1,50,0,0
105258,-100,4,1,1,10,0,0

[Colours]
Combo1 : 201,90,209
Combo2 : 210,201,228
Combo3 : 237,157,78
Combo4 : 158,205,179

[HitObjects]
256,192,8986,12,0,15531,0:0:0:0:
256,228,17713,6,0,B|320:248|360:204|360:204|312:176,1,140,4|8,0:0|0:0,0:0:0:0:
268,132,18531,2,0,P|224:136|192:160,1,70
160,228,19076,2,0,P|116:224|84:200,2,70,0|8|0,0:0|0:0|0:0,0:0:0:0:
256,228,19895,6,0,L|332:256,1,70
332,160,20440,2,0,L|404:172,1,70,8|0,0:0|0:0,0:0:0:0:
384,84,20986,2,0,L|466:73,1,70
492,156,21531,1,8,0:0:0:0:
456,240,21804,1,0,0:0:0:0:
364,252,22076,6,0,B|319:245|323:229|287:217|295:161|295:161|215:105|131:157,1,280
88,212,23440,2,0,P|64:236|12:248,2,70,0|8|0,0:0|0:0|0:0,0:0:0:0:
151,145,24258,6,0,L|244:129,1,70
208,224,24804,2,0,L|308:220,1,70,8|0,0:0|0:0,0:0:0:0:
368,208,25349,1,0,0:0:0:0:
444,256,25622,2,0,B|476:272|476:272|544:276,2,70,0|8|0,0:0|0:0|0:0,0:0:0:0:
277,221,26713,6,0,B|212:220|184:180|184:180|204:132|280:120,1,210,4|0,0:0|0:0,0:0:0:0:
344,168,27804,2,0,P|376:180|432:172,2,70,0|8|0,0:0|0:0|0:0,0:0:0:0:
265,122,28622,6,0,P|233:110|177:118,1,70
132,172,29167,2,0,P|100:184|44:176,1,70,8|0,0:0|0:0,0:0:0:0:
16,108,29713,2,0,P|48:95|83:96,1,70
176,92,30258,1,8,0:0:0:0:
224,168,30531,1,0,0:0:0:0:
244,256,30804,6,0,B|280:248|312:224|313:165|313:165|393:109|477:161,1,280
424,236,32167,2,0,P|468:244|516:224,2,70,0|8|0,0:0|0:0|0:0,0:0:0:0:
256,172,33258,5,0,0:0:0:0:
200,244,33530,2,8,P|156:252|108:232,1,70,8|0,0:0|0:0,0:0:0:0:
164,160,34076,2,0,B|132:136|96:148|96:148|56:164|12:128,1,140,0|8,0:0|0:0,0:0:0:0:
208,96,35167,6,0,B|272:116|312:72|312:72|289:58,1,140,4|8,0:0|0:0,0:0:0:0:
208,20,35985,2,0,P|165:31|138:60,1,70
56,36,36530,2,0,P|60:80|84:112,2,70,0|8|0,0:0|0:0|0:0,0:0:0:0:
146,48,37348,6,0,P|167:86|166:126,1,70
232,179,37895,2,0,P|253:140|252:100,1,70,8|0,0:0|0:0,0:0:0:0:
320,51,38440,2,0,P|341:89|340:129,1,70
324,203,38985,1,8,0:0:0:0:
232,179,39258,1,0,0:0:0:0:
168,116,39531,6,0,B|154:149|110:177|110:177|162:205|162:269|162:269|142:309|165:348,1,280
244,300,40895,2,0,L|284:360,2,70,0|8|0,0:0|0:0|0:0,0:0:0:0:
176,240,41712,6,0,P|154:278|155:318,1,70
88,368,42258,2,0,P|66:329|67:289,1,70,8|0,0:0|0:0,0:0:0:0:
88,216,42803,1,0,0:0:0:0:
176,240,43076,2,0,P|211:246|271:234,2,70,0|8|0,0:0|0:0|0:0,0:0:0:0:
328,136,44167,6,0,B|274:172|228:155|228:155|217:104|262:61,1,210,4|0,0:0|0:0,0:0:0:0:
352,48,45258,2,0,P|388:68|412:108,2,70,0|8|0,0:0|0:0|0:0,0:0:0:0:
261,61,46076,2,0,P|228:72|193:72,1,70
116,24,46622,2,0,P|83:11|48:12,1,70,8|0,0:0|0:0,0:0:0:0:
0,88,47167,2,0,P|32:100|67:99,1,70
144,144,47712,1,8,0:0:0:0:
193,72,47985,1,0,0:0:0:0:
116,24,48258,6,0,B|102:57|58:85|58:85|110:113|110:177|110:177|90:217|113:256,1,280
192,212,49621,2,0,P|236:204|284:224,2,70,0|8|0,0:0|0:0|0:0,0:0:0:0:
360,280,50712,5,0,0:0:0:0:
416,208,50985,2,0,P|460:216|508:196,1,70,8|0,0:0|0:0,0:0:0:0:
452,124,51530,2,0,B|416:104|380:120|380:120|328:140|292:100,1,140,0|8,0:0|0:0,0:0:0:0:
256,292,52622,5,6,0:0:0:0:
256,192,63530,12,0,67894,0:0:0:0:
256,144,70076,6,0,B|320:124|360:168|360:168|312:196,1,140,4|8,0:0|0:0,0:0:0:0:
264,236,70894,2,0,P|229:235|198:218,1,70
152,140,71440,2,0,P|129:165|113:197,2,70,0|8|0,0:0|0:0|0:0,0:0:0:0:
198,218,72258,6,0,P|194:252|199:287,1,70
284,256,72804,2,0,P|300:286|324:311,1,70,8|0,0:0|0:0,0:0:0:0:
376,236,73349,2,0,P|405:254|439:264,1,70
444,172,73894,1,8,0:0:0:0:
356,148,74167,1,0,0:0:0:0:
276,172,74440,6,0,B|200:188|152:124|152:124|108:148|112:232|180:256,1,280
136,332,75803,2,0,P|172:336|224:308,2,70,0|8|0,0:0|0:0|0:0,0:0:0:0:
64,276,76622,6,0,P|44:248|36:212,1,70
128,216,77167,2,0,P|156:196|192:188,1,70,8|0,0:0|0:0,0:0:0:0:
280,176,77712,1,0,0:0:0:0:
372,188,77985,2,0,P|405:195|434:215,2,70,0|8|0,0:0|0:0|0:0,0:0:0:0:
190,188,79076,6,0,B|125:187|97:147|97:147|117:99|178:89,1,210,4|0,0:0|0:0,0:0:0:0:
260,128,80167,2,0,P|292:140|348:132,2,70,0|8|0,0:0|0:0|0:0,0:0:0:0:
190,188,80986,6,0,P|209:216|259:241,1,70
228,328,81531,2,0,P|262:328|312:301,1,70,8|0,0:0|0:0,0:0:0:0:
372,360,82076,2,0,P|384:328|376:272,1,70
320,228,82621,1,8,0:0:0:0:
228,240,82895,1,0,0:0:0:0:
144,204,83167,6,0,B|100:188|97:109|141:85|141:85|189:149|260:134,1,280
336,84,84530,2,0,P|356:124|344:172,2,70,0|8|0,0:0|0:0|0:0,0:0:0:0:
164,144,85621,5,0,0:0:0:0:
92,84,85895,2,0,P|74:113|68:148,1,70,8|0,0:0|0:0,0:0:0:0:
124,220,86439,2,0,B|148:252|136:288|136:288|120:328|156:372,1,140,0|8,0:0|0:0,0:0:0:0:
208,88,87804,6,0,P|209:122|227:152,2,70,0|8|0,0:0|0:0|0:0,0:0:0:0:
296,104,88622,2,0,P|314:133|315:168,1,70
252,236,89167,2,0,P|253:270|271:300,1,70,8|0,0:0|0:0,0:0:0:0:
360,324,89713,6,0,B|404:332|404:332|448:320|448:320|500:328,2,140,2|8|0,0:0|0:0|0:0,0:0:0:0:
271,300,91076,1,0,0:0:0:0:
188,260,91349,2,0,P|212:224|260:208,1,70,8|0,0:0|0:0,0:0:0:0:
324,224,91895,1,0,0:0:0:0:
388,288,92167,6,0,P|428:303|476:289,2,70,0|8|0,0:0|0:0|0:0,0:0:0:0:
432,208,92985,2,0,L|380:136,1,70
336,224,93531,2,0,L|253:194,1,70,8|0,0:0|0:0,0:0:0:0:
200,260,94076,2,0,P|180:224|184:164,1,70
228,120,94622,2,0,P|248:84|244:24,1,70,8|0,0:0|0:0,0:0:0:0:
160,64,95167,5,0,0:0:0:0:
140,152,95440,1,0,0:0:0:0:
228,120,95713,2,0,P|264:124|312:152,1,70,8|0,0:0|0:0,0:0:0:0:
368,192,96258,1,4,0:0:0:0:
444,140,96531,6,0,P|480:120|540:124,2,70,0|8|0,0:0|0:0|0:0,0:0:0:0:
368,192,97349,2,0,L|316:264,1,70
280,172,97895,2,0,L|197:201,1,70,8|0,0:0|0:0,0:0:0:0:
144,252,98440,6,0,B|104:260|104:260|60:248|60:248|8:256,2,140,2|8|0,0:0|0:0|0:0,0:0:0:0:
232,276,99803,1,0,0:0:0:0:
316,240,100076,5,0,0:0:0:0:
408,228,100348,2,0,P|392:300|296:328,1,140,4|0,0:0|0:0,0:0:0:0:
256,292,101167,2,0,P|224:280|152:292,1,70,8|0,0:0|0:0,0:0:0:0:
104,312,101712,2,0,P|70:311|37:299,1,70
92,224,102258,2,0,P|64:203|45:174,1,70
132,148,102803,6,0,P|167:148|200:160,1,70
280,204,103348,2,0,P|315:203|348:191,2,70
300,116,104167,1,0,0:0:0:0:
392,116,104439,2,0,B|427:124|427:124|450:152,1,70
500,224,104985,5,4,0:0:0:0:
256,192,105258,12,2,113712,0:0:0:0:
