osu file format v12

[General]
AudioFilename: Magnolia (feat Guriri).mp3
AudioLeadIn: 0
PreviewTime: 49007
Countdown: 1
SampleSet: Soft
StackLeniency: 0.7
Mode: 0
LetterboxInBreaks: 1
WidescreenStoryboard: 0

[Editor]
DistanceSpacing: 1.2
BeatDivisor: 4
GridSize: 4
TimelineZoom: 2.4

[Metadata]
Title:Magnolia
TitleUnicode:Magnolia
Artist:M2U feat. Guriri
ArtistUnicode:M2U feat. Guriri
Creator:gxytcgxytc
Version:Insane
Source:Deemo
Tags:
BeatmapID:394855
BeatmapSetID:161835

[Difficulty]
HPDrainRate:7
CircleSize:4
OverallDifficulty:6
ApproachRate:9
SliderMultiplier:2
SliderTickRate:1

[Events]
//Background and Video events
0,0,"magnolia.jpg",0,0
//Break Periods
2,106206,111407
//Storyboard Layer 0 (Background)
//Storyboard Layer 1 (Fail)
//Storyboard Layer 2 (Pass)
//Storyboard Layer 3 (Foreground)
//Storyboard Sound Samples
//Background Colour Transformations
3,100,0,0,0

[TimingPoints]
1007,375,4,2,1,30,1,0
1382,-100,4,2,1,40,0,0
1757,-100,4,2,1,45,0,0
2132,-117.647058823529,4,2,1,50,0,0
13007,-100,4,2,1,50,0,0
13757,-50,4,2,1,70,0,0
13944,-100,4,2,1,70,0,0
16757,-117.647058823529,4,2,1,50,0,0
20507,-100,4,2,1,60,0,0
23319,-133.333333333333,4,2,1,40,0,0
25757,-133.333333333333,4,2,1,30,0,0
27632,-133.333333333333,4,2,1,40,0,0
40007,-100,4,2,1,60,0,0
52007,-100,4,2,1,85,0,1
57632,-100,4,2,1,65,0,1
58007,-100,4,2,1,85,0,1
63632,-100,4,2,1,75,0,0
64007,-100,4,2,1,85,0,1
68132,-200,4,2,1,85,0,1
69257,-66.6666666666667,4,2,1,85,0,1
70007,-133.333333333333,4,2,1,45,0,0
70569,-133.333333333333,4,2,1,25,0,0
72632,-133.333333333333,4,2,1,40,0,0
73007,-133.333333333333,4,2,1,50,0,0
75632,-133.333333333333,4,2,1,80,0,0
79007,-100,4,2,1,85,0,1
79194,-100,4,2,1,75,0,0
79569,-100,4,2,1,85,0,1
79757,-100,4,2,1,75,0,0
80132,-100,4,2,1,85,0,1
80319,-100,4,2,1,75,0,0
80507,-100,4,2,1,85,0,1
80882,-100,4,2,1,75,0,0
81444,-66.6666666666667,4,2,2,75,0,0
82007,-133.333333333333,4,2,2,85,0,1
82288,-100,4,2,2,85,0,1
82757,-66.6666666666667,4,2,2,85,0,1
83038,-100,4,2,2,85,0,1
83507,-66.6666666666667,4,2,2,85,0,1
83788,-100,4,2,2,85,0,1
84257,-57.1428571428571,4,2,2,85,0,1
84632,-50,4,2,2,85,0,1
84819,-100,4,2,2,85,0,1
85007,-133.333333333333,4,2,2,85,0,1
85288,-100,4,2,2,85,0,1
85757,-66.6666666666667,4,2,2,85,0,1
86038,-100,4,2,2,85,0,1
87069,-66.6666666666667,4,2,2,85,0,1
88007,-133.333333333333,4,2,2,85,0,1
88288,-100,4,2,2,85,0,1
88757,-66.6666666666667,4,2,2,85,0,1
89038,-100,4,2,2,85,0,1
89507,-66.6666666666667,4,2,2,85,0,1
89788,-100,4,2,2,85,0,1
90257,-57.1428571428571,4,2,2,85,0,1
90632,-50,4,2,2,85,0,1
90819,-100,4,2,2,85,0,1
91007,-133.333333333333,4,2,2,85,0,1
91288,-100,4,2,2,85,0,1
91757,-133.333333333333,4,2,2,85,0,1
92038,-66.6666666666667,4,2,2,85,0,1
92507,-100,4,2,2,85,0,1
94007,-133.333333333333,4,2,2,85,0,1
94382,-80,4,2,2,85,0,1
94757,-66.6666666666667,4,2,2,85,0,1
95507,-133.333333333333,4,2,2,85,0,1
95788,-100,4,2,2,85,0,1
96257,-50,4,2,2,85,0,1
97007,-133.333333333333,4,2,2,85,0,1
97382,-80,4,2,2,85,0,1
97757,-66.6666666666667,4,2,2,85,0,1
98507,-66.6666666666667,4,2,2,85,0,1
100007,-133.333333333333,4,2,2,85,0,1
100382,-80,4,2,2,85,0,1
100757,-66.6666666666667,4,2,2,85,0,1
101507,-100,4,2,2,85,0,1
106007,-100,4,2,1,75,0,0
118007,-100,4,2,1,85,0,1
129632,-100,4,2,1,75,0,0
130007,-133.333333333333,4,2,1,65,0,0
136007,-100,4,2,1,45,0,0
140132,-100,4,2,1,25,0,0

[Colours]
Combo1 : 255,255,255
Combo2 : 103,111,243
Combo3 : 0,255,255
Combo4 : 149,84,188
Combo5 : 225,0,0

[HitObjects]
256,192,1007,12,4,2507,1:0:0:0:
184,96,2882,5,0,0:0:0:0:
160,128,2976,1,0,0:0:0:0:
152,168,3069,1,0,0:0:0:0:
160,208,3163,1,0,0:0:0:0:
184,240,3257,2,0,L|104:292|104:292,1,85.0000016212464,2|0,0:0|0:0,0:0:0:0:
360,296,3632,2,0,L|440:244,1,85.0000016212464,2|0,0:0|0:0,0:0:0:0:
268,272,4007,5,0,0:0:0:0:
136,304,4569,1,2,0:0:0:0:
124,308,4663,1,2,0:0:0:0:
112,312,4757,1,0,0:0:0:0:
436,80,5507,5,4,1:0:0:0:
200,140,5882,2,0,L|152:140,3,42.5000008106232
124,144,6257,2,0,P|73:155|32:184,1,85.0000016212464,2|0,0:0|0:0,0:0:0:0:
376,220,6632,2,0,P|428:214|468:184,1,85.0000016212464,2|0,0:0|0:0,0:0:0:0:
256,192,7007,37,2,0:0:0:0:
224,320,7569,1,0,0:0:0:0:
232,328,7663,1,0,0:0:0:0:
240,336,7757,1,2,0:0:0:0:
312,272,7944,1,2,0:0:0:0:
408,280,8132,1,2,0:0:0:0:
336,352,8319,1,2,0:0:0:0:
458,196,8507,6,0,P|480:162|480:104,1,85.0000016212464,2|2,0:0|0:0,0:0:0:0:
339,196,8882,1,0,0:0:0:0:
349,174,8976,1,0,0:0:0:0:
359,152,9069,1,0,0:0:0:0:
369,130,9163,1,0,0:0:0:0:
380,108,9257,2,0,P|360:57|317:33,1,85.0000016212464,8|0,0:0|0:0,0:0:0:0:
76,48,9632,2,0,P|108:92|156:104,1,85.0000016212464,2|2,0:0|0:0,0:0:0:0:
264,336,10007,6,0,L|220:260,1,85.0000016212464,2|2,0:0|0:0,0:0:0:0:
124,272,10382,1,0,0:0:0:0:
120,236,10476,1,0,0:0:0:0:
132,204,10569,1,0,0:0:0:0:
160,180,10663,1,0,0:0:0:0:
192,168,10757,2,0,P|264:164|292:144,1,85.0000016212464,8|0,0:0|0:0,0:0:0:0:
388,172,11132,1,2,0:0:0:0:
344,40,11320,1,2,0:0:0:0:
224,72,11507,1,2,0:0:0:0:
256,208,11694,1,2,0:0:0:0:
24,144,11882,37,0,0:0:0:0:
52,160,11976,1,0,0:0:0:0:
80,176,12069,1,0,0:0:0:0:
104,192,12163,1,0,0:0:0:0:
132,208,12257,2,0,P|220:172|272:220,1,170.000003242493,10|0,0:0|0:0,0:0:0:0:
448,296,13007,54,2,B|440:292|440:292|440:300|440:300|432:300|432:300|432:292|432:292|424:292|424:292|424:300|424:300|416:300|416:300|416:292|416:292|408:292|408:292|408:300|408:300|400:300|400:300|400:292|400:292|392:292|392:292|392:300|392:300|384:300|384:300|384:292|384:292|376:292|376:292|376:300|376:300|368:300|368:300|368:292|368:292|360:292|360:292|360:300|360:300|352:300|352:300|352:292|352:292|344:292|344:292|344:300|344:300|336:300|336:300|336:292|336:292|328:292|328:292|328:300|328:300|320:300|320:300|320:292|320:292|312:292|312:292|312:300|312:300|304:300|304:300|304:292|304:292|296:296|296:296|297:295,1,300,0|0,0:0|0:0,1:1:0:0:
184,320,13757,54,0,P|112:264|136:128,1,200,4|0,1:0|0:0,0:0:0:0:
480,144,14132,37,0,1:0:0:0:
452,140,14226,1,0,1:0:0:0:
424,136,14319,2,0,L|404:132,7,12.5,0|0|0|0|0|0|0|0,0:0|0:0|0:0|0:0|0:0|0:0|0:0|0:0,1:0:0:0:
388,128,14507,5,4,1:0:0:0:
220,100,14694,1,0,0:0:0:0:
312,60,14882,1,0,0:0:0:0:
212,200,15069,2,0,P|136:152|140:36,1,200,8|0,0:0|0:0,0:0:0:0:
312,60,15632,38,0,L|208:104,1,100,2|0,1:1|0:0,0:0:0:0:
302,179,16007,1,0,0:0:0:0:
400,204,16194,2,0,L|288:176,1,100,8|0,0:0|0:0,0:0:0:0:
400,204,16569,1,0,0:0:0:0:
164,296,16757,6,0,P|204:320|224:351,1,85.0000016212464,2|0,0:1|0:0,0:0:0:0:
36,296,17132,1,0,0:0:0:0:
92,188,17319,2,0,L|108:128,1,42.5000008106232,0|0,0:0|0:0,0:0:0:0:
195,113,17507,2,0,P|202:155|224:192,1,85.0000016212464,2|0,0:1|0:0,0:0:0:0:
252,20,17882,1,0,0:0:0:0:
260,328,18069,6,0,L|225:304,1,42.5000008106232
340,312,18257,2,0,P|404:324|436:304,1,85.0000016212464,8|0,0:0|0:0,0:0:0:0:
340,48,18632,1,0,0:0:0:0:
468,32,18819,2,0,L|512:16,1,42.5000008106232
420,96,19007,2,0,P|404:168|312:204,1,170.000003242493,2|0,0:1|0:0,0:0:0:0:
124,160,19569,2,0,L|172:76,1,85.0000016212464,8|0,0:0|0:0,0:0:0:0:
64,88,19944,1,0,0:0:0:0:
64,88,20038,1,0,0:0:0:0:
64,88,20132,2,0,P|40:196|72:232,1,127.50000243187,8|0,0:0|0:0,0:0:0:0:
100,252,20507,38,0,L|49:338,1,100,2|0,0:1|0:0,0:0:0:0:
168,152,20882,1,0,0:0:0:0:
252,88,21069,2,0,P|272:172|192:252,1,200,8|0,0:0|0:0,0:0:0:0:
424,248,21632,2,0,L|316:296,1,100,2|0,1:0|0:0,0:0:0:0:
424,248,22007,1,0,0:0:0:0:
432,348,22194,2,0,P|328:276|344:192,1,200,8|0,0:0|0:0,0:0:0:0:
424,248,22757,5,4,1:0:0:0:
244,116,23319,1,0,0:0:0:0:
244,116,23413,1,0,0:0:0:0:
244,116,23507,2,0,L|140:128,2,100.000003814697,2|2|2,0:0|0:0|0:0,0:0:0:0:
276,212,24257,2,0,L|172:224,2,100.000003814697,2|2|2,0:0|0:0|0:0,0:0:0:0:
276,212,25007,1,2,0:0:0:0:
256,192,25101,12,0,26413,0:0:0:0:
80,84,27632,37,0,0:0:0:0:
68,96,28007,6,0,P|60:144|80:180,1,75.0000028610231,2|0,0:0|0:0,0:0:0:0:
124,240,28382,1,0,0:0:0:0:
212,248,28569,1,0,0:0:0:0:
76,328,28757,2,0,P|124:340|160:336,1,75.0000028610231,2|0,0:0|0:0,0:0:0:0:
236,324,29132,1,0,0:0:0:0:
312,280,29319,1,0,0:0:0:0:
368,160,29507,6,0,P|304:148|272:64,1,150.000005722046,2|0,0:0|0:0,0:0:0:0:
368,244,30069,1,0,0:0:0:0:
376,80,30257,2,0,P|420:94|444:122,1,75.0000028610231,2|0,0:0|0:0,0:0:0:0:
436,336,30632,2,0,P|399:327|372:302,1,75.0000028610231,0|2,0:0|0:0,0:0:0:0:
384,192,31007,6,0,L|244:272,1,150.000005722046,2|0,0:0|0:0,0:0:0:0:
184,376,31757,2,0,L|184:214,1,150.000005722046,2|0,0:0|0:0,0:0:0:0:
124,112,32507,2,0,L|263:193,1,150.000005722046,2|0,0:0|0:0,0:0:0:0:
300,248,33069,1,0,0:0:0:0:
380,288,33257,2,0,P|368:196|320:164,1,150.000005722046,2|0,0:0|0:0,0:0:0:0:
224,56,34007,37,0,0:0:0:0:
152,128,34319,1,0,0:0:0:0:
152,128,34382,2,0,P|164:200|128:268,1,150.000005722046,2|0,0:0|0:0,0:0:0:0:
276,188,35132,1,0,0:0:0:0:
412,120,35507,2,0,L|432:192,1,75.0000028610231,2|0,0:0|0:0,0:0:0:0:
360,248,35882,2,0,L|332:332,1,75.0000028610231,2|0,0:0|0:0,0:0:0:0:
200,332,36257,1,2,0:0:0:0:
88,252,36632,1,0,0:0:0:0:
72,108,37007,6,0,P|156:116|228:84,1,150.000005722046,2|0,0:0|0:0,0:0:0:0:
408,128,37757,2,0,L|262:204,1,150.000005722046,2|0,0:0|0:0,0:0:0:0:
440,352,38507,6,0,L|352:332,1,75.0000028610231,2|0,0:0|0:0,0:0:0:0:
316,260,38882,2,0,P|288:224|240:204,1,75.0000028610231
140,204,39257,2,0,P|156:148|184:124,1,75.0000028610231,0|2,0:0|0:0,0:0:0:0:
248,96,39632,2,0,L|264:84,2,18.7500007152558
232,112,39819,1,2,0:0:0:0:
108,88,40007,37,4,1:0:0:0:
48,168,40194,1,0,0:0:0:0:
68,268,40382,2,0,P|112:296|136:340,1,100
212,272,40757,2,0,P|320:288|372:208,1,200,8|0,0:0|0:0,0:0:0:0:
260,48,41507,6,0,L|376:72,1,100,2|0,0:0|0:0,0:0:0:0:
308,156,41882,2,0,L|416:176,1,100,2|0,0:1|0:0,0:0:0:0:
196,72,42257,1,10,0:0:0:0:
320,344,42444,1,0,0:0:0:0:
256,124,42632,1,2,0:0:0:0:
256,300,42819,1,2,0:0:0:0:
256,208,43007,6,0,P|204:232|148:216,1,100,2|0,0:1|0:0,0:0:0:0:
103,89,43382,2,0,P|147:66|196:72,1,100
124,160,43757,2,0,P|96:264|184:304,1,200,8|0,0:0|0:0,0:0:0:0:
120,124,44507,38,0,L|208:76,1,100,2|0,0:0|0:0,0:0:0:0:
224,176,44882,2,0,L|328:120,1,100,2|0,0:1|0:0,0:0:0:0:
428,176,45257,1,10,0:0:0:0:
264,136,45444,1,2,0:0:0:0:
232,296,45631,1,2,0:0:0:0:
392,336,45819,1,2,0:0:0:0:
128,36,46007,6,0,P|165:67|169:115,1,100,2|0,0:1|0:0,0:0:0:0:
71,287,46382,2,0,P|40:248|39:199,1,100
136,224,46757,2,0,P|162:315|94:381,1,200,8|0,0:0|0:0,0:0:0:0:
288,240,47507,5,0,0:0:0:0:
300,256,47694,1,0,0:0:0:0:
312,272,47882,1,2,0:1:0:0:
328,288,48069,1,0,0:0:0:0:
268,340,48257,2,0,P|376:352|392:244,1,200,8|0,0:0|0:0,0:0:0:0:
360,108,49007,38,0,P|320:64|184:96,1,200,2|0,0:1|0:0,0:0:0:0:
136,200,49663,1,0,0:0:0:0:
124,224,49757,2,0,B|180:232|252:188|252:188|292:244,1,200,8|0,0:0|0:0,0:0:0:0:
468,180,50507,53,0,0:0:0:0:
432,248,50882,1,2,0:1:0:0:
392,308,51257,2,0,P|256:328|224:292,1,200,8|0,0:0|0:0,0:0:0:0:
184,92,52007,6,0,P|228:82|296:120,1,100,6|0,0:1|0:0,0:0:0:0:
160,180,52382,1,0,0:0:0:0:
128,264,52569,2,0,P|72:268|32:236,1,100,8|0,0:0|0:0,0:0:0:0:
180,244,52944,1,0,0:0:0:0:
320,184,53132,2,0,L|276:280,1,100,8|0,0:0|0:0,0:0:0:0:
420,168,53507,6,0,P|396:120|344:92,1,100,2|0,0:1|0:0,0:0:0:0:
420,224,53882,1,2,1:0:0:0:
268,80,54069,2,0,L|172:136,1,100,8|0,0:0|0:0,0:0:0:0:
80,12,54444,1,2,1:0:0:0:
96,32,54538,1,2,1:0:0:0:
112,52,54632,2,0,P|72:120|80:156,1,100,8|0,0:0|0:0,0:0:0:0:
216,354,55007,5,2,1:0:0:0:
349,171,55195,1,0,0:0:0:0:
133,241,55382,1,0,0:0:0:0:
349,311,55570,1,8,0:0:0:0:
216,128,55757,1,2,1:0:0:0:
436,200,55944,1,2,1:0:0:0:
436,200,56038,1,2,1:0:0:0:
436,200,56132,2,0,P|432:128|456:80,1,100,8|0,0:0|0:0,0:0:0:0:
304,244,56507,38,0,P|320:312|300:356,1,100,2|0,1:0|0:0,0:0:0:0:
268,208,56882,1,2,1:0:0:0:
276,64,57069,1,8,0:0:0:0:
396,184,57257,1,2,1:0:0:0:
355,196,57350,1,2,1:0:0:0:
314,188,57444,1,2,1:0:0:0:
282,160,57538,1,2,1:0:0:0:
274,118,57632,1,8,0:0:0:0:
254,80,57725,1,8,0:0:0:0:
218,57,57819,1,8,0:0:0:0:
176,52,57913,1,8,0:0:0:0:
136,52,58007,6,0,P|56:108|88:216,1,200,6|0,1:0|0:0,0:0:0:0:
196,216,58569,2,0,P|236:164|228:108,1,100,8|0,0:0|0:0,0:0:0:0:
144,140,58944,1,2,1:0:0:0:
104,236,59132,2,0,P|168:300|204:300,1,100,8|0,0:0|0:0,0:0:0:0:
416,284,59507,6,0,L|284:256,1,100,2|0,1:0|0:0,0:0:0:0:
260,168,59882,1,2,1:0:0:0:
472,216,60069,2,0,P|501:303|424:368,1,200,8|2,0:0|1:0,0:0:0:0:
252,352,60632,2,0,L|364:332,1,100,8|0,0:0|0:0,0:0:0:0:
172,344,61007,38,0,P|160:276|100:224,1,150,6|0,1:0|0:0,0:0:0:0:
84,224,61382,1,2,1:0:0:0:
328,192,61569,2,0,P|248:168|232:64,1,200,8|0,0:0|0:0,0:0:0:0:
352,188,62132,2,0,L|232:208,1,100,8|0,0:0|0:0,0:0:0:0:
484,344,62507,6,0,P|420:264|444:168,1,200,2|0,1:0|0:0,0:0:0:0:
416,76,63069,2,0,L|304:120,2,100,8|0|0,0:0|0:0|0:0,0:0:0:0:
432,92,63632,1,4,0:0:0:0:
132,76,64007,6,0,P|68:152|128:240,1,200,0|0,1:0|0:0,0:0:0:0:
264,160,64569,2,0,L|164:160,1,100,8|0,0:0|0:0,0:0:0:0:
312,224,64944,1,0,0:0:0:0:
360,284,65132,2,0,L|464:284,1,100,4|0,0:1|0:0,0:0:0:0:
107,192,65507,37,2,0:0:0:0:
241,38,65694,1,0,0:0:0:0:
164,230,65882,1,2,0:0:0:0:
318,12,66069,1,0,0:0:0:0:
235,243,66257,1,2,0:0:0:0:
388,25,66444,1,0,0:0:0:0:
312,224,66632,1,2,0:0:0:0:
446,83,66819,1,0,0:0:0:0:
312,320,67007,6,0,P|404:280|412:168,1,200,2|0,1:1|0:0,0:0:0:0:
324,212,67569,2,0,L|324:108,2,100,8|0|0,0:0|0:0|0:0,0:0:0:0:
296,328,68132,38,0,B|212:276|212:276|224:268|224:268|212:264|212:264|224:256|224:256|212:252|212:252|224:244|224:244|212:240|212:240|224:232|224:232|212:228|212:228|224:220|224:220|212:216|212:216|212:208|212:208|224:208|224:208,1,250,4|0,1:1|0:0,0:0:0:0:
148,72,69257,54,0,P|68:152|88:196,1,150.000005722046,4|0,1:0|0:0,0:0:0:0:
248,268,69632,21,0,0:0:0:0:
228,268,69726,1,0,0:0:0:0:
204,268,69819,2,0,L|204:288,7,18.7500007152558
184,268,70007,5,2,1:0:0:0:
108,212,70194,1,2,0:0:0:0:
120,124,70382,1,2,0:0:0:0:
192,176,70569,1,2,0:0:0:0:
264,232,70757,2,0,P|276:136|228:96,2,150.000005722046,2|2|2,0:0|0:0|0:0,0:0:0:0:
420,248,71882,2,0,L|444:176,1,75.0000028610231,2|0,0:0|0:0,0:0:0:0:
360,320,72257,5,2,0:0:0:0:
328,300,72351,1,2,0:0:0:0:
296,296,72444,1,2,0:0:0:0:
264,304,72538,1,2,0:0:0:0:
236,324,72632,1,2,0:0:0:0:
204,336,72726,1,2,0:0:0:0:
172,332,72819,1,2,0:0:0:0:
144,312,72913,1,2,0:0:0:0:
128,284,73007,38,0,P|144:220|136:188,1,75.0000028610231,2|0,0:0|0:0,0:0:0:0:
68,44,73382,2,0,P|56:112|68:144,1,75.0000028610231,0|2,0:0|0:0,0:0:0:0:
216,184,73757,2,0,L|212:32,2,150.000005722046,2|2|2,0:0|0:0|0:0,0:0:0:0:
344,128,74882,1,2,0:0:0:0:
360,40,75069,1,2,0:0:0:0:
448,164,75257,5,2,0:0:0:0:
432,192,75351,1,2,0:0:0:0:
408,212,75444,1,2,0:0:0:0:
376,228,75538,1,2,0:0:0:0:
332,216,75632,1,2,0:0:0:0:
300,220,75726,1,2,0:0:0:0:
272,236,75819,1,2,0:0:0:0:
252,264,75913,1,2,0:0:0:0:
236,292,76007,6,0,L|160:316,2,75.0000028610231,2|0|2,1:1|0:0|1:0,0:0:0:0:
256,164,76569,1,2,0:0:0:0:
180,212,76757,2,0,L|24:260,2,150.000005722046,2|2|2,1:2|1:2|1:2,0:0:0:0:
176,128,77882,2,0,L|80:160,1,75.0000028610231,2|0,1:2|0:0,0:0:0:0:
256,64,78257,37,2,1:2:0:0:
256,64,78351,1,2,0:0:0:0:
256,64,78444,1,2,0:0:0:0:
256,64,78538,1,2,0:0:0:0:
256,64,78632,1,2,1:2:0:0:
256,64,78726,1,2,0:0:0:0:
256,64,78819,1,2,0:0:0:0:
256,64,78913,1,2,0:0:0:0:
256,64,79007,5,6,1:0:0:0:
328,248,79194,1,2,1:0:0:0:
328,248,79382,1,2,1:0:0:0:
148,136,79569,5,12,0:0:0:0:
352,140,79757,1,2,1:0:0:0:
352,140,79945,1,2,1:0:0:0:
188,248,80132,37,12,0:0:0:0:
188,248,80226,1,2,0:1:0:0:
188,248,80319,1,2,0:1:0:0:
188,248,80413,1,2,0:1:0:0:
188,248,80507,1,12,0:0:0:0:
256,64,80694,1,2,1:0:0:0:
256,64,80787,1,2,1:0:0:0:
256,64,80881,1,12,0:0:0:0:
404,212,81069,2,0,P|360:260|384:336,1,150,12|0,0:0|0:0,0:0:0:0:
444,284,81444,38,0,P|488:196|460:152,1,150.000005722046,12|0,0:0|0:0,0:0:0:0:
492,72,81819,1,0,0:0:0:0:
396,60,82007,6,0,P|340:44|304:52,1,75.0000028610231,2|0,1:0|0:0,0:0:0:0:
200,80,82288,6,0,P|160:128|104:148,1,100,0|0,1:0|0:0,0:0:0:0:
80,256,82569,2,0,L|24:284,1,50,0|0,1:0|0:0,0:0:0:0:
112,344,82757,6,0,P|164:312|172:216,1,150.000005722046,8|0,0:0|0:0,0:0:0:0:
240,152,83038,54,0,L|184:116,1,50,0|0,1:0|0:0,1:0:0:0:
272,272,83226,1,0,1:0:0:0:
272,272,83319,2,0,L|316:300,1,50,0|0,1:0|0:0,0:0:0:0:
440,268,83507,6,0,P|400:192|424:128,1,150.000005722046,2|0,1:0|0:0,0:0:0:0:
332,164,83788,54,0,L|236:92,1,100,0|0,1:0|0:0,0:0:0:0:
340,72,84069,2,0,L|284:36,1,50,0|0,1:0|0:0,0:0:0:0:
160,84,84257,38,0,L|60:124,1,87.500000834465,14|0,0:0|0:0,0:0:0:0:
176,164,84444,2,0,L|84:200,1,87.500000834465,6|0,0:0|0:0,0:0:0:0:
192,244,84632,2,2,B|264:248|296:176|296:176|296:264,1,200,6|2,0:0|0:0,0:0:0:0:
344,340,84913,1,2,0:0:0:0:
352,356,85007,6,0,P|432:332|440:316,1,75.0000028610231,2|0,1:0|0:0,0:0:0:0:
468,152,85288,6,0,P|448:120|392:88,1,100,0|0,1:0|0:0,0:0:0:0:
268,56,85569,1,0,1:0:0:0:
268,56,85663,1,0,0:0:0:0:
268,56,85757,6,0,P|280:148|248:192,1,150.000005722046,8|0,0:0|0:0,0:0:0:0:
140,288,86038,54,0,L|104:324,1,50,0|0,1:0|0:0,0:0:0:0:
288,300,86225,1,0,1:0:0:0:
288,300,86319,2,0,L|328:252,1,50,0|0,1:0|0:0,0:0:0:0:
384,92,86507,2,0,L|336:152,1,50,2|0,1:0|0:0,0:0:0:0:
212,232,86694,2,0,L|256:180,1,50,0|0,1:0|0:0,0:0:0:0:
304,40,86882,2,0,L|264:96,1,50,0|0,1:0|0:0,0:0:0:0:
132,180,87069,2,0,L|164:140,4,37.5000014305115,8|0|0|0|8,0:0|0:0|0:0|0:0|0:0,0:0:0:0:
384,196,87444,1,2,1:0:0:0:
384,196,87538,1,2,1:0:0:0:
384,196,87632,38,0,P|392:292|284:348,1,225.000008583069,8|2,0:0|0:0,0:0:0:0:
80,328,88007,6,0,P|116:316|152:276,1,75.0000028610231,2|0,1:0|0:0,0:0:0:0:
204,224,88288,6,0,L|204:124,1,100,0|0,1:0|0:0,0:0:0:0:
296,120,88569,2,0,L|296:68,1,50,0|0,1:0|0:0,0:0:0:0:
392,132,88757,6,0,P|384:248|360:272,1,150.000005722046,8|0,0:0|0:0,0:0:0:0:
232,308,89038,54,0,L|280:352,1,50,0|0,1:0|0:0,0:0:0:0:
248,208,89226,1,0,1:0:0:0:
248,208,89319,2,0,L|212:172,1,50,0|0,1:0|0:0,0:0:0:0:
116,208,89507,6,0,P|116:128|196:72,1,150.000005722046,2|0,1:0|0:0,0:0:0:0:
424,44,89788,54,0,L|325:58,1,100,0|0,1:0|0:0,0:0:0:0:
262,149,90069,2,0,L|312:144,1,50,0|0,1:0|0:0,0:0:0:0:
416,260,90257,38,0,P|483:262|512:284,1,87.500000834465,12|0,0:0|0:0,0:0:0:0:
416,260,90444,2,0,P|375:314|340:320,1,87.500000834465,4|0,0:0|0:0,0:0:0:0:
416,260,90632,2,0,B|381:207|432:140|432:140|356:160,1,200,4|2,0:0|0:0,0:0:0:0:
132,112,91007,6,0,P|120:160|120:196,1,75.0000028610231,2|0,1:0|0:0,0:0:0:0:
56,236,91288,6,0,P|120:264|188:220,1,150,0|2,1:0|0:0,0:0:0:0:
332,92,91757,1,2,1:0:0:0:
328,120,91851,1,2,1:0:0:0:
324,148,91944,1,2,1:0:0:0:
320,176,92038,2,0,L|368:192,6,37.5000014305115,8|0|0|0|0|0|2,0:0|0:0|0:0|0:0|0:0|0:0|1:0,0:0:0:0:
136,212,92507,6,0,P|124:184|96:160,1,50,2|0,1:0|0:0,0:0:0:0:
200,316,92694,2,0,P|208:344|224:364,1,50,8|0,0:0|0:0,0:0:0:0:
220,232,92882,1,2,1:0:0:0:
300,292,93069,2,2,L|260:304,5,25
220,232,93444,1,2,1:0:0:0:
224,143,93632,2,2,L|248:136,6,25
224,143,94007,38,0,P|320:120|360:124,1,112.500004291535
392,200,94382,22,0,L|456:224,1,62.5,0|0,1:0|0:0,0:0:0:0:
316,268,94569,2,0,L|388:296,1,62.5,0|0,1:0|0:0,0:0:0:0:
300,360,94757,2,0,B|248:336|248:336|192:264|240:200|288:176,1,225.000008583069,2|2,1:0|0:0,0:0:0:0:
304,172,95132,1,0,0:0:0:0:
148,48,95319,37,0,1:0:0:0:
112,72,95507,2,0,P|85:97|78:133,1,75.0000028610231,2|0,1:0|0:0,0:0:0:0:
256,140,95788,6,0,L|140:140,1,100,0|0,1:0|0:0,0:0:0:0:
116,204,96069,2,0,P|92:216|44:208,1,50,2|0,1:0|0:0,0:0:0:0:
212,348,96257,38,0,P|276:332|320:292,1,100,12|0,0:0|0:0,0:0:0:0:
392,268,96444,2,0,L|364:164,1,100,4|0,0:0|0:0,0:0:0:0:
328,88,96632,2,0,B|384:60|440:112|440:112|476:212,1,200,4|2,0:0|0:0,0:0:0:0:
466,184,96913,1,2,0:0:0:0:
466,184,97007,6,0,B|472:248|472:248|432:308,1,112.500004291535,2|2,1:0|0:0,0:0:0:0:
368,276,97382,22,0,L|384:336,1,62.5,0|0,1:0|0:0,0:0:0:0:
292,232,97569,1,0,1:0:0:0:
292,232,97663,1,0,1:0:0:0:
292,232,97757,2,0,B|256:280|202:278|168:260|168:260|136:348,1,225.000008583069,2|2,1:0|0:0,0:0:0:0:
104,332,98132,1,0,0:0:0:0:
216,180,98319,37,0,1:0:0:0:
64,328,98507,6,0,P|48:248|60:212,1,93.75,2|0,1:0|0:0,0:0:0:0:
124,176,98694,2,0,P|132:128|116:64,1,93.75,0|0,0:0|0:0,0:0:0:0:
36,68,98882,2,0,P|104:88|140:76,1,93.75,2|0,1:0|0:0,0:0:0:0:
200,40,99069,2,0,P|252:36|312:60,1,93.75,8|0,0:0|0:0,0:0:0:0:
300,88,99257,5,8,0:0:0:0:
292,104,99351,1,0,0:0:0:0:
284,120,99444,1,2,1:0:0:0:
276,136,99538,1,2,1:0:0:0:
300,160,99632,2,0,B|340:256|332:328|332:328|316:291|272:272,1,225.000008583069,8|2,0:0|0:0,0:0:0:0:
376,196,100007,38,0,P|392:140|376:88,1,112.500004291535,2|0,1:0|0:0,0:0:0:0:
296,36,100382,22,0,P|272:64|260:96,1,62.5,0|0,1:0|0:0,0:0:0:0:
232,264,100569,2,0,P|256:236|268:200,1,62.5,0|0,1:0|0:0,0:0:0:0:
180,200,100757,2,0,B|140:253|128:312|208:368|260:336,1,225.000008583069,2|2,1:0|0:0,0:0:0:0:
284,324,101132,1,0,0:0:0:0:
352,112,101319,37,0,1:0:0:0:
356,312,101507,6,0,P|416:284|436:228,1,100,2|0,1:0|0:0,0:0:0:0:
332,208,101788,2,0,P|284:184|260:136,1,100,0|0,1:0|0:0,0:0:0:0:
352,112,102069,1,2,1:0:0:0:
104,200,102257,5,0,1:0:0:0:
192,56,102444,1,2,1:0:0:0:
192,56,102538,1,2,0:0:0:0:
188,340,102726,1,2,0:0:0:0:
188,340,102819,1,2,1:0:0:0:
352,304,103007,6,0,P|284:244|280:224,1,100,2|0,1:0|0:0,0:0:0:0:
300,108,103382,1,0,1:0:0:0:
400,172,103569,2,0,P|328:236|220:204,1,200,8|2,0:0|1:0,0:0:0:0:
44,168,104132,2,0,P|92:155|127:122,1,100,2|0,1:0|0:0,0:0:0:0:
44,168,104507,1,0,1:0:0:0:
84,328,104694,6,0,L|128:328,1,25,8|0,0:0|0:0,0:0:0:0:
176,324,105257,6,0,L|189:314,24,16.6666666666667
204,104,112007,5,2,1:0:0:0:
76,200,112194,1,0,0:0:0:0:
200,272,112382,1,0,0:0:0:0:
168,188,112569,1,0,0:0:0:0:
328,228,112757,2,0,P|344:308|244:368,1,200,8|0,0:0|0:0,0:0:0:0:
324,96,113507,6,0,P|276:84|228:40,1,100,0|0,1:0|0:0,0:0:0:0:
380,260,113882,2,0,P|436:272|468:308,1,100,2|0,1:0|0:0,0:0:0:0:
304,204,114257,2,0,P|296:297|392:352,1,200,8|0,0:0|0:0,0:0:0:0:
168,60,115007,37,2,1:0:0:0:
84,152,115382,5,2,1:0:0:0:
100,176,115476,1,2,1:0:0:0:
116,200,115569,1,2,1:0:0:0:
132,224,115663,1,2,1:0:0:0:
148,248,115757,1,8,0:0:0:0:
296,260,115944,1,8,0:0:0:0:
220,328,116132,1,0,1:0:0:0:
224,188,116319,5,2,1:0:0:0:
224,156,116413,1,2,1:0:0:0:
236,128,116507,1,8,0:0:0:0:
220,328,116694,1,2,1:0:0:0:
220,328,116882,1,2,1:0:0:0:
236,128,117069,1,8,0:0:0:0:
416,336,117257,5,2,1:0:0:0:
396,312,117351,1,2,1:0:0:0:
388,284,117444,1,2,1:0:0:0:
392,256,117538,1,2,1:0:0:0:
416,236,117632,1,8,0:0:0:0:
432,212,117726,1,8,0:0:0:0:
436,184,117819,1,8,0:0:0:0:
428,156,117913,1,8,0:0:0:0:
408,132,118007,38,0,P|320:100|292:60,1,100,8|0,0:0|0:0,0:0:0:0:
152,88,118382,1,2,1:0:0:0:
154,187,118569,2,0,P|202:172|240:140,1,100,8|0,0:0|0:0,0:0:0:0:
44,152,118944,1,2,1:0:0:0:
124,80,119132,2,0,P|80:48|24:48,1,100,8|0,0:0|0:0,0:0:0:0:
44,152,119507,6,0,P|48:210|100:260,1,100,4|2,1:0|0:1,0:0:0:0:
144,312,119788,2,0,L|100:276,1,50,2|2,0:1|0:1,0:0:0:0:
128,232,119975,1,2,0:1:0:0:
156,188,120069,2,0,P|264:192|336:116,1,200,8|2,0:0|1:0,0:0:0:0:
376,328,120632,6,0,P|376:256|344:208,1,100,8|0,0:0|1:0,0:0:0:0:
364,231,120913,1,2,1:0:0:0:
364,231,121007,1,2,1:0:0:0:
252,64,121194,1,2,1:0:0:0:
248,252,121382,1,0,0:0:0:0:
136,92,121569,1,8,0:0:0:0:
364,232,121757,1,2,1:0:0:0:
128,304,121944,1,2,1:0:0:0:
148,284,122038,1,2,1:0:0:0:
168,264,122132,2,0,P|144:184|112:160,1,100,8|0,0:0|0:0,0:0:0:0:
364,231,122507,38,0,P|384:284|416:316,1,100,6|0,1:0|0:0,0:0:0:0:
460,232,122882,1,2,1:0:0:0:
328,84,123069,2,0,P|296:40|256:16,1,100,8|0,0:0|0:0,0:0:0:0:
412,152,123444,1,2,1:0:0:0:
144,256,123632,1,8,0:0:0:0:
272,180,123819,1,0,1:0:0:0:
256,204,123913,1,0,1:0:0:0:
248,228,124007,6,0,P|239:286|220:328,1,100,6|0,1:0|0:0,0:0:0:0:
148,256,124382,1,2,1:0:0:0:
308,376,124569,2,0,P|344:296|348:184,1,200,8|0,0:0|0:0,0:0:0:0:
292,56,125132,1,8,0:0:0:0:
424,72,125319,5,2,1:0:0:0:
424,72,125413,1,2,1:0:0:0:
424,72,125507,1,2,1:0:0:0:
172,104,125694,2,0,P|156:172|132:196,1,100,2|0,1:0|0:0,0:0:0:0:
60,148,126069,2,0,P|80:260|152:280,1,200,8|0,0:0|0:0,0:0:0:0:
284,236,126632,2,0,P|344:280|360:312,1,100,8|0,0:0|0:0,0:0:0:0:
356,156,127007,37,2,1:0:0:0:
264,92,127194,2,0,P|216:64|196:20,1,100,2|0,1:0|0:0,0:0:0:0:
356,156,127569,2,0,B|320:156|320:156|260:196|204:156|204:156|144:156,1,200,8|0,0:0|0:0,0:0:0:0:
100,68,128132,1,8,0:0:0:0:
164,156,128319,1,0,0:0:0:0:
104,248,128507,6,0,P|172:272|208:268,1,100,6|0,1:0|0:0,0:0:0:0:
368,240,128882,1,0,0:0:0:0:
292,176,129069,2,0,P|264:268|336:336,1,200,8|0,0:0|0:0,0:0:0:0:
330,334,129632,1,0,0:0:0:0:
200,224,130007,6,0,P|236:284|328:288,1,150.000005722046,2|0,0:0|0:0,0:0:0:0:
284,216,130569,2,0,P|317:154|272:80,1,150.000005722046,2|0,0:0|0:0,0:0:0:0:
232,152,131132,2,0,L|152:140,1,75.0000028610231,2|0,0:0|0:0,0:0:0:0:
372,72,131507,37,2,0:0:0:0:
448,208,131694,1,0,0:0:0:0:
312,288,131882,1,2,0:0:0:0:
232,152,132069,1,0,0:0:0:0:
372,72,132257,1,2,0:0:0:0:
232,152,132444,1,0,0:0:0:0:
312,288,132632,1,2,0:0:0:0:
448,208,132819,1,0,0:0:0:0:
64,208,133007,6,0,P|100:268|192:272,1,150.000005722046,2|0,0:0|0:0,0:0:0:0:
148,200,133569,2,0,P|182:138|136:64,1,150.000005722046,2|0,0:0|0:0,0:0:0:0:
256,192,134132,12,0,135632,0:0:0:0:
41,195,136007,5,2,0:0:0:0:
133,202,136194,1,0,0:0:0:0:
211,250,136382,1,0,0:0:0:0:
265,320,136569,1,0,0:0:0:0:
174,331,136757,37,2,0:0:0:0:
211,250,136944,1,0,0:0:0:0:
288,200,137132,1,0,0:0:0:0:
379,189,137319,1,0,0:0:0:0:
343,270,137507,5,2,0:0:0:0:
288,200,137694,1,0,0:0:0:0:
271,114,137882,1,0,0:0:0:0:
312,34,138069,1,0,0:0:0:0:
441,94,138257,37,2,0:0:0:0:
456,113,138351,1,0,0:0:0:0:
472,132,138444,1,2,0:0:0:0:
487,150,138538,1,2,0:0:0:0:
502,169,138632,1,0,0:0:0:0:
352,172,139007,5,2,0:0:0:0:
380,336,139194,1,0,0:0:0:0:
220,272,139382,1,0,0:0:0:0:
368,256,139569,5,0,0:0:0:0:
288,224,139757,1,2,0:0:0:0:
288,300,139944,2,0,L|320:316,3,33.3333333333333,0|0|0|2,0:0|0:0|0:0|0:0,0:0:0:0:
256,192,140225,12,0,142194,0:0:0:0:
