osu file format v12

[General]
AudioFilename: Magnolia (feat Guriri).mp3
AudioLeadIn: 0
PreviewTime: 49007
Countdown: 1
SampleSet: Soft
StackLeniency: 0.7
Mode: 0
LetterboxInBreaks: 1
WidescreenStoryboard: 1

[Editor]
DistanceSpacing: 1.3
BeatDivisor: 4
GridSize: 4
TimelineZoom: 1.4

[Metadata]
Title:Magnolia
TitleUnicode:Magnolia
Artist:M2U feat. Guriri
ArtistUnicode:M2U feat. Guriri
Creator:gxytcgxytc
Version:Hard
Source:Deemo
Tags:
BeatmapID:395925
BeatmapSetID:161835

[Difficulty]
HPDrainRate:7
CircleSize:4
OverallDifficulty:6
ApproachRate:8
SliderMultiplier:1.6
SliderTickRate:1

[Events]
//Background and Video events
0,0,"magnolia.jpg",0,0
//Break Periods
2,70207,75257
//Storyboard Layer 0 (Background)
//Storyboard Layer 1 (Fail)
//Storyboard Layer 2 (Pass)
//Storyboard Layer 3 (Foreground)
//Storyboard Sound Samples
//Background Colour Transformations
3,100,0,0,0

[TimingPoints]
2507.44588250067,375,4,2,1,70,1,0
13007,-133.333333333333,4,2,1,70,0,0
14507,-117.647058823529,4,2,1,70,0,0
22757,-133.333333333333,4,2,1,50,0,0
27632,-117.647058823529,4,2,1,50,0,0
52007,-100,4,2,1,50,0,0
63069,-133.333333333333,4,2,1,50,0,0
64007,-117.647058823529,4,2,1,50,0,0
81069,-153.846153846154,4,2,1,50,0,0
82007,-100,4,2,1,50,0,0
84257,-66.6666666666667,4,2,1,50,0,0

[Colours]
Combo1 : 149,84,188
Combo2 : 103,111,243
Combo3 : 0,255,255

[HitObjects]
256,192,1194,12,0,2507,0:0:0:0:
168,100,2882,5,0,0:0:0:0:
132,188,3069,1,0,0:0:0:0:
132,188,3163,1,0,0:0:0:0:
132,188,3257,2,0,P|116:248|152:312,1,120
152,304,3632,2,0,L|248:296,1,80
368,272,4007,1,0,0:0:0:0:
376,128,4569,2,0,L|336:128,2,40
212,216,5507,5,0,0:0:0:0:
80,324,5882,2,0,L|140:324,3,40
168,324,6257,2,0,P|156:276|176:232,1,80
256,100,6632,2,0,P|264:144|256:192,1,80
172,144,7007,1,0,0:0:0:0:
256,200,7569,1,0,0:0:0:0:
256,200,7663,1,0,0:0:0:0:
256,200,7757,2,0,L|360:144,1,80
332,260,8132,2,0,L|260:296,1,80
164,284,8507,5,0,0:0:0:0:
92,220,8694,1,0,0:0:0:0:
80,124,8882,2,0,L|128:96,3,40
156,80,9257,2,0,L|244:80,1,80
408,124,9632,2,0,P|376:56|380:36,1,80
328,208,10007,2,0,P|352:244|344:300,1,80,0|0,0:0|0:0,0:0:0:0:
288,320,10382,2,0,L|232:336,3,40
204,320,10757,2,0,L|104:320,1,80
76,180,11132,1,0,0:0:0:0:
336,72,11507,6,0,P|280:116|264:120,1,80
124,160,11882,2,0,L|64:184,3,40
44,196,12257,2,0,P|48:260|32:288,1,80
124,160,12632,2,0,P|112:104|124:76,1,80
192,120,13007,2,0,P|268:144|280:236,1,180.000006866455
196,204,13757,2,0,P|212:288|304:320,1,180.000006866455
360,252,14507,5,0,0:0:0:0:
416,184,14694,1,0,0:0:0:0:
388,100,14882,1,0,0:0:0:0:
332,168,15069,2,0,P|304:124|340:32,1,136.000002593994
388,100,15632,1,0,0:0:0:0:
332,168,15819,1,0,0:0:0:0:
252,208,16007,1,0,0:0:0:0:
164,196,16194,1,0,0:0:0:0:
220,128,16382,1,0,0:0:0:0:
252,208,16569,1,0,0:0:0:0:
164,196,16757,6,0,L|119:262,1,68.0000012969971
140,352,17132,1,0,0:0:0:0:
208,296,17319,1,0,0:0:0:0:
208,296,17413,1,0,0:0:0:0:
208,296,17507,2,0,L|252:229,1,68.0000012969971
232,140,17882,5,0,0:0:0:0:
164,196,18069,1,0,0:0:0:0:
164,196,18163,1,0,0:0:0:0:
164,196,18257,2,0,L|108:280,1,68.0000012969971
140,352,18632,1,0,0:0:0:0:
208,296,18819,1,0,0:0:0:0:
208,296,18913,1,0,0:0:0:0:
208,296,19007,2,0,L|252:229,1,68.0000012969971
232,140,19382,1,0,0:0:0:0:
276,328,19569,6,0,L|360:208,1,136.000002593994
352,84,20132,2,0,L|280:188,1,102.000001945496
256,168,20507,6,0,L|176:168,1,68.0000012969971
96,168,20882,1,0,0:0:0:0:
92,88,21069,2,0,P|28:124|24:208,1,136.000002593994
96,168,21632,2,0,L|96:256,1,68.0000012969971
172,272,22007,1,0,0:0:0:0:
248,368,22194,2,0,L|248:272,1,68.0000012969971
324,268,22569,1,0,0:0:0:0:
192,176,22757,2,0,L|312:176,1,120.000004577637
252,68,23507,6,0,L|348:80,2,80.0000030517579
244,152,24257,2,0,L|156:176,2,80.0000030517579
236,236,25007,1,0,0:0:0:0:
256,192,25101,12,0,26413,0:0:0:0:
256,64,27632,5,0,0:0:0:0:
256,64,28007,6,0,P|260:100|248:152,1,68.0000012969971
204,196,28382,1,0,0:0:0:0:
132,236,28569,1,0,0:0:0:0:
332,312,28757,2,0,P|320:272|340:220,1,68.0000012969971
396,204,29132,1,0,0:0:0:0:
476,191,29319,1,0,0:0:0:0:
328,140,29507,6,0,P|268:180|208:160,1,136.000002593994
260,96,30069,1,0,0:0:0:0:
180,100,30257,2,0,L|120:52,1,68.0000012969971
260,96,30632,2,0,L|320:140,1,68.0000012969971
224,172,31007,6,0,P|160:216|148:272,1,136.000002593994
320,204,31757,2,0,P|313:126|271:88,1,136.000002593994
248,268,32507,2,0,P|318:301|372:283,1,136.000002593994
428,224,33069,1,0,0:0:0:0:
432,144,33257,2,0,P|420:108|388:84,1,68.0000012969971
300,44,33632,2,0,P|312:80|344:104,1,68.0000012969971
356,180,34007,6,0,L|220:144,1,136.000002593994
72,200,34757,2,0,L|208:240,1,136.000002593994
424,328,35507,2,0,P|416:292|400:264,1,68.0000012969971
304,268,35882,2,0,L|212:268,1,68.0000012969971
155,331,36257,2,0,P|121:275|144:208,1,136.000002593994
368,96,37007,6,0,P|440:160|408:260,1,204.000003890991
408,348,37757,2,0,P|332:296|324:256,1,136.000002593994
164,216,38507,2,0,P|170:281|126:331,1,136.000002593994
100,144,39257,2,0,P|104:96|128:64,1,68.0000012969971
180,124,39632,6,0,L|184:160,3,22.666667098999,0|0|0|2,0:0|0:0|0:0|0:0,0:0:0:0:
314,62,40007,6,0,P|297:114|335:190,1,136.000002593994
409,193,40569,1,0,0:0:0:0:
399,274,40757,2,0,L|328:292,1,68.0000012969971
198,348,41132,2,0,L|264:332,1,68.0000012969971
124,316,41507,2,0,P|97:286|88:239,1,68.0000012969971
140,185,41882,2,0,P|132:137|105:111,1,68.0000012969971
39,135,42257,2,0,P|60:73|120:46,1,136.000002593994
223,184,43007,6,0,P|205:248|149:284,1,136.000002593994
67,282,43569,1,0,0:0:0:0:
105,209,43757,2,0,P|127:193|170:194,1,68.0000012969971
247,271,44132,2,0,P|279:280|318:264,1,68.0000012969971
369,208,44507,2,0,L|381:139,1,68.0000012969971
474,66,44882,2,0,L|459:148,1,68.0000012969971
450,246,45257,2,0,P|388:291|316:272,1,136.000002593994
83,298,46007,6,0,P|146:295|188:231,1,136.000002593994
177,157,46569,1,0,0:0:0:0:
117,229,46757,2,0,P|183:240|245:215,1,136.000002593994
464,78,47507,2,0,L|448:153,1,68.0000012969971
359,190,47882,2,0,L|344:257,1,68.0000012969971
465,78,48257,2,0,P|428:144|352:148,1,136.000002593994
408,332,49007,6,0,P|344:328|312:264,1,136.000002593994
200,132,49757,2,0,P|192:184|112:216,1,136.000002593994
336,180,50507,2,0,P|408:188|472:136,2,136.000002593994
188,108,51632,1,0,0:0:0:0:
56,248,52007,6,0,P|72:288|120:312,1,80
180,320,52382,1,0,0:0:0:0:
140,240,52569,2,0,P|188:204|196:172,1,80
120,164,52944,1,0,0:0:0:0:
172,96,53132,2,0,P|224:80|256:84,1,80
432,160,53507,6,0,P|388:176|340:168,1,80
280,148,53882,1,0,0:0:0:0:
296,228,54069,2,0,P|288:276|264:304,1,80
200,340,54444,1,0,0:0:0:0:
208,240,54632,1,0,0:0:0:0:
220,140,54819,5,0,0:0:0:0:
220,140,54913,1,0,0:0:0:0:
220,140,55007,2,0,P|168:156|136:184,1,80
208,240,55382,1,0,0:0:0:0:
200,340,55569,2,0,P|260:320|284:300,1,80
312,240,55944,1,0,0:0:0:0:
420,344,56132,2,0,P|384:336|348:304,1,80
312,240,56507,6,0,P|296:204|264:176,1,80
192,148,56882,1,0,0:0:0:0:
196,68,57069,2,0,P|120:108|132:204,1,160
192,148,57632,1,0,0:0:0:0:
468,344,58007,6,0,P|420:328|384:340,1,80
320,368,58382,1,0,0:0:0:0:
324,292,58569,2,0,P|344:235|292:140,1,160
364,112,59132,2,0,L|256:128,1,80
96,180,59507,6,0,P|64:140|64:84,1,80
140,116,59882,1,0,0:0:0:0:
216,264,60069,2,0,P|188:308|84:312,1,160
132,240,60632,2,0,L|184:160,1,80
376,152,61007,6,0,P|424:128|444:96,1,80
368,72,61382,1,0,0:0:0:0:
304,120,61569,2,0,P|304:184|392:232,1,160
368,72,62132,2,0,P|328:40|288:40,1,80
64,84,62507,6,0,P|112:104|148:104,1,80
212,24,62882,1,0,0:0:0:0:
248,108,63069,2,0,L|188:284,1,180.000006866455
432,320,64007,6,0,P|360:292|352:216,1,136.000002593994
372,176,64569,2,0,P|376:120|304:64,1,136.000002593994
256,56,65132,2,0,L|184:52,1,68.0000012969971
204,132,65507,6,0,L|128:120,1,68.0000012969971
176,208,65882,2,0,L|92:192,1,68.0000012969971
40,252,66257,2,0,L|120:272,1,68.0000012969971
40,332,66632,2,0,L|124:352,1,68.0000012969971
216,336,67007,2,0,L|360:280,1,136.000002593994
384,184,67569,2,0,L|252:236,1,136.000002593994
256,192,68132,12,0,70007,0:0:0:0:
184,104,76007,6,0,P|148:140|136:184,1,68.0000012969971
116,232,76382,2,0,P|112:272|124:308,1,68.0000012969971
228,344,76757,2,0,P|244:288|240:264,1,68.0000012969971
232,200,77132,2,0,P|232:148|240:128,1,68.0000012969971
304,88,77507,6,0,L|388:68,1,68.0000012969971
424,176,77882,2,0,L|352:160,1,68.0000012969971
312,268,78257,2,0,L|384:244,1,68.0000012969971
424,344,78632,2,0,L|352:336,1,68.0000012969971
228,336,79007,6,0,P|184:320|164:284,2,68.0000012969971
240,188,79569,2,0,P|264:156|300:140,2,68.0000012969971
372,248,80132,2,0,L|420:248,3,34.0000006484985
372,248,80507,2,0,P|336:272|256:280,1,102.000001945496
240,284,80882,1,0,0:0:0:0:
152,284,81069,2,0,L|48:284,1,103.999995239258
444,304,82007,6,0,P|380:320|328:304,1,120
288,276,82382,2,0,L|200:288,1,80
72,268,82757,2,0,P|112:240|132:168,1,120
92,76,83226,2,0,L|148:72,1,40
252,140,83507,2,0,P|292:192|364:204,1,120
496,180,84069,1,0,0:0:0:0:
400,304,84257,2,0,P|360:312|320:300,1,60.0000022888184
272,244,84444,2,0,P|228:240|200:248,1,60.0000022888184
144,304,84632,2,0,P|116:244|136:184,1,120.000004577637
