osu file format v14

[General]
AudioFilename: M2U Magnolia.mp3
AudioLeadIn: 0
PreviewTime: 79125
Countdown: 0
SampleSet: Soft
StackLeniency: 0.7
Mode: 3
LetterboxInBreaks: 0
SpecialStyle: 0
WidescreenStoryboard: 1

[Editor]
DistanceSpacing: 1.1
BeatDivisor: 4
GridSize: 16
TimelineZoom: 1.8

[Metadata]
Title:Magnolia
TitleUnicode:Magnolia
Artist:M2U feat. Guriri
ArtistUnicode:M2U feat. Guriri
Creator:OmegaJack
Version:7K Hard
Source:Deemo
Tags:dubstep symphonic wav.av. rayark
BeatmapID:377358
BeatmapSetID:153550

[Difficulty]
HPDrainRate:7
CircleSize:7
OverallDifficulty:7
ApproachRate:5
SliderMultiplier:1.4
SliderTickRate:1

[Events]
//Background and Video events
Video,0,"M2U Magnolia.avi"
0,0,"magnolia.jpg",0,0
//Break Periods
//Storyboard Layer 0 (Background)
//Storyboard Layer 1 (Fail)
//Storyboard Layer 2 (Pass)
//Storyboard Layer 3 (Foreground)
//Storyboard Sound Samples

[TimingPoints]
1125,375,4,2,0,50,1,0
1500,-125,4,2,0,50,0,0
8671,-111.111111111111,4,2,0,50,0,0
10171,-100,4,2,0,50,0,0
27187,-125,4,2,0,50,0,0
40171,-100,4,2,0,50,0,0
52125,-100,4,2,0,50,0,1
70125,-100,4,2,0,50,0,0
82125,-100,4,2,0,50,0,1
105468,-117.647058823529,4,2,0,50,0,1
106125,-117.647058823529,4,2,0,50,0,0
112125,-100,4,2,0,50,0,0
118125,-100,4,2,0,50,0,1
134343,-117.647058823529,4,2,0,50,0,0

[HitObjects]
36,192,2625,128,0,3000:0:0:0:0:
182,192,3000,1,0,0:0:0:0:
256,192,3093,1,0,0:0:0:0:
329,192,3187,1,0,0:0:0:0:
402,192,3281,1,0,0:0:0:0:
182,192,3375,128,0,3750:0:0:0:0:
475,192,3375,1,0,0:0:0:0:
36,192,3750,128,0,4125:0:0:0:0:
109,192,4125,128,0,4687:0:0:0:0:
402,192,4687,1,0,0:0:0:0:
329,192,4781,1,0,0:0:0:0:
256,192,4875,128,0,5625:0:0:0:0:
36,192,5625,128,0,6000:0:0:0:0:
109,192,6000,1,0,0:0:0:0:
182,192,6093,1,0,0:0:0:0:
256,192,6187,1,0,0:0:0:0:
329,192,6281,1,0,0:0:0:0:
402,192,6375,128,0,6750:0:0:0:0:
256,192,6750,128,0,7125:0:0:0:0:
36,192,7125,128,0,7687:0:0:0:0:
182,192,7687,1,0,0:0:0:0:
329,192,7781,1,0,0:0:0:0:
475,192,7875,128,0,8625:0:0:0:0:
109,192,8625,1,4,0:0:0:0:
36,192,8625,128,0,9000:0:0:0:0:
402,192,9000,1,0,0:0:0:0:
329,192,9093,1,0,0:0:0:0:
256,192,9187,1,0,0:0:0:0:
182,192,9281,1,0,0:0:0:0:
109,192,9375,1,0,0:0:0:0:
475,192,9375,128,0,9750:0:0:0:0:
256,192,9750,128,0,10125:0:0:0:0:
36,192,10125,128,4,10500:0:0:0:0:
109,192,10500,1,0,0:0:0:0:
182,192,10593,1,0,0:0:0:0:
256,192,10687,1,0,0:0:0:0:
329,192,10781,1,0,0:0:0:0:
475,192,10875,128,0,11250:0:0:0:0:
402,192,10875,1,0,0:0:0:0:
109,192,11250,128,0,11625:0:0:0:0:
256,192,11625,128,0,12000:0:0:0:0:
475,192,12000,1,0,0:0:0:0:
402,192,12093,1,0,0:0:0:0:
329,192,12187,1,0,0:0:0:0:
256,192,12281,1,0,0:0:0:0:
36,192,12375,128,0,13875:0:0:0:0:
182,192,12375,1,4,0:0:0:0:
182,192,12750,128,0,13875:0:0:0:0:
329,192,13125,128,0,13875:0:0:0:0:
475,192,13875,128,0,14625:0:0:0:0:
256,192,14343,1,0,0:0:0:0:
182,192,14437,128,0,14625:0:0:0:0:
109,192,14625,128,0,15187:0:0:0:0:
329,192,15187,1,0,0:0:0:0:
402,192,15187,1,8,0:0:0:0:
402,192,15750,128,0,16312:0:0:0:0:
182,192,16312,1,8,0:0:0:0:
109,192,16312,1,0,0:0:0:0:
36,192,16875,1,4,0:0:0:0:
256,192,16875,1,4,0:0:0:0:
475,192,16875,128,0,18375:0:0:0:0:
256,192,17625,1,0,0:0:0:0:
109,192,18375,1,0,0:0:0:0:
36,192,18375,1,0,0:0:0:0:
402,192,18375,1,0,0:0:0:0:
329,192,18562,1,0,0:0:0:0:
256,192,18750,1,0,0:0:0:0:
182,192,18937,1,0,0:0:0:0:
475,192,19125,1,0,0:0:0:0:
182,192,19687,1,0,0:0:0:0:
36,192,19687,128,0,20625:0:0:0:0:
256,192,19687,1,0,0:0:0:0:
329,192,20250,1,0,0:0:0:0:
256,192,20250,1,0,0:0:0:0:
475,192,20625,128,0,21187:0:0:0:0:
329,192,20812,1,0,0:0:0:0:
256,192,21000,1,0,0:0:0:0:
109,192,21187,1,0,0:0:0:0:
182,192,21187,1,8,0:0:0:0:
109,192,21750,128,0,22312:0:0:0:0:
256,192,21750,1,0,0:0:0:0:
402,192,22312,1,8,0:0:0:0:
475,192,22312,1,8,0:0:0:0:
256,192,22875,128,0,25500:0:0:0:0:
109,192,22875,1,4,0:0:0:0:
182,192,22875,1,4,0:0:0:0:
475,192,23437,1,0,0:0:0:0:
402,192,23531,1,0,0:0:0:0:
329,192,23625,1,0,0:0:0:0:
109,192,23875,1,0,0:0:0:0:
36,192,24125,1,0,0:0:0:0:
402,192,24375,1,0,0:0:0:0:
329,192,24625,1,0,0:0:0:0:
182,192,24875,1,0,0:0:0:0:
36,192,25125,1,0,0:0:0:0:
109,192,25500,128,0,26625:0:0:0:0:
402,192,25500,128,0,26625:0:0:0:0:
36,192,27750,128,0,28125:0:0:0:0:
182,192,28125,128,0,28875:0:0:0:0:
475,192,28875,128,0,29250:0:0:0:0:
402,192,29250,128,0,29625:0:0:0:0:
182,192,29625,128,0,30000:0:0:0:0:
329,192,30000,128,0,30375:0:0:0:0:
256,192,30375,128,0,30750:0:0:0:0:
109,192,31125,128,0,31875:0:0:0:0:
475,192,31125,1,2,2:2:0:0:
36,192,31875,128,0,32250:0:0:0:0:
256,192,31875,1,2,2:2:0:0:
182,192,32250,128,0,32625:0:0:0:0:
475,192,32625,1,2,2:2:0:0:
256,192,33000,1,0,0:0:0:0:
182,192,33187,1,0,0:0:0:0:
402,192,33375,128,0,33750:0:0:0:0:
109,192,33375,1,2,2:2:0:0:
256,192,33750,1,0,0:0:0:0:
36,192,34125,128,0,34500:0:0:0:0:
256,192,34125,1,0,0:0:0:0:
182,192,34500,128,0,34875:0:0:0:0:
475,192,34875,1,0,0:0:0:0:
402,192,34875,1,0,0:0:0:0:
402,192,35250,1,0,0:0:0:0:
329,192,35250,1,0,0:0:0:0:
109,192,35625,1,0,0:0:0:0:
36,192,35625,1,0,0:0:0:0:
256,192,36000,1,0,0:0:0:0:
329,192,36000,1,0,0:0:0:0:
182,192,36375,1,0,0:0:0:0:
109,192,36375,1,0,0:0:0:0:
256,192,37125,128,0,37875:0:0:0:0:
109,192,37125,1,2,2:2:0:0:
182,192,37875,128,0,38250:0:0:0:0:
475,192,37875,1,2,2:2:0:0:
329,192,38250,128,0,38625:0:0:0:0:
475,192,38625,128,0,39375:0:0:0:0:
36,192,38625,1,2,2:2:0:0:
402,192,39375,128,0,39750:0:0:0:0:
256,192,39375,1,2,2:2:0:0:
329,192,40125,128,0,41625:0:0:0:0:
475,192,40875,128,0,41625:0:0:0:0:
182,192,41250,128,0,41625:0:0:0:0:
36,192,41625,128,0,42750:0:0:0:0:
402,192,42000,128,0,42750:0:0:0:0:
182,192,42375,128,0,42750:0:0:0:0:
109,192,43125,128,0,45000:0:0:0:0:
36,192,43875,128,0,45000:0:0:0:0:
475,192,44250,128,0,45000:0:0:0:0:
402,192,44625,128,0,45000:0:0:0:0:
256,192,45000,128,0,46125:0:0:0:0:
36,192,45375,128,0,46125:0:0:0:0:
329,192,45750,128,0,46125:0:0:0:0:
475,192,46125,128,0,47625:0:0:0:0:
402,192,46500,128,0,47625:0:0:0:0:
329,192,46875,128,0,47625:0:0:0:0:
256,192,47250,128,0,47625:0:0:0:0:
36,192,47625,128,0,48750:0:0:0:0:
109,192,48000,128,0,48750:0:0:0:0:
182,192,48375,128,0,48750:0:0:0:0:
256,192,49125,128,0,49875:0:0:0:0:
36,192,49875,1,0,0:0:0:0:
109,192,49875,1,0,0:0:0:0:
475,192,50250,1,0,0:0:0:0:
256,192,50625,128,0,51375:0:0:0:0:
109,192,51375,1,12,0:0:0:0:
402,192,51375,1,12,0:0:0:0:
182,192,52125,1,0,0:0:0:0:
329,192,52125,1,0,0:0:0:0:
256,192,52125,1,0,0:0:0:0:
402,192,52687,1,12,0:0:0:0:
475,192,52687,1,12,0:0:0:0:
36,192,53250,1,12,0:0:0:0:
109,192,53250,1,12,0:0:0:0:
256,192,53625,1,0,0:0:0:0:
402,192,54187,1,12,0:0:0:0:
329,192,54187,1,12,0:0:0:0:
109,192,54750,1,12,0:0:0:0:
182,192,54750,1,12,0:0:0:0:
402,192,55125,1,0,0:0:0:0:
475,192,55125,1,0,0:0:0:0:
109,192,55312,1,0,0:0:0:0:
36,192,55312,1,0,0:0:0:0:
329,192,55500,1,0,0:0:0:0:
402,192,55500,1,0,0:0:0:0:
182,192,55687,1,0,0:0:0:0:
109,192,55687,1,0,0:0:0:0:
256,192,55875,1,0,0:0:0:0:
329,192,55875,1,0,0:0:0:0:
109,192,56062,1,0,0:0:0:0:
36,192,56062,1,0,0:0:0:0:
475,192,56250,1,0,0:0:0:0:
402,192,56250,1,0,0:0:0:0:
475,192,56625,128,0,57750:0:0:0:0:
36,192,56625,128,0,57750:0:0:0:0:
402,192,57187,128,0,57750:0:0:0:0:
109,192,57187,128,0,57750:0:0:0:0:
182,192,57750,1,0,0:0:0:0:
329,192,57750,1,0,0:0:0:0:
475,192,58125,1,0,0:0:0:0:
36,192,58125,1,0,0:0:0:0:
256,192,58125,1,0,0:0:0:0:
402,192,58687,1,0,0:0:0:0:
109,192,58687,1,0,0:0:0:0:
256,192,58687,1,0,0:0:0:0:
256,192,59250,1,0,0:0:0:0:
182,192,59250,1,0,0:0:0:0:
329,192,59250,1,0,0:0:0:0:
475,192,59625,1,0,0:0:0:0:
256,192,59718,1,0,0:0:0:0:
402,192,59812,1,0,0:0:0:0:
182,192,59906,1,0,0:0:0:0:
329,192,60000,1,0,0:0:0:0:
109,192,60093,1,0,0:0:0:0:
256,192,60187,1,0,0:0:0:0:
36,192,60281,1,0,0:0:0:0:
182,192,60375,1,0,0:0:0:0:
36,192,60468,1,0,0:0:0:0:
256,192,60562,1,0,0:0:0:0:
109,192,60656,1,0,0:0:0:0:
329,192,60750,1,0,0:0:0:0:
182,192,60843,1,0,0:0:0:0:
402,192,60937,1,0,0:0:0:0:
256,192,61031,1,0,0:0:0:0:
475,192,61125,1,0,0:0:0:0:
36,192,61125,128,0,61500:0:0:0:0:
475,192,61500,1,0,0:0:0:0:
475,192,61687,128,0,62250:0:0:0:0:
182,192,61687,1,0,0:0:0:0:
329,192,62250,1,0,0:0:0:0:
256,192,62625,128,0,62812:0:0:0:0:
256,192,63000,1,0,0:0:0:0:
256,192,63187,128,0,63750:0:0:0:0:
109,192,63187,1,0,0:0:0:0:
402,192,63187,1,0,0:0:0:0:
109,192,64125,1,14,0:0:0:0:
182,192,64125,1,14,0:0:0:0:
256,192,64687,1,14,0:0:0:0:
329,192,64687,1,14,0:0:0:0:
182,192,64875,128,0,65062:0:0:0:0:
109,192,65062,128,0,65250:0:0:0:0:
36,192,65250,128,0,65437:0:0:0:0:
475,192,65250,1,14,0:0:0:0:
402,192,65250,1,14,0:0:0:0:
256,192,65437,128,0,65625:0:0:0:0:
182,192,65625,128,0,65812:0:0:0:0:
256,192,65812,128,0,66000:0:0:0:0:
329,192,66000,128,0,66187:0:0:0:0:
475,192,66187,128,0,66375:0:0:0:0:
402,192,66375,128,0,66562:0:0:0:0:
256,192,66562,128,0,66750:0:0:0:0:
109,192,66750,128,0,66937:0:0:0:0:
256,192,66937,128,0,67125:0:0:0:0:
329,192,67125,1,12,0:0:0:0:
182,192,67125,1,12,0:0:0:0:
402,192,67687,1,12,0:0:0:0:
109,192,67687,1,12,0:0:0:0:
36,192,68250,128,14,70125:0:0:0:0:
475,192,68250,128,14,70125:0:0:0:0:
256,192,68250,1,0,0:0:0:0:
182,192,69375,128,0,69750:0:0:0:0:
256,192,69843,1,0,0:0:0:0:
329,192,69937,128,0,70125:0:0:0:0:
182,192,70125,1,0,0:0:0:0:
256,192,70312,1,0,0:0:0:0:
329,192,70500,1,0,0:0:0:0:
475,192,70687,1,0,0:0:0:0:
402,192,70875,1,0,0:0:0:0:
256,192,71250,1,0,0:0:0:0:
182,192,71625,1,0,0:0:0:0:
36,192,72000,1,0,0:0:0:0:
256,192,72187,1,0,0:0:0:0:
476,192,72375,1,0,0:0:0:0:
403,192,72468,1,0,0:0:0:0:
330,192,72562,1,0,0:0:0:0:
37,192,72656,1,0,0:0:0:0:
110,192,72750,1,0,0:0:0:0:
182,192,72843,1,0,0:0:0:0:
256,192,72937,1,0,0:0:0:0:
329,192,73031,1,0,0:0:0:0:
475,192,73125,1,0,0:0:0:0:
402,192,73312,1,0,0:0:0:0:
329,192,73500,1,0,0:0:0:0:
256,192,73687,1,0,0:0:0:0:
36,192,73875,1,0,0:0:0:0:
109,192,74250,1,0,0:0:0:0:
182,192,74625,1,0,0:0:0:0:
329,192,74625,1,0,0:0:0:0:
475,192,75000,1,0,0:0:0:0:
256,192,75187,1,0,0:0:0:0:
36,192,75375,1,0,0:0:0:0:
109,192,75468,1,0,0:0:0:0:
182,192,75562,1,0,0:0:0:0:
402,192,75656,1,0,0:0:0:0:
109,192,75750,1,0,0:0:0:0:
182,192,75843,1,0,0:0:0:0:
256,192,75937,1,0,0:0:0:0:
329,192,76031,1,0,0:0:0:0:
475,192,76125,1,8,0:0:0:0:
402,192,76125,1,8,0:0:0:0:
36,192,76125,1,0,0:0:0:0:
475,192,76500,1,8,0:0:0:0:
402,192,76500,1,8,0:0:0:0:
36,192,76875,1,8,0:0:0:0:
109,192,76875,1,8,0:0:0:0:
109,192,77250,1,8,0:0:0:0:
36,192,77250,1,8,0:0:0:0:
329,192,77625,1,8,0:0:0:0:
402,192,77625,1,8,0:0:0:0:
402,192,78000,1,8,0:0:0:0:
329,192,78000,1,8,0:0:0:0:
109,192,78375,1,8,0:0:0:0:
182,192,78375,1,8,0:0:0:0:
256,192,78468,1,0,0:0:0:0:
329,192,78562,1,0,0:0:0:0:
402,192,78656,1,0,0:0:0:0:
475,192,78750,1,0,0:0:0:0:
109,192,78750,1,8,0:0:0:0:
182,192,78750,1,8,0:0:0:0:
402,192,78843,1,0,0:0:0:0:
329,192,78937,1,0,0:0:0:0:
256,192,79031,1,0,0:0:0:0:
36,192,79125,1,12,0:0:0:0:
109,192,79125,1,12,0:0:0:0:
182,192,79125,1,0,0:0:0:0:
256,192,79312,1,0,0:0:0:0:
329,192,79500,1,0,0:0:0:0:
402,192,79687,1,12,0:0:0:0:
475,192,79687,1,12,0:0:0:0:
329,192,79875,1,0,0:0:0:0:
256,192,80062,1,0,0:0:0:0:
329,192,80250,128,12,80625:0:0:0:0:
402,192,80625,1,0,0:0:0:0:
475,192,80625,1,0,0:0:0:0:
109,192,80812,1,0,0:0:0:0:
182,192,80812,1,0,0:0:0:0:
329,192,81000,1,0,0:0:0:0:
402,192,81000,1,0,0:0:0:0:
36,192,81187,1,0,0:0:0:0:
109,192,81187,1,0,0:0:0:0:
402,192,81562,1,12,0:0:0:0:
475,192,81562,1,12,0:0:0:0:
256,192,81562,128,0,82125:0:0:0:0:
475,192,82125,1,0,0:0:0:0:
36,192,82125,1,0,0:0:0:0:
329,192,82406,128,0,82687:0:0:0:0:
36,192,82687,128,0,82875:0:0:0:0:
256,192,82875,128,0,83156:0:0:0:0:
182,192,83156,128,0,83343:0:0:0:0:
475,192,83343,1,0,0:0:0:0:
402,192,83437,128,0,83625:0:0:0:0:
36,192,83625,128,0,83906:0:0:0:0:
182,192,83906,128,0,84187:0:0:0:0:
475,192,84187,128,0,84375:0:0:0:0:
402,192,84187,128,0,84375:0:0:0:0:
36,192,84375,128,0,84562:0:0:0:0:
182,192,84562,128,0,84750:0:0:0:0:
475,192,84750,128,0,85125:0:0:0:0:
109,192,84750,128,0,84937:0:0:0:0:
329,192,84937,128,0,85125:0:0:0:0:
109,192,85125,128,0,85593:0:0:0:0:
36,192,85125,128,0,85593:0:0:0:0:
256,192,85406,128,0,85593:0:0:0:0:
475,192,85687,128,0,85875:0:0:0:0:
402,192,85875,128,0,86156:0:0:0:0:
36,192,86156,128,0,86343:0:0:0:0:
109,192,86343,1,0,0:0:0:0:
182,192,86437,128,0,86625:0:0:0:0:
256,192,86625,128,0,87187:0:0:0:0:
109,192,86812,128,0,87187:0:0:0:0:
402,192,87000,128,0,87187:0:0:0:0:
475,192,87187,128,0,88125:0:0:0:0:
182,192,87562,1,0,0:0:0:0:
329,192,87750,128,0,88125:0:0:0:0:
256,192,88125,128,0,88687:0:0:0:0:
182,192,88406,128,0,88687:0:0:0:0:
36,192,88687,128,0,88875:0:0:0:0:
329,192,88875,128,0,89156:0:0:0:0:
182,192,89156,128,0,89343:0:0:0:0:
109,192,89343,1,0,0:0:0:0:
36,192,89437,128,0,89625:0:0:0:0:
256,192,89625,128,0,89906:0:0:0:0:
329,192,89906,128,0,90187:0:0:0:0:
475,192,90187,128,0,90375:0:0:0:0:
36,192,90187,128,0,90375:0:0:0:0:
402,192,90375,128,0,90562:0:0:0:0:
475,192,90562,128,0,90750:0:0:0:0:
329,192,90750,128,0,90937:0:0:0:0:
182,192,90750,128,0,91125:0:0:0:0:
402,192,90937,128,0,91125:0:0:0:0:
475,192,91125,128,0,91687:0:0:0:0:
36,192,91406,128,0,91687:0:0:0:0:
182,192,91687,128,0,91875:0:0:0:0:
329,192,91875,128,0,92156:0:0:0:0:
36,192,92156,128,0,92343:0:0:0:0:
256,192,92156,128,0,92625:0:0:0:0:
36,192,92437,1,0,0:0:0:0:
475,192,92437,128,0,92625:0:0:0:0:
329,192,92625,128,0,93000:0:0:0:0:
182,192,92812,128,0,93000:0:0:0:0:
36,192,93000,128,0,93187:0:0:0:0:
109,192,93187,128,0,93375:0:0:0:0:
256,192,93187,128,0,93562:0:0:0:0:
36,192,93562,128,0,94125:0:0:0:0:
475,192,93562,128,0,94125:0:0:0:0:
402,192,94125,128,0,94500:0:0:0:0:
256,192,94125,1,0,0:0:0:0:
182,192,94500,1,0,0:0:0:0:
109,192,94500,1,0,0:0:0:0:
182,192,94687,1,0,0:0:0:0:
109,192,94687,1,0,0:0:0:0:
256,192,94875,128,0,95062:0:0:0:0:
256,192,95156,1,0,0:0:0:0:
475,192,95437,128,0,95625:0:0:0:0:
402,192,95437,128,0,95625:0:0:0:0:
36,192,95625,128,0,95812:0:0:0:0:
182,192,95906,128,0,96093:0:0:0:0:
402,192,96187,128,0,96375:0:0:0:0:
475,192,96187,128,0,96375:0:0:0:0:
256,192,96375,128,0,96562:0:0:0:0:
109,192,96562,128,0,96750:0:0:0:0:
329,192,96750,128,0,97125:0:0:0:0:
36,192,96937,128,0,97125:0:0:0:0:
256,192,97125,128,0,97500:0:0:0:0:
475,192,97500,1,0,0:0:0:0:
402,192,97500,1,0,0:0:0:0:
402,192,97687,1,0,0:0:0:0:
475,192,97687,1,0,0:0:0:0:
109,192,97875,128,0,98062:0:0:0:0:
182,192,98156,1,0,0:0:0:0:
475,192,98250,128,0,98625:0:0:0:0:
329,192,98437,128,0,98625:0:0:0:0:
256,192,98437,128,0,98625:0:0:0:0:
36,192,98625,128,0,98812:0:0:0:0:
182,192,98812,128,0,99000:0:0:0:0:
109,192,99000,128,0,99187:0:0:0:0:
256,192,99187,128,0,99562:0:0:0:0:
475,192,99375,1,0,0:0:0:0:
36,192,99562,1,0,0:0:0:0:
182,192,99656,1,0,0:0:0:0:
475,192,99750,128,0,100125:0:0:0:0:
402,192,99750,128,0,100125:0:0:0:0:
36,192,99750,1,0,0:0:0:0:
36,192,100125,128,0,100500:0:0:0:0:
329,192,100500,1,0,0:0:0:0:
256,192,100500,1,0,0:0:0:0:
256,192,100687,1,0,0:0:0:0:
329,192,100687,1,0,0:0:0:0:
475,192,100875,128,0,101156:0:0:0:0:
109,192,101156,128,0,101343:0:0:0:0:
256,192,101437,128,0,101625:0:0:0:0:
182,192,101437,128,0,101625:0:0:0:0:
36,192,101625,128,0,101906:0:0:0:0:
475,192,101906,128,0,102093:0:0:0:0:
256,192,102187,128,0,102375:0:0:0:0:
182,192,102187,128,0,102375:0:0:0:0:
402,192,102375,128,0,102843:0:0:0:0:
329,192,102656,128,0,102843:0:0:0:0:
182,192,102937,128,0,103125:0:0:0:0:
36,192,103125,128,14,104812:0:0:0:0:
475,192,103125,1,14,0:0:0:0:
475,192,103687,128,14,104812:0:0:0:0:
109,192,103687,1,14,0:0:0:0:
256,192,104250,128,14,104812:0:0:0:0:
182,192,104250,1,14,0:0:0:0:
329,192,104250,1,14,0:0:0:0:
329,192,104812,128,0,105093:0:0:0:0:
182,192,104812,128,0,105093:0:0:0:0:
256,192,105375,128,6,106125:0:0:0:0:
109,192,105375,1,0,0:0:0:0:
402,192,105375,1,0,0:0:0:0:
36,192,106125,128,0,108000:0:0:0:0:
402,192,106875,1,8,0:0:0:0:
475,192,106875,1,8,0:0:0:0:
182,192,106875,128,0,108000:0:0:0:0:
329,192,107250,128,0,108000:0:0:0:0:
475,192,107625,128,0,108000:0:0:0:0:
402,192,108000,128,0,108375:0:0:0:0:
329,192,108375,128,0,109125:0:0:0:0:
36,192,108375,1,8,0:0:0:0:
109,192,108375,1,8,0:0:0:0:
109,192,109125,128,0,109500:0:0:0:0:
402,192,109125,128,0,109500:0:0:0:0:
475,192,109500,128,0,110250:0:0:0:0:
36,192,109500,128,0,110250:0:0:0:0:
182,192,109875,1,8,0:0:0:0:
329,192,109875,1,8,0:0:0:0:
109,192,110250,128,0,110625:0:0:0:0:
329,192,110625,1,0,0:0:0:0:
256,192,110625,1,0,0:0:0:0:
475,192,111000,1,0,0:0:0:0:
402,192,111000,1,0,0:0:0:0:
329,192,111187,1,0,0:0:0:0:
256,192,111281,1,0,0:0:0:0:
182,192,111375,1,0,0:0:0:0:
109,192,111375,1,0,0:0:0:0:
329,192,111562,1,0,0:0:0:0:
402,192,111562,1,0,0:0:0:0:
182,192,111750,1,0,0:0:0:0:
109,192,111750,1,0,0:0:0:0:
329,192,111937,1,0,0:0:0:0:
402,192,111937,1,0,0:0:0:0:
36,192,112125,128,0,112875:0:0:0:0:
182,192,112125,1,0,0:0:0:0:
256,192,112125,1,0,0:0:0:0:
475,192,112500,128,0,112875:0:0:0:0:
256,192,112875,1,14,0:0:0:0:
36,192,113625,128,0,114750:0:0:0:0:
109,192,114000,128,0,114750:0:0:0:0:
475,192,114375,1,14,0:0:0:0:
182,192,114375,128,0,114750:0:0:0:0:
402,192,114375,1,0,0:0:0:0:
329,192,114750,1,0,0:0:0:0:
256,192,115125,1,0,0:0:0:0:
475,192,115500,1,0,0:0:0:0:
402,192,115593,1,0,0:0:0:0:
329,192,115687,1,0,0:0:0:0:
256,192,115781,1,0,0:0:0:0:
182,192,115875,1,8,0:0:0:0:
109,192,115875,1,8,0:0:0:0:
402,192,116250,1,0,0:0:0:0:
475,192,116250,1,0,0:0:0:0:
182,192,116437,1,0,0:0:0:0:
256,192,116531,1,0,0:0:0:0:
402,192,116625,1,8,0:0:0:0:
329,192,116625,1,0,0:0:0:0:
36,192,116812,1,0,0:0:0:0:
109,192,116812,1,0,0:0:0:0:
182,192,117000,1,0,0:0:0:0:
109,192,117000,1,0,0:0:0:0:
402,192,117187,1,8,0:0:0:0:
475,192,117187,1,8,0:0:0:0:
109,192,117375,1,0,3:0:0:0:
182,192,117468,1,0,3:0:0:0:
256,192,117562,1,0,3:0:0:0:
329,192,117656,1,0,3:0:0:0:
475,192,117750,1,8,0:0:0:0:
402,192,117750,1,8,0:0:0:0:
36,192,117843,1,0,0:0:0:0:
109,192,117937,1,0,0:0:0:0:
182,192,118031,1,0,0:0:0:0:
256,192,118125,128,0,119062:0:0:0:0:
475,192,118125,1,0,0:0:0:0:
329,192,118312,1,0,0:0:0:0:
36,192,118500,1,0,0:0:0:0:
182,192,118687,1,8,0:0:0:0:
109,192,118687,1,8,0:0:0:0:
329,192,118875,1,0,0:0:0:0:
475,192,119062,1,0,0:0:0:0:
109,192,119250,1,8,0:0:0:0:
36,192,119250,1,8,0:0:0:0:
402,192,119437,1,0,0:0:0:0:
256,192,119625,1,0,0:0:0:0:
36,192,119812,1,0,0:0:0:0:
182,192,120000,1,0,0:0:0:0:
402,192,120187,1,8,0:0:0:0:
329,192,120187,1,8,0:0:0:0:
475,192,120375,1,0,0:0:0:0:
256,192,120562,1,0,0:0:0:0:
109,192,120750,1,8,0:0:0:0:
182,192,120750,1,8,0:0:0:0:
475,192,121125,1,0,0:0:0:0:
36,192,121125,1,0,0:0:0:0:
402,192,121312,1,0,0:0:0:0:
109,192,121312,1,0,0:0:0:0:
329,192,121500,1,0,0:0:0:0:
182,192,121500,1,0,0:0:0:0:
402,192,121687,1,0,0:0:0:0:
182,192,121687,1,0,0:0:0:0:
182,192,121875,1,0,0:0:0:0:
475,192,121875,1,0,0:0:0:0:
36,192,122062,1,0,0:0:0:0:
329,192,122062,1,0,0:0:0:0:
256,192,122250,1,0,0:0:0:0:
402,192,122250,1,0,0:0:0:0:
182,192,122437,1,0,0:0:0:0:
36,192,122437,1,0,0:0:0:0:
109,192,122625,1,0,0:0:0:0:
475,192,122625,1,0,0:0:0:0:
329,192,122812,1,0,0:0:0:0:
256,192,122812,1,0,0:0:0:0:
402,192,123000,1,0,0:0:0:0:
36,192,123000,1,0,0:0:0:0:
182,192,123187,1,0,0:0:0:0:
475,192,123187,1,0,0:0:0:0:
329,192,123375,1,0,0:0:0:0:
109,192,123375,1,0,0:0:0:0:
256,192,123562,1,0,0:0:0:0:
402,192,123562,1,0,0:0:0:0:
36,192,123750,1,0,0:0:0:0:
109,192,123750,1,0,0:0:0:0:
475,192,124125,128,0,125625:0:0:0:0:
402,192,124125,1,0,0:0:0:0:
329,192,124687,128,0,125625:0:0:0:0:
402,192,124687,1,0,0:0:0:0:
256,192,125250,1,0,0:0:0:0:
182,192,125250,128,0,125625:0:0:0:0:
36,192,125625,128,0,126750:0:0:0:0:
109,192,125625,1,0,0:0:0:0:
109,192,126187,128,0,126750:0:0:0:0:
182,192,126187,1,0,0:0:0:0:
256,192,126750,1,0,0:0:0:0:
475,192,127125,1,0,0:0:0:0:
329,192,127125,1,0,0:0:0:0:
36,192,127500,1,0,0:0:0:0:
109,192,127500,1,0,0:0:0:0:
475,192,127687,1,0,0:0:0:0:
402,192,127687,1,0,0:0:0:0:
182,192,128250,1,0,0:0:0:0:
36,192,128250,1,0,0:0:0:0:
256,192,128625,128,0,129750:0:0:0:0:
36,192,129000,1,0,0:0:0:0:
475,192,129000,1,0,0:0:0:0:
329,192,129187,1,0,0:0:0:0:
182,192,129187,1,0,0:0:0:0:
36,192,130125,128,0,132375:0:0:0:0:
182,192,130125,1,12,0:0:0:0:
256,192,130125,1,12,0:0:0:0:
475,192,130687,128,0,132375:0:0:0:0:
329,192,130687,1,12,0:0:0:0:
256,192,130687,1,12,0:0:0:0:
256,192,131250,128,0,132375:0:0:0:0:
329,192,131250,1,12,0:0:0:0:
182,192,131250,1,12,0:0:0:0:
109,192,132375,1,0,0:0:0:0:
402,192,132375,1,0,0:0:0:0:
256,192,132750,1,0,0:0:0:0:
475,192,133125,128,14,134250:0:0:0:0:
36,192,133125,128,14,134250:0:0:0:0:
402,192,133687,128,14,135750:0:0:0:0:
109,192,133687,128,14,135750:0:0:0:0:
329,192,134250,128,14,135750:0:0:0:0:
182,192,134250,128,14,135750:0:0:0:0:
36,192,136125,1,0,0:0:0:0:
256,192,136687,1,0,0:0:0:0:
475,192,137062,1,0,0:0:0:0:
329,192,137250,1,0,0:0:0:0:
109,192,137625,1,0,0:0:0:0:
256,192,138000,1,0,0:0:0:0:
402,192,138312,1,0,0:0:0:0:
475,192,138375,1,0,0:0:0:0:
256,192,138562,1,0,0:0:0:0:
182,192,138656,1,0,0:0:0:0:
36,192,138750,1,0,0:0:0:0:
402,192,139125,1,0,0:0:0:0:
256,192,139500,1,0,0:0:0:0:
329,192,139687,1,0,0:0:0:0:
182,192,139875,1,0,0:0:0:0:
36,192,140062,1,0,0:0:0:0:
109,192,140125,1,0,0:0:0:0:
182,192,140187,1,0,0:0:0:0:
475,192,140250,128,0,141750:0:0:0:0:
256,192,140250,1,0,0:0:0:0:
402,192,140250,1,0,0:0:0:0:
