osu file format v12

[General]
AudioFilename: Magnolia.mp3
AudioLeadIn: 0
PreviewTime: 52044
Countdown: 0
SampleSet: Normal
StackLeniency: 0.4
Mode: 1
LetterboxInBreaks: 0
WidescreenStoryboard: 0

[Editor]
DistanceSpacing: 1.5
BeatDivisor: 2
GridSize: 32
TimelineZoom: 0.9499997

[Metadata]
Title:Magnolia
TitleUnicode:Magnolia
Artist:M2U feat. Guriri
ArtistUnicode:M2U feat. Guriri
Creator:JUDYDANNY
Version:Oni
Source:Deemo
Tags:Symphonic Dubstep
BeatmapID:350732
BeatmapSetID:140418

[Difficulty]
HPDrainRate:5
CircleSize:5
OverallDifficulty:5
ApproachRate:5
SliderMultiplier:1.4
SliderTickRate:2

[Events]
//Background and Video events
0,0,"bg.jpg",0,100
//Break Periods
//Storyboard Layer 0 (Background)
//Storyboard Layer 1 (Fail)
//Storyboard Layer 2 (Pass)
//Storyboard Layer 3 (Foreground)
//Storyboard Sound Samples
//Background Colour Transformations
3,100,0,0,0

[TimingPoints]
2508,375,4,1,0,70,1,0
8508,-100,4,1,0,75,0,0
13758,-100,4,1,0,80,0,0
14508,375,6,1,0,90,1,0
16758,375,4,1,0,80,1,0
19570,-100,4,1,0,85,0,0
20508,375,6,1,0,90,1,0
22758,375,4,1,0,90,1,0
23133,-111.111111111111,4,1,0,55,0,0
23883,-111.111111111111,4,1,0,60,0,0
25008,375,4,1,0,60,1,8
25008,-111.111111111111,4,1,0,60,0,0
28008,-133.333333333333,4,1,0,60,0,0
40008,-111.111111111111,4,1,0,70,0,0
46008,-111.111111111111,4,1,0,75,0,0
52008,-100,4,1,0,95,0,1
70008,-100,4,1,0,70,0,0
76008,-100,4,1,0,80,0,0
82008,-100,4,1,0,85,0,1
104695,-100,4,1,0,85,0,0
105258,-133.333333333333,4,1,0,70,0,0
112008,-133.333333333333,4,1,0,80,0,0
114820,-111.111111111111,4,1,0,85,0,0
118008,-100,4,1,0,95,0,1
135820,-100,4,1,0,60,0,1
136008,-100,4,1,0,60,0,0
138258,-100,4,1,0,55,0,0

[Colours]
Combo1 : 255,128,0
Combo2 : 255,0,0

[HitObjects]
256,192,2508,5,0,0:0:0:0:
256,192,4008,1,2,0:0:0:0:
256,192,4758,1,0,0:0:0:0:
256,192,5508,1,0,0:0:0:0:
256,192,7008,1,0,0:0:0:0:
256,192,7758,1,2,0:0:0:0:
256,192,8133,1,2,0:0:0:0:
256,192,8508,1,0,0:0:0:0:
256,192,8883,1,0,0:0:0:0:
256,192,9070,1,0,0:0:0:0:
256,192,9258,1,2,0:0:0:0:
256,192,9633,1,2,0:0:0:0:
256,192,10008,1,0,0:0:0:0:
256,192,10383,1,0,0:0:0:0:
256,192,10570,1,0,0:0:0:0:
256,192,10758,1,2,0:0:0:0:
256,192,11133,1,2,0:0:0:0:
256,192,11508,1,0,0:0:0:0:
256,192,11883,1,0,0:0:0:0:
256,192,12070,1,0,0:0:0:0:
256,192,12258,1,2,0:0:0:0:
256,192,12633,1,0,0:0:0:0:
256,192,13008,1,2,0:0:0:0:
256,192,13758,1,6,0:0:0:0:
256,192,14133,1,0,0:0:0:0:
256,192,14226,1,0,0:0:0:0:
256,192,14320,1,2,0:0:0:0:
256,192,14508,5,4,0:0:0:0:
256,192,14695,1,0,0:0:0:0:
256,192,14883,1,2,0:0:0:0:
256,192,15070,1,4,0:0:0:0:
256,192,15633,1,6,0:0:0:0:
256,192,15820,1,0,0:0:0:0:
256,192,16008,1,0,0:0:0:0:
256,192,16195,1,6,0:0:0:0:
256,192,16758,5,0,0:0:0:0:
256,192,17133,5,0,0:0:0:0:
256,192,17320,1,0,0:0:0:0:
256,192,17508,1,2,0:0:0:0:
256,192,17883,5,0,0:0:0:0:
256,192,18070,1,0,0:0:0:0:
256,192,18258,1,2,0:0:0:0:
256,192,18445,5,2,0:0:0:0:
256,192,18539,1,2,0:0:0:0:
256,192,18633,1,0,0:0:0:0:
256,192,18820,1,2,0:0:0:0:
256,192,19008,5,0,0:0:0:0:
256,192,19195,1,0,0:0:0:0:
256,192,19383,5,0,0:0:0:0:
256,192,19570,5,6,0:0:0:0:
256,192,20133,1,6,0:0:0:0:
256,192,20508,5,4,0:0:0:0:
256,192,20695,1,2,0:0:0:0:
256,192,20883,1,2,0:0:0:0:
256,192,21070,1,4,0:0:0:0:
256,192,21633,1,6,0:0:0:0:
256,192,21820,1,0,0:0:0:0:
256,192,22008,1,0,0:0:0:0:
256,192,22195,1,6,0:0:0:0:
256,192,22758,1,6,0:0:0:0:
256,192,23508,5,2,0:0:0:0:
256,192,23758,1,2,0:0:0:0:
256,192,24008,1,0,0:0:0:0:
256,192,24258,5,2,0:0:0:0:
256,192,24508,1,2,0:0:0:0:
256,192,24758,1,0,0:0:0:0:
256,192,25008,1,2,0:0:0:0:
256,192,28008,5,0,0:0:0:0:
256,192,28758,1,2,0:0:0:0:
256,192,29133,1,2,0:0:0:0:
256,192,29508,1,0,0:0:0:0:
256,192,29883,1,0,0:0:0:0:
256,192,30258,1,2,0:0:0:0:
256,192,31008,1,2,0:0:0:0:
256,192,31758,1,0,0:0:0:0:
256,192,32133,1,2,0:0:0:0:
256,192,32508,1,0,0:0:0:0:
256,192,32883,1,2,0:0:0:0:
256,192,33070,1,2,0:0:0:0:
256,192,33258,1,0,0:0:0:0:
256,192,33633,1,2,0:0:0:0:
256,192,34008,1,0,0:0:0:0:
256,192,34758,1,2,0:0:0:0:
256,192,35133,1,0,0:0:0:0:
256,192,35508,1,0,0:0:0:0:
256,192,35883,1,0,0:0:0:0:
256,192,36258,1,2,0:0:0:0:
256,192,37008,1,0,0:0:0:0:
256,192,37758,1,2,0:0:0:0:
256,192,38133,1,0,0:0:0:0:
256,192,38508,1,2,0:0:0:0:
256,192,39070,1,2,0:0:0:0:
256,192,39258,1,0,0:0:0:0:
256,192,39633,1,2,0:0:0:0:
256,192,40008,1,4,0:0:0:0:
256,192,40758,1,2,0:0:0:0:
256,192,41133,1,2,0:0:0:0:
256,192,41508,1,0,0:0:0:0:
256,192,41883,1,0,0:0:0:0:
256,192,42258,1,2,0:0:0:0:
256,192,43008,1,0,0:0:0:0:
256,192,43758,1,2,0:0:0:0:
256,192,44133,1,0,0:0:0:0:
256,192,44508,1,2,0:0:0:0:
256,192,44883,1,0,0:0:0:0:
256,192,45258,1,2,0:0:0:0:
256,192,45445,1,0,0:0:0:0:
256,192,45633,1,2,0:0:0:0:
256,192,46008,5,4,0:0:0:0:
256,192,46758,5,2,0:0:0:0:
256,192,47508,5,0,0:0:0:0:
256,192,47883,1,0,0:0:0:0:
256,192,48258,5,2,0:0:0:0:
256,192,49008,5,0,0:0:0:0:
256,192,49383,1,0,0:0:0:0:
256,192,49758,1,2,0:0:0:0:
256,192,50133,5,0,0:0:0:0:
256,192,50508,1,2,0:0:0:0:
256,192,50883,5,0,0:0:0:0:
256,192,51070,1,0,0:0:0:0:
256,192,51258,1,2,0:0:0:0:
256,192,52008,5,4,0:0:0:0:
256,192,52383,1,0,0:0:0:0:
256,192,52570,1,2,0:0:0:0:
256,192,52758,5,0,0:0:0:0:
256,192,52851,1,0,0:0:0:0:
256,192,52945,1,0,0:0:0:0:
256,192,53133,1,2,0:0:0:0:
256,192,53508,1,0,0:0:0:0:
256,192,53695,5,0,0:0:0:0:
256,192,53789,1,0,0:0:0:0:
256,192,53883,1,0,0:0:0:0:
256,192,54070,1,2,0:0:0:0:
256,192,54258,5,0,0:0:0:0:
256,192,54445,1,0,0:0:0:0:
256,192,54633,1,2,0:0:0:0:
256,192,54820,1,2,0:0:0:0:
256,192,54914,1,2,0:0:0:0:
256,192,55008,5,0,0:0:0:0:
256,192,55383,5,0,0:0:0:0:
256,192,55570,1,2,0:0:0:0:
256,192,55945,5,0,0:0:0:0:
256,192,56133,1,2,0:0:0:0:
256,192,56320,1,0,0:0:0:0:
256,192,56508,5,2,0:0:0:0:
256,192,56695,1,0,0:0:0:0:
256,192,56789,1,0,0:0:0:0:
256,192,56883,1,0,0:0:0:0:
256,192,57070,5,2,0:0:0:0:
256,192,57258,1,0,0:0:0:0:
256,192,57351,1,0,0:0:0:0:
256,192,57445,1,0,0:0:0:0:
256,192,57633,5,2,0:0:0:0:
256,192,58008,5,4,0:0:0:0:
256,192,58383,1,0,0:0:0:0:
256,192,58570,1,2,0:0:0:0:
256,192,58945,1,0,0:0:0:0:
256,192,59039,1,0,0:0:0:0:
256,192,59133,1,2,0:0:0:0:
256,192,59320,1,0,0:0:0:0:
256,192,59508,5,2,0:0:0:0:
256,192,59883,1,0,0:0:0:0:
256,192,60070,1,2,0:0:0:0:
256,192,60445,1,2,0:0:0:0:
256,192,60539,1,2,0:0:0:0:
256,192,60633,1,0,0:0:0:0:
256,192,60820,1,2,0:0:0:0:
256,192,61008,5,0,0:0:0:0:
192,64,61195,1,2,0:0:0:0:
192,64,61289,1,2,0:0:0:0:
256,192,61383,1,0,0:0:0:0:
256,192,61570,1,2,0:0:0:0:
256,192,61945,1,0,0:0:0:0:
192,0,62039,1,0,0:0:0:0:
256,192,62133,1,2,0:0:0:0:
256,192,62320,1,0,0:0:0:0:
256,192,62508,5,2,0:0:0:0:
192,64,62695,1,0,0:0:0:0:
192,64,62789,1,0,0:0:0:0:
256,192,62883,1,0,0:0:0:0:
256,192,63070,1,6,0:0:0:0:
256,192,63445,1,2,0:0:0:0:
256,192,63633,1,0,0:0:0:0:
256,192,63820,1,0,0:0:0:0:
256,192,64008,5,4,0:0:0:0:
256,192,64570,1,4,0:0:0:0:
256,192,65133,1,6,0:0:0:0:
256,192,65695,1,0,0:0:0:0:
256,192,65883,1,2,0:0:0:0:
256,192,66070,1,0,0:0:0:0:
256,192,66164,1,0,0:0:0:0:
256,192,66258,1,2,0:0:0:0:
256,192,66445,1,0,0:0:0:0:
256,192,66633,1,0,0:0:0:0:
256,192,67008,1,4,0:0:0:0:
256,192,67570,1,4,0:0:0:0:
256,192,68133,12,0,68883,0:0:0:0:
256,192,69258,5,2,0:0:0:0:
256,192,69445,1,0,0:0:0:0:
256,192,69633,1,0,0:0:0:0:
256,192,69726,1,0,0:0:0:0:
256,192,69820,1,2,0:0:0:0:
256,192,70008,1,4,0:0:0:0:
256,192,70383,1,2,0:0:0:0:
256,192,70570,1,2,0:0:0:0:
256,192,70758,1,0,0:0:0:0:
256,192,71133,1,2,0:0:0:0:
256,192,71508,1,0,0:0:0:0:
256,192,72258,1,2,0:0:0:0:
256,192,72445,1,0,0:0:0:0:
256,192,72633,1,2,0:0:0:0:
256,192,72726,1,2,0:0:0:0:
256,192,72820,1,2,0:0:0:0:
256,192,73008,1,0,0:0:0:0:
256,192,73383,1,2,0:0:0:0:
256,192,73570,1,2,0:0:0:0:
256,192,73758,1,0,0:0:0:0:
256,192,74133,1,2,0:0:0:0:
256,192,74508,1,0,0:0:0:0:
256,192,74883,1,2,0:0:0:0:
256,192,75258,1,2,0:0:0:0:
256,192,75445,1,0,0:0:0:0:
256,192,75633,1,2,0:0:0:0:
256,192,75726,1,2,0:0:0:0:
256,192,75820,1,2,0:0:0:0:
256,192,76008,1,0,0:0:0:0:
256,192,76383,1,2,0:0:0:0:
256,192,76570,1,2,0:0:0:0:
256,192,76758,1,0,0:0:0:0:
256,192,77133,1,2,0:0:0:0:
256,192,77508,1,0,0:0:0:0:
256,192,77883,1,2,0:0:0:0:
256,192,78070,1,2,0:0:0:0:
256,192,78164,1,2,0:0:0:0:
256,192,78258,1,0,0:0:0:0:
256,192,78445,1,2,0:0:0:0:
256,192,78633,1,2,0:0:0:0:
256,192,78726,1,2,0:0:0:0:
256,192,78820,1,2,0:0:0:0:
256,192,79008,1,4,0:0:0:0:
256,192,79383,1,0,0:0:0:0:
256,192,79570,1,6,0:0:0:0:
256,192,79945,1,0,0:0:0:0:
256,192,80133,1,6,0:0:0:0:
256,192,80508,1,2,0:0:0:0:
256,192,80695,1,0,0:0:0:0:
256,192,80789,1,0,0:0:0:0:
256,192,80883,1,2,0:0:0:0:
256,192,81070,1,0,0:0:0:0:
256,160,81164,1,0,0:0:0:0:
256,192,81445,1,6,0:0:0:0:
256,192,82008,1,4,0:0:0:0:
256,192,82289,1,0,0:0:0:0:
256,192,82383,1,2,0:0:0:0:
256,192,82570,1,0,0:0:0:0:
256,192,82758,1,2,0:0:0:0:
256,192,82945,1,0,0:0:0:0:
256,192,83039,1,0,0:0:0:0:
256,192,83226,1,0,0:0:0:0:
256,192,83320,1,0,0:0:0:0:
256,192,83508,1,2,0:0:0:0:
256,192,83695,1,0,0:0:0:0:
192,64,83789,1,0,0:0:0:0:
256,192,83883,1,2,0:0:0:0:
256,192,84070,1,0,0:0:0:0:
256,192,84258,1,2,0:0:0:0:
192,64,84445,1,2,0:0:0:0:
192,64,84633,1,2,0:0:0:0:
224,224,84726,1,2,0:0:0:0:
224,64,84820,1,0,0:0:0:0:
256,192,85008,1,0,0:0:0:0:
256,192,85289,1,0,0:0:0:0:
256,192,85383,1,2,0:0:0:0:
256,192,85570,1,0,0:0:0:0:
256,192,85758,1,2,0:0:0:0:
256,192,85945,1,0,0:0:0:0:
256,192,86039,1,0,0:0:0:0:
256,192,86226,1,0,0:0:0:0:
256,192,86320,1,0,0:0:0:0:
256,192,86508,1,2,0:0:0:0:
256,192,86695,1,0,0:0:0:0:
256,192,86883,1,2,0:0:0:0:
256,192,87070,1,2,0:0:0:0:
256,192,87164,1,2,0:0:0:0:
256,192,87258,1,0,0:0:0:0:
256,192,87445,1,0,0:0:0:0:
256,192,87539,1,0,0:0:0:0:
256,192,87633,1,2,0:0:0:0:
256,192,88008,1,4,0:0:0:0:
256,192,88289,1,0,0:0:0:0:
256,192,88383,1,2,0:0:0:0:
256,192,88570,1,0,0:0:0:0:
256,192,88758,1,2,0:0:0:0:
256,192,88945,1,0,0:0:0:0:
256,192,89039,1,0,0:0:0:0:
256,192,89226,1,0,0:0:0:0:
256,192,89320,1,0,0:0:0:0:
256,192,89508,1,2,0:0:0:0:
256,192,89695,1,0,0:0:0:0:
256,192,89789,1,0,0:0:0:0:
256,192,89883,1,2,0:0:0:0:
256,192,90070,1,0,0:0:0:0:
256,192,90258,1,2,0:0:0:0:
256,160,90351,1,2,0:0:0:0:
256,192,90445,1,2,0:0:0:0:
256,192,90633,1,2,0:0:0:0:
256,192,90820,1,0,0:0:0:0:
256,192,91008,1,4,0:0:0:0:
256,192,91289,1,0,0:0:0:0:
256,192,91383,1,2,0:0:0:0:
256,192,91570,1,2,0:0:0:0:
256,192,91758,1,0,0:0:0:0:
256,192,91945,1,0,0:0:0:0:
256,192,92039,1,2,0:0:0:0:
256,192,92320,1,0,0:0:0:0:
256,192,92508,1,4,0:0:0:0:
64,192,92883,1,0,0:0:0:0:
256,192,93070,1,6,0:0:0:0:
256,192,93445,1,6,0:0:0:0:
256,192,94008,1,4,0:0:0:0:
256,192,94383,1,0,0:0:0:0:
256,192,94476,1,0,0:0:0:0:
256,192,94570,1,0,0:0:0:0:
256,192,94758,1,2,0:0:0:0:
256,192,94945,1,0,0:0:0:0:
256,192,95039,1,0,0:0:0:0:
256,192,95133,1,2,0:0:0:0:
256,192,95320,1,0,0:0:0:0:
256,192,95508,1,2,0:0:0:0:
256,192,95695,1,0,0:0:0:0:
256,192,95789,1,2,0:0:0:0:
256,192,96070,1,0,0:0:0:0:
256,160,96164,1,0,0:0:0:0:
256,192,96258,1,2,0:0:0:0:
256,192,96445,1,2,0:0:0:0:
256,192,96539,1,0,0:0:0:0:
256,192,96633,1,2,0:0:0:0:
256,192,96820,1,0,0:0:0:0:
256,192,97008,1,0,0:0:0:0:
256,192,97383,1,0,0:0:0:0:
256,192,97476,1,0,0:0:0:0:
256,192,97570,1,0,0:0:0:0:
256,192,97758,1,2,0:0:0:0:
256,192,97945,1,0,0:0:0:0:
256,192,98039,1,0,0:0:0:0:
256,192,98133,1,2,0:0:0:0:
256,192,98320,1,0,0:0:0:0:
256,192,98508,1,2,0:0:0:0:
256,192,98695,1,0,0:0:0:0:
256,192,98883,1,2,0:0:0:0:
256,192,99070,1,2,0:0:0:0:
256,192,99164,1,2,0:0:0:0:
256,192,99258,1,0,0:0:0:0:
256,192,99445,1,0,0:0:0:0:
256,192,99539,1,0,0:0:0:0:
256,192,99633,1,2,0:0:0:0:
256,192,100008,1,4,0:0:0:0:
256,192,100383,1,0,0:0:0:0:
256,192,100476,1,0,0:0:0:0:
256,192,100570,1,0,0:0:0:0:
256,192,100758,1,2,0:0:0:0:
256,192,100945,1,2,0:0:0:0:
256,192,101039,1,2,0:0:0:0:
256,192,101133,1,0,0:0:0:0:
256,192,101320,1,2,0:0:0:0:
256,192,101508,1,0,0:0:0:0:
256,192,101789,1,2,0:0:0:0:
256,192,101883,1,0,0:0:0:0:
256,192,102070,1,0,0:0:0:0:
256,192,102258,1,2,0:0:0:0:
256,192,102445,1,0,0:0:0:0:
256,192,102539,1,2,0:0:0:0:
256,192,102820,1,2,0:0:0:0:
256,192,103008,1,4,0:0:0:0:
256,192,103570,1,4,0:0:0:0:
256,192,104133,1,6,0:0:0:0:
256,192,104695,1,2,0:0:0:0:
256,192,105258,2,0,L|320:192,3,52.5000020027161
256,192,106008,1,0,0:0:0:0:
256,192,106758,1,2,0:0:0:0:
256,192,107508,1,0,0:0:0:0:
256,192,107883,1,0,0:0:0:0:
256,192,108258,1,2,0:0:0:0:
256,192,109008,1,0,0:0:0:0:
256,192,109758,1,2,0:0:0:0:
256,192,110508,1,0,0:0:0:0:
256,192,110883,1,2,0:0:0:0:
256,192,111070,1,2,0:0:0:0:
256,192,111164,1,2,0:0:0:0:
256,192,111258,1,0,0:0:0:0:
256,192,111445,1,0,0:0:0:0:
256,192,111633,1,2,0:0:0:0:
256,192,112008,1,4,0:0:0:0:
256,192,112383,1,0,0:0:0:0:
256,192,112758,1,2,0:0:0:0:
256,192,113508,1,0,0:0:0:0:
256,192,113883,1,0,0:0:0:0:
256,192,114258,1,2,0:0:0:0:
256,192,114633,1,0,0:0:0:0:
256,192,115008,5,2,0:0:0:0:
256,192,115195,1,0,0:0:0:0:
256,192,115383,5,2,0:0:0:0:
256,192,115476,1,2,0:0:0:0:
256,192,115570,1,2,0:0:0:0:
256,192,115664,1,2,0:0:0:0:
256,192,115758,5,0,0:0:0:0:
256,192,116133,5,2,0:0:0:0:
256,192,116320,1,0,0:0:0:0:
256,192,116414,1,0,0:0:0:0:
256,192,116508,5,2,0:0:0:0:
256,192,116695,1,0,0:0:0:0:
256,192,116883,1,0,0:0:0:0:
256,192,117070,5,2,0:0:0:0:
256,192,117258,1,0,0:0:0:0:
256,192,117351,1,0,0:0:0:0:
256,192,117445,1,0,0:0:0:0:
256,192,117539,1,0,0:0:0:0:
256,192,117633,5,2,0:0:0:0:
256,192,117820,1,2,0:0:0:0:
256,192,118008,5,4,0:0:0:0:
256,192,118383,1,0,0:0:0:0:
256,192,118570,1,2,0:0:0:0:
256,192,118758,5,0,0:0:0:0:
256,192,118851,1,0,0:0:0:0:
256,192,118945,1,0,0:0:0:0:
256,192,119133,1,2,0:0:0:0:
256,192,119320,1,0,0:0:0:0:
256,192,119508,5,0,0:0:0:0:
256,192,119601,1,0,0:0:0:0:
256,192,119695,1,0,0:0:0:0:
256,192,119883,1,2,0:0:0:0:
256,192,120070,5,2,0:0:0:0:
256,192,120164,1,2,0:0:0:0:
256,192,120258,1,0,0:0:0:0:
256,192,120445,1,0,0:0:0:0:
256,192,120633,1,2,0:0:0:0:
256,192,120820,5,2,0:0:0:0:
256,192,120914,1,2,0:0:0:0:
256,192,121008,5,0,0:0:0:0:
256,160,121195,1,0,0:0:0:0:
256,192,121289,1,0,0:0:0:0:
256,192,121383,1,0,0:0:0:0:
256,192,121570,1,2,0:0:0:0:
256,192,121945,1,0,0:0:0:0:
256,192,122133,1,2,0:0:0:0:
256,192,122320,1,0,0:0:0:0:
256,192,122508,1,2,0:0:0:0:
256,192,122695,1,0,0:0:0:0:
256,192,122789,1,0,0:0:0:0:
256,192,122883,1,0,0:0:0:0:
256,192,123070,1,2,0:0:0:0:
256,192,123258,1,0,0:0:0:0:
256,192,123445,1,0,0:0:0:0:
256,192,123539,1,0,0:0:0:0:
256,192,123633,1,2,0:0:0:0:
256,192,123820,1,2,0:0:0:0:
256,192,124008,1,4,0:0:0:0:
256,192,124383,1,2,0:0:0:0:
256,192,124570,1,0,0:0:0:0:
256,192,124664,1,0,0:0:0:0:
256,192,124758,1,0,0:0:0:0:
256,192,124945,1,0,0:0:0:0:
256,192,125039,1,0,0:0:0:0:
256,192,125133,1,2,0:0:0:0:
256,192,125320,1,0,0:0:0:0:
256,192,125508,1,2,0:0:0:0:
256,192,125883,1,2,0:0:0:0:
256,192,126070,1,0,0:0:0:0:
256,192,126164,1,0,0:0:0:0:
256,192,126258,1,2,0:0:0:0:
256,192,126445,1,2,0:0:0:0:
256,192,126539,1,2,0:0:0:0:
256,192,126633,1,0,0:0:0:0:
256,192,126820,1,2,0:0:0:0:
256,192,127008,1,0,0:0:0:0:
256,192,127195,1,0,0:0:0:0:
256,192,127289,1,0,0:0:0:0:
256,192,127383,1,2,0:0:0:0:
256,192,127570,1,0,0:0:0:0:
256,192,127664,1,0,0:0:0:0:
256,192,127758,1,0,0:0:0:0:
256,192,127945,1,0,0:0:0:0:
256,192,128133,1,2,0:0:0:0:
256,192,128320,1,0,0:0:0:0:
256,192,128508,1,2,0:0:0:0:
256,192,128695,1,0,0:0:0:0:
256,192,128789,1,0,0:0:0:0:
256,192,128883,1,0,0:0:0:0:
256,192,129070,1,6,0:0:0:0:
256,192,129445,1,2,0:0:0:0:
256,192,129539,1,2,0:0:0:0:
256,192,129633,1,0,0:0:0:0:
256,192,129820,1,2,0:0:0:0:
256,192,130008,1,4,0:0:0:0:
256,192,130570,1,4,0:0:0:0:
256,192,131133,1,6,0:0:0:0:
256,192,131695,1,0,0:0:0:0:
256,192,131883,1,2,0:0:0:0:
256,192,132070,1,0,0:0:0:0:
256,192,132164,1,0,0:0:0:0:
256,192,132258,1,2,0:0:0:0:
256,192,132445,1,0,0:0:0:0:
256,192,132633,1,0,0:0:0:0:
256,192,133008,1,4,0:0:0:0:
256,192,133570,1,4,0:0:0:0:
256,192,134133,12,0,135820,0:0:0:0:
256,192,136008,5,0,0:0:0:0:
256,192,136570,1,0,0:0:0:0:
256,192,137133,1,2,0:0:0:0:
256,192,139008,1,2,0:0:0:0:
256,192,139570,1,2,0:0:0:0:
256,192,140133,1,2,0:0:0:0:
