osu file format v13

[General]
AudioFilename: Magnolia.mp3
AudioLeadIn: 0
PreviewTime: 40012
Countdown: 0
SampleSet: Soft
StackLeniency: 0.7
Mode: 0
LetterboxInBreaks: 1
EpilepsyWarning: 1
WidescreenStoryboard: 1

[Editor]
Bookmarks: 73012
DistanceSpacing: 1
BeatDivisor: 4
GridSize: 4
TimelineZoom: 1

[Metadata]
Title:Magnolia
TitleUnicode:Magnolia
Artist:M2U feat. Guriri
ArtistUnicode:M2U feat. Guriri
Creator:-kevincela-
Version:Easy
Source:Deemo
Tags:AngelHoney DJNightmare Symphonic Dubstep Electronic WAV.AV. Rayark
BeatmapID:344756
BeatmapSetID:128645

[Difficulty]
HPDrainRate:3
CircleSize:3
OverallDifficulty:3
ApproachRate:4
SliderMultiplier:0.999999999999999
SliderTickRate:1

[Events]
//Background and Video events
0,0,"bg3.jpg",0,0
//Break Periods
//Storyboard Layer 0 (Background)
//Storyboard Layer 1 (Fail)
//Storyboard Layer 2 (Pass)
//Storyboard Layer 3 (Foreground)
//Storyboard Sound Samples
//Background Colour Transformations
3,100,163,162,255

[TimingPoints]
2512,375,4,2,0,70,1,0
2512,-133.333333333333,4,2,0,70,0,0
8512,-133.333333333333,4,2,2,50,0,0
14512,-100,4,2,2,70,0,0
22762,-100,4,2,0,50,0,0
23512,-100,4,2,0,35,0,0
24263,-100,4,2,0,20,0,0
26418,-100,4,2,0,5,0,0
28012,-133.333333333333,4,2,0,40,0,0
40012,-133.333333333333,4,2,2,55,0,0
52012,-100,4,2,2,70,0,1
70012,-133.333333333333,4,2,0,55,0,0
72355,-133.333333333333,4,2,0,30,0,0
72449,-133.333333333333,4,2,0,55,0,0
72543,-133.333333333333,4,2,0,30,0,0
72637,-133.333333333333,4,2,0,55,0,0
72730,-133.333333333333,4,2,0,30,0,0
72824,-133.333333333333,4,2,0,55,0,0
72918,-133.333333333333,4,2,0,30,0,0
73012,-133.333333333333,4,2,0,55,0,0
75355,-133.333333333333,4,2,0,30,0,0
75449,-133.333333333333,4,2,0,55,0,0
75543,-133.333333333333,4,2,0,30,0,0
75637,-133.333333333333,4,2,0,55,0,0
75730,-133.333333333333,4,2,0,30,0,0
75824,-133.333333333333,4,2,0,55,0,0
75918,-133.333333333333,4,2,0,30,0,0
76012,-100,4,2,2,70,0,0
82012,-100,4,2,2,70,0,1
93637,-100,4,2,2,70,0,0
94012,-100,4,2,2,70,0,1
103012,-100,4,2,2,70,0,0
104699,-50,4,2,2,70,0,0
104887,-100,4,2,2,70,0,0
118012,-100,4,2,2,70,0,1
134137,-200,4,2,2,70,0,1
136012,-133.333333333333,4,2,0,40,0,0
142105,-133.333333333333,4,2,0,5,0,0

[Colours]
Combo1 : 252,176,143
Combo2 : 188,188,188
Combo3 : 92,92,92
Combo4 : 177,209,205
Combo5 : 255,210,210

[HitObjects]
64,272,2512,6,0,P|92:320|188:340,1,150.000005722046,4|2,0:0|0:0,0:0:0:0:
256,296,3637,1,2,0:0:0:0:
332,342,4012,2,0,P|404:330|447:271,1,150.000005722046,2|2,0:0|0:0,0:0:0:0:
324,140,5512,6,0,P|256:112|188:140,1,150.000005722046,4|2,0:0|0:0,0:0:0:0:
256,200,6637,1,2,0:0:0:0:
204,272,7012,2,0,P|256:288|316:264,1,112.500004291534,2|0,0:0|0:0,0:0:0:0:
344,244,7762,2,0,L|428:256,1,75.000002861023,2|2,0:0|0:0,0:0:0:0:
448,168,8512,6,0,B|372:156|372:156|312:96,1,150.000005722046,4|8,0:0|0:0,0:0:0:0:
256,40,9637,1,0,0:0:0:0:
191,104,10012,2,0,B|140:156|140:156|64:168,1,150.000005722046,0|8,0:0|0:0,0:0:0:0:
44,256,11137,1,0,0:0:0:0:
64,344,11512,6,0,B|108:332|124:296|124:296|200:280,1,150.000005722046,4|8,0:0|0:0,0:0:0:0:
256,344,12637,1,0,0:0:0:0:
319,281,13012,1,0,0:0:0:0:
440,148,13762,6,0,B|404:112|404:112|344:100,1,112.500004291534,8|0,0:0|0:0,0:0:0:0:
304,124,14512,6,0,P|236:144|168:104,1,150,6|8,0:0|0:0,0:0:0:0:
84,228,15637,2,0,P|152:208|220:248,1,150,2|8,0:0|0:0,0:0:0:0:
324,352,16762,6,0,P|416:348|456:252,1,200,2|2,0:0|0:0,0:0:0:0:
404,176,17887,1,0,0:0:0:0:
309,145,18262,2,0,P|313:218|368:268,2,150,8|0|0,0:0|0:0|0:0,0:0:0:0:
332,104,19574,2,0,L|172:112,1,150,8|8,0:0|0:0,0:0:0:0:
116,188,20512,6,0,P|84:140|100:52,1,150,6|8,0:0|0:0,0:0:0:0:
212,204,21637,2,0,P|185:255|100:283,1,150,2|8,0:0|0:0,0:0:0:0:
180,120,22762,1,4,0:0:0:0:
256,192,22949,12,0,26418,0:0:0:0:
64,308,28012,6,0,P|140:316|196:256,1,150.000005722046,2|2,0:0|0:0,0:0:0:0:
180,180,29137,1,0,0:0:0:0:
93,165,29512,2,0,P|95:202|112:236,2,75.000002861023,2|2|2,0:0|0:0|0:0,0:0:0:0:
232,52,31012,6,0,L|384:44,1,150.000005722046,2|2,0:0|0:0,0:0:0:0:
436,116,32137,1,0,0:0:0:0:
460,204,32512,2,0,P|408:204|344:124,1,150.000005722046,2|2,0:0|0:0,0:0:0:0:
436,116,33637,1,2,0:0:0:0:
460,204,34012,6,0,B|456:284|456:284|412:352,1,150.000005722046,2|2,0:0|0:0,0:0:0:0:
328,360,35137,1,2,0:0:0:0:
252,308,35512,2,0,L|172:312,2,75.000002861023,2|2|2,0:0|0:0|0:0,0:0:0:0:
336,148,37012,6,0,P|304:84|232:60,1,150.000005722046,2|2,0:0|0:0,0:0:0:0:
244,152,38137,1,2,0:0:0:0:
292,228,38512,2,0,P|363:234|418:184,1,150.000005722046,2|2,0:0|0:0,0:0:0:0:
244,152,40012,6,0,P|203:211|220:283,1,150.000005722046,6|8,0:0|0:0,0:0:0:0:
332,144,41512,2,0,P|320:108|288:76,1,75.000002861023,0|2,0:0|0:0,0:0:0:0:
244,152,42262,2,0,P|172:168|108:132,1,150.000005722046,8|2,0:0|0:0,0:0:0:0:
56,304,43762,6,0,P|120:268|191:284,1,150.000005722046,8|0,0:0|0:0,0:0:0:0:
256,348,44887,1,2,0:0:0:0:
320,284,45262,2,0,L|400:292,1,75.000002861023,8|0,0:0|0:0,0:0:0:0:
456,360,46012,6,0,P|480:320|452:220,1,150.000005722046,6|8,0:0|0:0,0:0:0:0:
316,112,47512,2,0,P|314:149|326:184,1,75.000002861023,0|2,0:0|0:0,0:0:0:0:
360,268,48262,2,0,L|200:264,1,150.000005722046,8|2,0:0|0:0,0:0:0:0:
63,160,49762,6,0,P|116:107|188:96,1,150.000005722046,8|0,0:0|0:0,0:0:0:0:
256,156,50887,1,2,0:0:0:0:
320,96,51262,2,0,L|400:92,1,75.000002861023,8|0,0:0|0:0,0:0:0:0:
476,180,52012,6,0,B|496:220|484:264|484:264|464:344,2,150,6|8|8,0:0|0:0|0:0,0:0:0:0:
388,232,53512,2,0,P|308:250|248:208,2,150,2|8|8,0:0|0:0|0:0,0:0:0:0:
328,152,55012,6,0,P|252:116|184:144,1,150,2|8,0:0|0:0,0:0:0:0:
164,232,55949,2,0,L|168:304,1,50,0|8,0:0|0:0,0:0:0:0:
72,308,56512,2,0,B|67:227|67:227|68:188|100:156,2,150,2|8|8,0:0|0:0|0:0,0:0:0:0:
156,364,58012,6,0,P|220:364|276:288,1,150,6|8,0:0|0:0,0:0:0:0:
280,152,59137,1,8,0:0:0:0:
368,200,59512,2,0,B|420:200|420:200|460:168|460:168|512:168,2,150,2|8|8,0:0|0:0|0:0,0:0:0:0:
280,152,61012,6,0,P|224:152|176:180,1,99.9999999999999,2|0,0:0|0:0,0:0:0:0:
160,216,61574,2,0,P|96:248|20:208,1,150,8|8,0:0|0:0,0:0:0:0:
92,144,62512,2,0,P|156:112|232:152,1,150,2|8,0:0|0:0,0:0:0:0:
304,304,64012,6,0,P|370:333|435:301,1,150,2|8,0:0|0:0,0:0:0:0:
316,208,65137,2,0,P|256:220|216:348,1,200,8|0,1:2|0:0,0:0:0:0:
304,304,66262,1,8,0:0:0:0:
316,208,66637,1,0,0:0:0:0:
376,132,67012,6,0,P|411:196|396:268,2,150,2|8|8,0:0|0:0|1:2,0:0:0:0:
256,192,68324,12,4,70012,0:0:0:0:
96,84,70762,6,0,P|104:124|100:164,1,75.000002861023,2|2,0:0|0:0,0:0:0:0:
52,232,71512,2,0,P|76:276|172:296,1,150.000005722046,2|2,0:0|0:0,0:0:0:0:
344,296,73012,6,0,P|416:289|460:231,1,150.000005722046,2|2,0:0|0:0,0:0:0:0:
436,144,74137,1,2,0:0:0:0:
420,56,74512,2,0,B|376:64|356:104|356:104|276:88,1,150.000005722046,2|2,0:0|0:0,0:0:0:0:
88,104,76012,6,0,P|72:148|80:208,1,99.9999999999999,2|2,0:0|0:0,0:0:0:0:
172,224,76762,2,0,L|272:236,1,99.9999999999999,2|2,0:0|0:0,0:0:0:0:
356,288,77512,2,0,P|361:337|344:384,2,99.9999999999999,2|2|2,0:0|0:0|0:0,0:0:0:0:
272,236,78637,1,2,0:0:0:0:
360,188,79012,6,0,P|408:204|452:304,2,150,2|8|8,0:0|0:0|0:0,0:0:0:0:
272,236,80512,2,0,L|172:232,1,99.9999999999999,8|2,0:0|0:0,0:0:0:0:
128,256,81074,2,0,B|156:192|156:192|152:96,1,150,8|8,0:0|0:0,0:0:0:0:
240,60,82012,6,0,B|312:56|312:56|356:92|356:92|452:88,1,200,2|8,1:2|1:2,0:0:0:0:
268,208,83512,2,0,B|196:212|196:212|152:176|152:176|56:180,1,200,2|10,0:0|0:1,0:0:0:0:
32,268,84637,1,2,0:1:0:0:
104,336,85012,6,0,B|152:368|152:368|300:360,1,200,2|8,0:0|0:0,0:0:0:0:
456,240,86512,2,0,P|464:192|448:132,1,99.9999999999999,6|2,0:1|0:1,0:0:0:0:
376,76,87262,2,0,L|388:20,2,50,8|0|8,0:0|0:0|0:0,0:0:0:0:
288,124,88012,6,0,B|232:144|232:144|200:104|136:92|88:132,1,200,2|8,0:0|0:0,0:0:0:0:
44,204,89137,1,0,0:0:0:0:
96,288,89512,2,0,P|168:308|228:268,1,150,2|0,0:0|0:0,0:0:0:0:
248,224,90262,2,0,L|352:228,1,99.9999999999999,10|2,0:1|0:1,0:0:0:0:
424,164,91012,6,0,P|400:84|296:40,1,200,2|8,0:0|0:0,0:0:0:0:
212,84,92137,1,0,0:0:0:0:
120,44,92512,6,0,B|108:88|120:120|120:120|132:160|120:196,1,150,10|10,0:1|0:1,0:0:0:0:
80,284,93449,2,0,P|120:292|176:276,1,99.9999999999999,10|0,0:1|0:0,0:0:0:0:
212,240,94012,6,0,B|252:312|252:312|296:288|344:288|380:312,1,200,2|8,0:0|0:0,0:0:0:0:
452,356,95137,1,0,0:0:0:0:
504,272,95512,2,0,P|512:220|496:168,1,99.9999999999999,2|0,0:0|0:0,0:0:0:0:
432,100,96262,2,0,L|436:48,2,50,10|2|2,0:1|0:1|0:1,0:0:0:0:
348,156,97012,6,0,B|284:176|284:176|144:156,1,200,2|8,0:0|0:0,0:0:0:0:
52,140,98137,1,0,0:0:0:0:
24,236,98512,2,0,P|32:288|64:332,1,99.9999999999999,6|2,0:1|0:1,0:0:0:0:
144,272,99262,2,0,L|160:208,2,50,8|0|8,0:0|0:0|0:0,0:0:0:0:
200,356,100012,6,0,B|276:356|276:356|312:328|312:328|392:328,1,200,2|8,0:0|0:0,0:0:0:0:
488,356,101137,1,0,0:0:0:0:
464,260,101512,2,0,P|452:180|464:108,1,150,2|2,0:0|0:0,0:0:0:0:
500,76,102262,2,0,L|392:68,1,99.9999999999999,8|8,0:0|0:0,0:0:0:0:
320,128,103012,6,0,P|256:140|184:84,1,150,0|8,0:0|0:0,0:0:0:0:
96,208,104137,2,0,P|160:196|232:252,1,150,2|8,0:0|0:0,0:0:0:0:
232,248,105262,6,0,L|350:239,1,99.9999999999999,2|0,0:0|0:0,0:0:0:0:
420,296,106012,6,0,P|436:240|344:136,1,200,6|8,0:0|0:0,0:0:0:0:
333,242,107137,1,0,0:0:0:0:
420,296,107512,1,0,0:0:0:0:
364,380,107887,1,2,0:0:0:0:
276,328,108262,2,0,B|208:316|208:316|152:336|152:336|68:320,1,200,8|2,0:0|0:0,0:0:0:0:
40,232,109387,6,0,P|32:168|132:84,1,200,0|0,0:0|0:0,0:0:0:0:
224,104,110512,1,2,0:0:0:0:
272,192,110887,1,8,0:0:0:0:
344,108,111262,1,8,0:0:0:0:
400,216,111637,1,8,0:0:0:0:
332,312,112012,6,0,L|224:320,1,99.9999999999999,6|0,0:0|0:0,0:0:0:0:
144,364,112762,2,0,P|60:372|20:272,1,200,8|0,0:0|0:0,0:0:0:0:
60,188,113887,1,2,0:0:0:0:
104,96,114262,2,0,P|56:84|4:104,1,99.9999999999999,8|0,0:0|0:0,0:0:0:0:
60,188,115012,6,0,P|136:192|204:92,1,200,2|8,0:0|0:0,0:0:0:0:
104,96,116137,1,8,0:0:0:0:
60,188,116512,2,0,L|68:292,1,99.9999999999999,8|2,0:0|0:0,0:0:0:0:
40,328,117074,2,0,B|84:296|84:296|200:312,1,150,8|8,0:0|0:0,0:0:0:0:
264,360,118012,6,0,P|276:320|228:220,2,150,6|8|8,0:0|0:0|0:0,0:0:0:0:
180,308,119512,2,0,P|117:337|40:304,2,150,2|8|8,0:0|0:0|0:0,0:0:0:0:
236,224,121012,6,0,P|298:194|376:228,1,150,2|8,0:0|0:0,0:0:0:0:
348,320,121949,2,0,P|324:312|300:292,1,50,0|8,0:0|0:0,0:0:0:0:
370,222,122512,2,0,P|392:136|364:64,2,150,2|8|8,0:0|0:0|0:0,0:0:0:0:
304,296,124012,6,0,B|268:312|232:296|232:296|196:280|156:296,1,150,6|8,0:0|0:0,0:0:0:0:
52,188,125137,1,8,0:0:0:0:
40,88,125512,2,0,P|107:101|152:172,2,150,2|8|8,0:0|0:0|0:0,0:0:0:0:
52,188,127012,6,0,L|64:288,1,99.9999999999999,2|0,0:0|0:0,0:0:0:0:
56,336,127574,2,0,P|104:304|192:340,1,150,8|8,0:0|0:0,0:0:0:0:
248,252,128512,2,0,P|314:281|377:247,1,150,2|8,0:0|0:0,0:0:0:0:
188,84,130012,6,0,P|121:54|58:88,1,150,2|8,0:0|0:0,0:0:0:0:
176,184,131137,2,0,P|252:160|280:48,1,200,8|0,1:2|0:0,0:0:0:0:
188,84,132262,1,8,0:0:0:0:
176,184,132637,1,0,0:0:0:0:
160,284,133012,6,0,P|112:264|76:168,2,150,2|8|8,0:0|0:0|1:2,0:0:0:0:
256,192,134324,12,2,136012,0:0:0:0:
72,128,136574,5,2,0:0:0:0:
80,264,137137,2,0,P|144:248|192:172,1,150.000005722046,2|0,0:0|0:0,0:0:0:0:
200,92,138262,2,0,P|244:108|272:140,1,75.000002861023,2|2,0:0|0:0,0:0:0:0:
284,216,139012,5,2,0:0:0:0:
400,284,139574,1,2,0:0:0:0:
464,164,140137,1,2,0:0:0:0:
256,192,140324,12,0,142105,0:0:0:0:
