osu file format v12

[General]
AudioFilename: Mozart.mp3
AudioLeadIn: 3000
PreviewTime: -1
Countdown: 1
SampleSet: Soft
StackLeniency: 0.7
Mode: 3
LetterboxInBreaks: 1

[Editor]
DistanceSpacing: 0.8
BeatDivisor: 4
GridSize: 32

[Metadata]
Title:mozart
TitleUnicode:mozart
Artist:M2U
ArtistUnicode:M2U
Creator:retadidas
Version:SHD
Source:
Tags:mozart M2U retadidas
BeatmapID:233021
BeatmapSetID:84624

[Difficulty]
HPDrainRate:8
CircleSize:7
OverallDifficulty:8
ApproachRate:10
SliderMultiplier:1.4
SliderTickRate:1

[Events]
//Background and Video events
0,0,"Mozart.jpg",1,1
//Break Periods
//Storyboard Layer 0 (Background)
//Storyboard Layer 1 (Fail)
//Storyboard Layer 2 (Pass)
//Storyboard Layer 3 (Foreground)
//Storyboard Sound Samples
//Background Colour Transformations
3,100,163,162,255

[TimingPoints]
227,400,4,2,0,100,1,0

[HitObjects]
256,192,227,1,0,0:0:0:0:
475,192,227,1,0,0:0:0:0:
36,192,427,1,0,0:0:0:0:
109,192,527,1,0,0:0:0:0:
358,192,627,1,0,0:0:0:0:
182,192,627,1,0,0:0:0:0:
402,192,827,1,0,0:0:0:0:
36,192,827,128,0,1027:0:0:0:0:
329,192,927,1,0,0:0:0:0:
109,192,1027,1,0,0:0:0:0:
256,192,1027,1,0,0:0:0:0:
109,192,1227,1,0,0:0:0:0:
182,192,1327,1,0,0:0:0:0:
256,192,1427,1,0,0:0:0:0:
402,192,1427,1,0,0:0:0:0:
475,192,1627,1,0,0:0:0:0:
36,192,1627,128,0,1827:0:0:0:0:
402,192,1727,1,0,0:0:0:0:
109,192,1827,1,0,0:0:0:0:
329,192,1827,1,0,0:0:0:0:
36,192,2027,1,0,0:0:0:0:
109,192,2127,1,0,0:0:0:0:
182,192,2227,1,0,0:0:0:0:
329,192,2227,1,0,0:0:0:0:
402,192,2427,1,0,0:0:0:0:
36,192,2427,128,0,2627:0:0:0:0:
329,192,2527,1,0,0:0:0:0:
109,192,2627,1,0,0:0:0:0:
256,192,2627,1,0,0:0:0:0:
109,192,2827,1,0,0:0:0:0:
182,192,2927,1,0,0:0:0:0:
256,192,3027,1,0,0:0:0:0:
402,192,3027,1,0,0:0:0:0:
36,192,3227,128,0,3427:0:0:0:0:
475,192,3227,1,0,0:0:0:0:
402,192,3327,1,0,0:0:0:0:
329,192,3427,1,0,0:0:0:0:
109,192,3427,1,0,0:0:0:0:
36,192,3627,1,0,0:0:0:0:
402,192,3627,128,0,3827:0:0:0:0:
109,192,3727,1,0,0:0:0:0:
182,192,3827,1,0,0:0:0:0:
329,192,3827,1,0,0:0:0:0:
475,192,4027,1,0,0:0:0:0:
109,192,4027,128,0,4227:0:0:0:0:
402,192,4127,1,0,0:0:0:0:
329,192,4227,1,0,0:0:0:0:
182,192,4227,1,0,0:0:0:0:
36,192,4427,1,0,0:0:0:0:
402,192,4427,128,0,4627:0:0:0:0:
109,192,4527,1,0,0:0:0:0:
182,192,4627,1,0,0:0:0:0:
329,192,4627,1,0,0:0:0:0:
475,192,4827,1,0,0:0:0:0:
109,192,4827,128,0,5027:0:0:0:0:
402,192,4927,1,0,0:0:0:0:
182,192,5027,1,0,0:0:0:0:
329,192,5027,1,0,0:0:0:0:
182,192,5127,1,0,0:0:0:0:
329,192,5127,1,0,0:0:0:0:
109,192,5227,1,0,0:0:0:0:
402,192,5227,1,0,0:0:0:0:
475,192,5227,128,0,5427:0:0:0:0:
256,192,5227,1,0,0:0:0:0:
182,192,5327,1,0,0:0:0:0:
329,192,5327,1,0,0:0:0:0:
402,192,5427,1,0,0:0:0:0:
109,192,5427,1,0,0:0:0:0:
182,192,5527,1,0,0:0:0:0:
329,192,5527,1,0,0:0:0:0:
36,192,5627,128,0,5827:0:0:0:0:
329,192,5627,1,0,0:0:0:0:
182,192,5627,1,0,0:0:0:0:
256,192,5727,1,0,0:0:0:0:
402,192,5727,1,0,0:0:0:0:
460,192,5827,1,0,0:0:0:0:
329,192,5827,1,0,0:0:0:0:
256,192,5927,1,0,0:0:0:0:
402,192,5927,1,0,0:0:0:0:
475,192,6027,128,0,6227:0:0:0:0:
402,192,6027,1,0,0:0:0:0:
256,192,6027,1,0,0:0:0:0:
182,192,6127,1,0,0:0:0:0:
329,192,6127,1,0,0:0:0:0:
256,192,6227,1,0,0:0:0:0:
109,192,6227,1,0,0:0:0:0:
182,192,6327,1,0,0:0:0:0:
329,192,6327,1,0,0:0:0:0:
36,192,6427,128,0,6627:0:0:0:0:
329,192,6427,1,0,0:0:0:0:
182,192,6427,1,0,0:0:0:0:
256,192,6527,1,0,0:0:0:0:
402,192,6527,1,0,0:0:0:0:
460,192,6627,1,0,0:0:0:0:
358,192,6627,128,0,8227:0:0:0:0:
182,192,6627,1,0,0:0:0:0:
182,192,7027,1,0,0:0:0:0:
109,192,7027,1,0,0:0:0:0:
51,192,7427,1,0,0:0:0:0:
475,192,7427,1,0,0:0:0:0:
109,192,7427,1,0,0:0:0:0:
182,192,7827,1,0,0:0:0:0:
109,192,7827,1,0,0:0:0:0:
153,192,8227,128,0,9827:0:0:0:0:
475,192,8227,1,0,0:0:0:0:
36,192,8227,1,0,0:0:0:0:
329,192,8627,1,0,0:0:0:0:
475,192,8627,1,0,0:0:0:0:
256,192,8627,1,0,0:0:0:0:
36,192,9027,1,0,0:0:0:0:
109,192,9027,1,0,0:0:0:0:
329,192,9427,1,0,0:0:0:0:
256,192,9427,1,0,0:0:0:0:
358,192,9827,128,0,11427:0:0:0:0:
475,192,9827,1,0,0:0:0:0:
36,192,9827,1,0,0:0:0:0:
182,192,10227,1,0,0:0:0:0:
256,192,10227,1,0,0:0:0:0:
51,192,10627,1,0,0:0:0:0:
475,192,10627,1,0,0:0:0:0:
109,192,10627,1,0,0:0:0:0:
182,192,11027,1,0,0:0:0:0:
256,192,11027,1,0,0:0:0:0:
153,192,11427,128,0,13027:0:0:0:0:
475,192,11427,1,0,0:0:0:0:
36,192,11427,1,0,0:0:0:0:
460,192,11827,1,0,0:0:0:0:
329,192,11827,1,0,0:0:0:0:
256,192,11827,1,0,0:0:0:0:
36,192,12227,1,0,0:0:0:0:
109,192,12227,1,0,0:0:0:0:
329,192,12627,1,0,0:0:0:0:
256,192,12627,1,0,0:0:0:0:
51,192,13027,128,0,14627:0:0:0:0:
460,192,13027,128,0,14627:0:0:0:0:
256,192,13027,1,0,0:0:0:0:
329,192,13127,1,0,0:0:0:0:
402,192,13227,1,0,0:0:0:0:
182,192,13427,1,0,0:0:0:0:
256,192,13527,1,0,0:0:0:0:
329,192,13627,1,0,0:0:0:0:
109,192,13827,1,0,0:0:0:0:
182,192,13927,1,0,0:0:0:0:
256,192,14027,1,0,0:0:0:0:
182,192,14227,1,0,0:0:0:0:
256,192,14327,1,0,0:0:0:0:
329,192,14427,1,0,0:0:0:0:
153,192,14627,128,0,16227:0:0:0:0:
329,192,14627,1,0,0:0:0:0:
402,192,14727,1,0,0:0:0:0:
475,192,14827,1,0,0:0:0:0:
256,192,15027,1,0,0:0:0:0:
329,192,15127,1,0,0:0:0:0:
402,192,15227,1,0,0:0:0:0:
109,192,15427,1,0,0:0:0:0:
256,192,15527,1,0,0:0:0:0:
329,192,15627,1,0,0:0:0:0:
36,192,15827,1,0,0:0:0:0:
109,192,15927,1,0,0:0:0:0:
256,192,16027,1,0,0:0:0:0:
51,192,16227,128,0,17827:0:0:0:0:
460,192,16227,128,0,17827:0:0:0:0:
256,192,16227,1,0,0:0:0:0:
329,192,16327,1,0,0:0:0:0:
402,192,16427,1,0,0:0:0:0:
182,192,16627,1,0,0:0:0:0:
256,192,16727,1,0,0:0:0:0:
329,192,16827,1,0,0:0:0:0:
109,192,17027,1,0,0:0:0:0:
182,192,17127,1,0,0:0:0:0:
256,192,17227,1,0,0:0:0:0:
182,192,17427,1,0,0:0:0:0:
256,192,17527,1,0,0:0:0:0:
329,192,17627,1,0,0:0:0:0:
256,192,17827,128,0,19427:0:0:0:0:
182,192,17827,1,0,0:0:0:0:
109,192,17927,1,0,0:0:0:0:
36,192,18027,1,0,0:0:0:0:
460,192,18227,1,0,0:0:0:0:
402,192,18327,1,0,0:0:0:0:
329,192,18427,1,0,0:0:0:0:
182,192,18627,1,0,0:0:0:0:
109,192,18727,1,0,0:0:0:0:
36,192,18827,1,0,0:0:0:0:
475,192,19027,1,0,0:0:0:0:
402,192,19127,1,0,0:0:0:0:
329,192,19227,1,0,0:0:0:0:
51,192,19427,1,0,0:0:0:0:
475,192,19427,1,0,0:0:0:0:
109,192,19427,1,0,0:0:0:0:
153,192,19627,1,0,0:0:0:0:
109,192,19627,1,0,0:0:0:0:
256,192,19827,1,0,0:0:0:0:
182,192,19827,1,0,0:0:0:0:
460,192,20027,1,0,0:0:0:0:
402,192,20027,1,0,0:0:0:0:
329,192,20227,1,0,0:0:0:0:
153,192,20327,1,0,0:0:0:0:
51,192,20427,1,0,0:0:0:0:
153,192,20527,1,0,0:0:0:0:
329,192,20627,1,0,0:0:0:0:
51,192,21027,1,0,0:0:0:0:
109,192,21027,1,0,0:0:0:0:
153,192,21227,1,0,0:0:0:0:
256,192,21227,1,0,0:0:0:0:
256,192,21427,1,0,0:0:0:0:
329,192,21427,1,0,0:0:0:0:
460,192,21627,1,0,0:0:0:0:
402,192,21627,1,0,0:0:0:0:
329,192,21827,1,0,0:0:0:0:
153,192,21927,1,0,0:0:0:0:
51,192,22027,1,0,0:0:0:0:
153,192,22127,1,0,0:0:0:0:
329,192,22227,1,0,0:0:0:0:
109,192,22627,1,0,0:0:0:0:
182,192,22627,1,0,0:0:0:0:
256,192,22827,1,0,0:0:0:0:
329,192,22827,1,0,0:0:0:0:
358,192,23027,1,0,0:0:0:0:
402,192,23027,1,0,0:0:0:0:
460,192,23227,1,0,0:0:0:0:
402,192,23227,1,0,0:0:0:0:
402,192,23427,1,0,0:0:0:0:
256,192,23527,1,0,0:0:0:0:
109,192,23627,1,0,0:0:0:0:
256,192,23727,1,0,0:0:0:0:
402,192,23827,1,0,0:0:0:0:
109,192,24227,1,0,0:0:0:0:
182,192,24227,1,0,0:0:0:0:
256,192,24427,1,0,0:0:0:0:
329,192,24427,1,0,0:0:0:0:
358,192,24627,1,0,0:0:0:0:
402,192,24627,1,0,0:0:0:0:
460,192,24827,1,0,0:0:0:0:
402,192,24827,1,0,0:0:0:0:
402,192,25027,1,0,0:0:0:0:
256,192,25127,1,0,0:0:0:0:
109,192,25227,1,0,0:0:0:0:
256,192,25327,1,0,0:0:0:0:
402,192,25427,1,0,0:0:0:0:
153,192,25827,1,0,0:0:0:0:
36,192,25827,1,0,0:0:0:0:
109,192,26027,1,0,0:0:0:0:
256,192,26027,1,0,0:0:0:0:
153,192,26227,1,0,0:0:0:0:
329,192,26227,1,0,0:0:0:0:
256,192,26427,1,0,0:0:0:0:
402,192,26427,1,0,0:0:0:0:
460,192,26627,1,0,0:0:0:0:
329,192,26727,1,0,0:0:0:0:
182,192,26827,1,0,0:0:0:0:
329,192,26927,1,0,0:0:0:0:
460,192,27027,1,0,0:0:0:0:
402,192,27427,1,0,0:0:0:0:
256,192,27527,1,0,0:0:0:0:
109,192,27627,1,0,0:0:0:0:
256,192,27727,1,0,0:0:0:0:
402,192,27827,1,0,0:0:0:0:
329,192,28227,1,0,0:0:0:0:
153,192,28327,1,0,0:0:0:0:
51,192,28427,1,0,0:0:0:0:
153,192,28527,1,0,0:0:0:0:
329,192,28627,1,0,0:0:0:0:
182,192,28727,1,0,0:0:0:0:
36,192,28827,1,0,0:0:0:0:
182,192,28927,1,0,0:0:0:0:
329,192,29027,1,0,0:0:0:0:
460,192,29027,1,0,0:0:0:0:
402,192,29027,1,0,0:0:0:0:
36,192,29027,1,0,0:0:0:0:
402,192,29427,1,0,0:0:0:0:
256,192,29427,1,0,0:0:0:0:
329,192,29427,1,0,0:0:0:0:
329,192,29827,1,0,0:0:0:0:
182,192,29827,1,0,0:0:0:0:
256,192,29827,1,0,0:0:0:0:
256,192,30227,1,0,0:0:0:0:
109,192,30227,1,0,0:0:0:0:
182,192,30227,1,0,0:0:0:0:
51,192,30627,1,0,0:0:0:0:
182,192,30627,1,0,0:0:0:0:
109,192,30627,1,0,0:0:0:0:
329,192,31027,1,0,0:0:0:0:
460,192,31027,1,0,0:0:0:0:
402,192,31027,1,0,0:0:0:0:
460,192,31427,1,0,0:0:0:0:
329,192,31427,1,0,0:0:0:0:
402,192,31427,1,0,0:0:0:0:
182,192,31827,1,0,0:0:0:0:
36,192,31827,1,0,0:0:0:0:
109,192,31827,1,0,0:0:0:0:
475,192,32227,128,0,33827:0:0:0:0:
256,192,32227,1,0,0:0:0:0:
182,192,32327,1,0,0:0:0:0:
109,192,32427,1,0,0:0:0:0:
182,192,32627,1,0,0:0:0:0:
329,192,32627,1,0,0:0:0:0:
256,192,32827,1,0,0:0:0:0:
109,192,32827,1,0,0:0:0:0:
36,192,33027,1,0,0:0:0:0:
182,192,33027,1,0,0:0:0:0:
256,192,33227,1,0,0:0:0:0:
109,192,33227,1,0,0:0:0:0:
36,192,33427,1,0,0:0:0:0:
182,192,33427,1,0,0:0:0:0:
256,192,33627,1,0,0:0:0:0:
109,192,33627,1,0,0:0:0:0:
109,192,33827,128,0,35427:0:0:0:0:
36,192,33827,1,0,0:0:0:0:
256,192,33827,1,0,0:0:0:0:
329,192,33927,1,0,0:0:0:0:
402,192,34027,1,0,0:0:0:0:
329,192,34227,1,0,0:0:0:0:
475,192,34227,1,0,0:0:0:0:
256,192,34427,1,0,0:0:0:0:
402,192,34427,1,0,0:0:0:0:
329,192,34627,1,0,0:0:0:0:
182,192,34627,1,0,0:0:0:0:
256,192,34827,1,0,0:0:0:0:
402,192,34827,1,0,0:0:0:0:
329,192,35027,1,0,0:0:0:0:
475,192,35027,1,0,0:0:0:0:
256,192,35227,1,0,0:0:0:0:
402,192,35227,1,0,0:0:0:0:
402,192,35427,128,0,37027:0:0:0:0:
36,192,35427,1,0,0:0:0:0:
475,192,35427,1,0,0:0:0:0:
256,192,35427,1,0,0:0:0:0:
182,192,35527,1,0,0:0:0:0:
109,192,35627,1,0,0:0:0:0:
182,192,35827,1,0,0:0:0:0:
329,192,35827,1,0,0:0:0:0:
109,192,36027,1,0,0:0:0:0:
256,192,36027,1,0,0:0:0:0:
51,192,36227,1,0,0:0:0:0:
182,192,36227,1,0,0:0:0:0:
256,192,36427,1,0,0:0:0:0:
109,192,36427,1,0,0:0:0:0:
182,192,36627,1,0,0:0:0:0:
329,192,36627,1,0,0:0:0:0:
109,192,36827,1,0,0:0:0:0:
256,192,36827,1,0,0:0:0:0:
36,192,37027,128,0,38627:0:0:0:0:
182,192,37027,1,0,0:0:0:0:
475,192,37027,1,0,0:0:0:0:
256,192,37127,1,0,0:0:0:0:
329,192,37227,1,0,0:0:0:0:
329,192,37427,1,0,0:0:0:0:
475,192,37427,1,0,0:0:0:0:
256,192,37627,1,0,0:0:0:0:
402,192,37627,1,0,0:0:0:0:
329,192,37827,1,0,0:0:0:0:
182,192,37827,1,0,0:0:0:0:
256,192,38027,1,0,0:0:0:0:
402,192,38027,1,0,0:0:0:0:
329,192,38227,1,0,0:0:0:0:
475,192,38227,1,0,0:0:0:0:
256,192,38427,1,0,0:0:0:0:
402,192,38427,1,0,0:0:0:0:
460,192,38627,1,0,0:0:0:0:
329,192,38627,1,0,0:0:0:0:
182,192,38627,128,0,40227:0:0:0:0:
402,192,38827,1,0,0:0:0:0:
256,192,38827,1,0,0:0:0:0:
329,192,39027,1,0,0:0:0:0:
109,192,39027,1,0,0:0:0:0:
402,192,39227,1,0,0:0:0:0:
256,192,39227,1,0,0:0:0:0:
402,192,39427,128,0,40227:0:0:0:0:
36,192,39427,1,0,0:0:0:0:
329,192,39427,1,0,0:0:0:0:
475,192,39427,1,0,0:0:0:0:
109,192,39627,1,0,0:0:0:0:
256,192,39627,1,0,0:0:0:0:
36,192,39827,1,0,0:0:0:0:
329,192,39827,1,0,0:0:0:0:
256,192,40027,1,0,0:0:0:0:
109,192,40027,1,0,0:0:0:0:
329,192,40227,128,0,41827:0:0:0:0:
36,192,40227,1,0,0:0:0:0:
475,192,40227,1,0,0:0:0:0:
109,192,40427,1,0,0:0:0:0:
256,192,40427,1,0,0:0:0:0:
182,192,40627,1,0,0:0:0:0:
402,192,40627,1,0,0:0:0:0:
109,192,40827,1,0,0:0:0:0:
256,192,40827,1,0,0:0:0:0:
153,192,41027,1,0,0:0:0:0:
109,192,41027,128,0,41827:0:0:0:0:
475,192,41027,1,0,0:0:0:0:
36,192,41027,1,0,0:0:0:0:
256,192,41227,1,0,0:0:0:0:
402,192,41227,1,0,0:0:0:0:
182,192,41427,1,0,0:0:0:0:
475,192,41427,1,0,0:0:0:0:
256,192,41627,1,0,0:0:0:0:
402,192,41627,1,0,0:0:0:0:
475,192,41827,128,0,43427:0:0:0:0:
36,192,41827,1,0,0:0:0:0:
182,192,41827,1,0,0:0:0:0:
109,192,42027,1,0,0:0:0:0:
256,192,42027,1,0,0:0:0:0:
182,192,42227,1,0,0:0:0:0:
329,192,42227,1,0,0:0:0:0:
256,192,42427,1,0,0:0:0:0:
109,192,42427,1,0,0:0:0:0:
329,192,42627,1,0,0:0:0:0:
36,192,42627,1,0,0:0:0:0:
182,192,42627,128,0,43427:0:0:0:0:
109,192,42827,1,0,0:0:0:0:
256,192,42827,1,0,0:0:0:0:
36,192,43027,1,0,0:0:0:0:
329,192,43027,1,0,0:0:0:0:
109,192,43227,1,0,0:0:0:0:
256,192,43227,1,0,0:0:0:0:
51,192,43427,1,0,0:0:0:0:
109,192,43427,128,0,45027:0:0:0:0:
329,192,43427,1,0,0:0:0:0:
256,192,43627,1,0,0:0:0:0:
402,192,43627,1,0,0:0:0:0:
329,192,43827,1,0,0:0:0:0:
182,192,43827,1,0,0:0:0:0:
256,192,44027,1,0,0:0:0:0:
402,192,44027,1,0,0:0:0:0:
51,192,44227,1,0,0:0:0:0:
329,192,44227,128,0,45027:0:0:0:0:
182,192,44227,1,0,0:0:0:0:
475,192,44227,1,0,0:0:0:0:
256,192,44427,1,0,0:0:0:0:
402,192,44427,1,0,0:0:0:0:
182,192,44627,1,0,0:0:0:0:
475,192,44627,1,0,0:0:0:0:
256,192,44827,1,0,0:0:0:0:
402,192,44827,1,0,0:0:0:0:
182,192,45027,1,0,0:0:0:0:
36,192,45027,1,0,0:0:0:0:
475,192,45027,1,0,0:0:0:0:
109,192,45427,1,0,0:0:0:0:
256,192,45427,1,0,0:0:0:0:
402,192,45427,1,0,0:0:0:0:
51,192,45627,1,0,0:0:0:0:
109,192,45627,1,0,0:0:0:0:
182,192,45627,1,0,0:0:0:0:
460,192,45827,1,0,0:0:0:0:
402,192,45827,1,0,0:0:0:0:
329,192,45827,1,0,0:0:0:0:
51,192,46027,1,0,0:0:0:0:
109,192,46027,1,0,0:0:0:0:
182,192,46027,1,0,0:0:0:0:
460,192,46227,1,0,0:0:0:0:
402,192,46227,1,0,0:0:0:0:
329,192,46227,1,0,0:0:0:0:
51,192,46427,1,0,0:0:0:0:
109,192,46427,1,0,0:0:0:0:
182,192,46427,1,0,0:0:0:0:
460,192,46627,1,0,0:0:0:0:
402,192,46627,1,0,0:0:0:0:
329,192,46627,1,0,0:0:0:0:
109,192,47027,1,0,0:0:0:0:
256,192,47027,1,0,0:0:0:0:
402,192,47027,1,0,0:0:0:0:
153,192,47227,1,0,0:0:0:0:
109,192,47227,1,0,0:0:0:0:
256,192,47227,1,0,0:0:0:0:
358,192,47427,1,0,0:0:0:0:
402,192,47427,1,0,0:0:0:0:
256,192,47427,1,0,0:0:0:0:
153,192,47627,1,0,0:0:0:0:
109,192,47627,1,0,0:0:0:0:
256,192,47627,1,0,0:0:0:0:
358,192,47827,1,0,0:0:0:0:
402,192,47827,1,0,0:0:0:0:
256,192,47827,1,0,0:0:0:0:
153,192,48027,1,0,0:0:0:0:
109,192,48027,1,0,0:0:0:0:
256,192,48027,1,0,0:0:0:0:
358,192,48227,1,0,0:0:0:0:
402,192,48227,1,0,0:0:0:0:
256,192,48227,1,0,0:0:0:0:
109,192,48627,1,0,0:0:0:0:
256,192,48627,1,0,0:0:0:0:
402,192,48627,1,0,0:0:0:0:
402,192,49027,1,0,0:0:0:0:
109,192,49027,1,0,0:0:0:0:
475,192,49027,1,0,0:0:0:0:
36,192,49027,1,0,0:0:0:0:
109,192,49427,1,0,0:0:0:0:
256,192,49427,1,0,0:0:0:0:
402,192,49427,1,0,0:0:0:0:
36,192,49527,1,0,0:0:0:0:
475,192,49527,1,0,0:0:0:0:
109,192,49627,1,0,0:0:0:0:
402,192,49627,1,0,0:0:0:0:
182,192,49727,1,0,0:0:0:0:
329,192,49727,1,0,0:0:0:0:
256,192,49827,1,0,0:0:0:0:
329,192,49927,1,0,0:0:0:0:
182,192,49927,1,0,0:0:0:0:
402,192,50027,1,0,0:0:0:0:
109,192,50027,1,0,0:0:0:0:
182,192,50127,1,0,0:0:0:0:
329,192,50127,1,0,0:0:0:0:
256,192,50227,1,0,0:0:0:0:
329,192,50327,1,0,0:0:0:0:
182,192,50327,1,0,0:0:0:0:
402,192,50427,1,0,0:0:0:0:
109,192,50427,1,0,0:0:0:0:
329,192,50527,1,0,0:0:0:0:
182,192,50527,1,0,0:0:0:0:
256,192,50627,1,0,0:0:0:0:
182,192,50727,1,0,0:0:0:0:
329,192,50727,1,0,0:0:0:0:
109,192,50827,1,0,0:0:0:0:
402,192,50827,1,0,0:0:0:0:
182,192,50927,1,0,0:0:0:0:
329,192,50927,1,0,0:0:0:0:
256,192,51027,1,0,0:0:0:0:
329,192,51127,1,0,0:0:0:0:
182,192,51127,1,0,0:0:0:0:
402,192,51227,1,0,0:0:0:0:
109,192,51227,1,0,0:0:0:0:
475,192,51327,1,0,0:0:0:0:
36,192,51327,1,0,0:0:0:0:
329,192,51427,1,0,0:0:0:0:
182,192,51427,1,0,0:0:0:0:
256,192,51527,1,0,0:0:0:0:
182,192,51627,1,0,0:0:0:0:
109,192,51727,1,0,0:0:0:0:
256,192,51727,1,0,0:0:0:0:
182,192,51827,1,0,0:0:0:0:
36,192,51827,1,0,0:0:0:0:
109,192,51927,1,0,0:0:0:0:
182,192,52027,1,0,0:0:0:0:
256,192,52127,1,0,0:0:0:0:
182,192,52227,128,0,53027:0:0:0:0:
36,192,52227,1,0,0:0:0:0:
329,192,52227,1,0,0:0:0:0:
402,192,52327,1,0,0:0:0:0:
475,192,52427,1,0,0:0:0:0:
402,192,52527,1,0,0:0:0:0:
329,192,52627,1,0,0:0:0:0:
402,192,52727,1,0,0:0:0:0:
475,192,52827,1,0,0:0:0:0:
402,192,52927,1,0,0:0:0:0:
358,192,53027,1,0,0:0:0:0:
36,192,53027,1,0,0:0:0:0:
109,192,53027,128,0,53827:0:0:0:0:
256,192,53127,1,0,0:0:0:0:
329,192,53227,1,0,0:0:0:0:
402,192,53327,1,0,0:0:0:0:
475,192,53427,1,0,0:0:0:0:
182,192,53427,1,0,0:0:0:0:
402,192,53527,1,0,0:0:0:0:
329,192,53627,1,0,0:0:0:0:
256,192,53727,1,0,0:0:0:0:
36,192,53827,128,0,54627:0:0:0:0:
182,192,53827,1,0,0:0:0:0:
256,192,53927,1,0,0:0:0:0:
329,192,54027,1,0,0:0:0:0:
256,192,54127,1,0,0:0:0:0:
402,192,54127,1,0,0:0:0:0:
182,192,54227,1,0,0:0:0:0:
329,192,54227,1,0,0:0:0:0:
256,192,54327,1,0,0:0:0:0:
329,192,54427,1,0,0:0:0:0:
256,192,54527,1,0,0:0:0:0:
153,192,54627,1,0,0:0:0:0:
475,192,54627,128,0,55427:0:0:0:0:
329,192,54627,1,0,0:0:0:0:
256,192,54727,1,0,0:0:0:0:
329,192,54827,1,0,0:0:0:0:
402,192,54927,1,0,0:0:0:0:
256,192,54927,1,0,0:0:0:0:
329,192,55027,1,0,0:0:0:0:
182,192,55027,1,0,0:0:0:0:
256,192,55127,1,0,0:0:0:0:
182,192,55227,1,0,0:0:0:0:
109,192,55327,1,0,0:0:0:0:
51,192,55427,1,0,0:0:0:0:
256,192,55427,128,0,56227:0:0:0:0:
182,192,55427,1,0,0:0:0:0:
402,192,55527,1,0,0:0:0:0:
329,192,55627,1,0,0:0:0:0:
182,192,55727,1,0,0:0:0:0:
109,192,55827,1,0,0:0:0:0:
36,192,55927,1,0,0:0:0:0:
402,192,56027,1,0,0:0:0:0:
475,192,56127,1,0,0:0:0:0:
329,192,56227,1,0,0:0:0:0:
153,192,56227,1,0,0:0:0:0:
109,192,56327,1,0,0:0:0:0:
402,192,56327,1,0,0:0:0:0:
36,192,56427,1,0,0:0:0:0:
475,192,56427,1,0,0:0:0:0:
402,192,56527,1,0,0:0:0:0:
109,192,56527,1,0,0:0:0:0:
182,192,56627,1,0,0:0:0:0:
329,192,56627,1,0,0:0:0:0:
109,192,56727,1,0,0:0:0:0:
402,192,56727,1,0,0:0:0:0:
36,192,56827,1,0,0:0:0:0:
475,192,56827,1,0,0:0:0:0:
109,192,56927,1,0,0:0:0:0:
402,192,56927,1,0,0:0:0:0:
182,192,57027,1,0,0:0:0:0:
329,192,57027,1,0,0:0:0:0:
475,192,57027,1,0,0:0:0:0:
36,192,57027,1,0,0:0:0:0:
256,192,57127,1,0,0:0:0:0:
182,192,57227,1,0,0:0:0:0:
329,192,57227,1,0,0:0:0:0:
475,192,57227,1,0,0:0:0:0:
36,192,57227,1,0,0:0:0:0:
109,192,57327,1,0,0:0:0:0:
402,192,57327,1,0,0:0:0:0:
475,192,57427,1,0,0:0:0:0:
36,192,57427,1,0,0:0:0:0:
182,192,57427,1,0,0:0:0:0:
329,192,57427,1,0,0:0:0:0:
402,192,57527,1,0,0:0:0:0:
109,192,57527,1,0,0:0:0:0:
182,192,57627,1,0,0:0:0:0:
329,192,57627,1,0,0:0:0:0:
256,192,57727,1,0,0:0:0:0:
475,192,57827,1,0,0:0:0:0:
329,192,57827,1,0,0:0:0:0:
402,192,57927,1,0,0:0:0:0:
36,192,58027,1,0,0:0:0:0:
329,192,58027,1,0,0:0:0:0:
182,192,58027,1,0,0:0:0:0:
109,192,58127,1,0,0:0:0:0:
402,192,58227,1,0,0:0:0:0:
182,192,58227,1,0,0:0:0:0:
475,192,58227,1,0,0:0:0:0:
329,192,58327,1,0,0:0:0:0:
256,192,58427,1,0,0:0:0:0:
109,192,58427,1,0,0:0:0:0:
36,192,58427,1,0,0:0:0:0:
182,192,58527,1,0,0:0:0:0:
475,192,58627,1,0,0:0:0:0:
256,192,58627,1,0,0:0:0:0:
329,192,58627,1,0,0:0:0:0:
402,192,58727,1,0,0:0:0:0:
329,192,58827,1,0,0:0:0:0:
36,192,58827,1,0,0:0:0:0:
182,192,58827,1,0,0:0:0:0:
109,192,58927,1,0,0:0:0:0:
182,192,59027,1,0,0:0:0:0:
402,192,59027,1,0,0:0:0:0:
475,192,59027,1,0,0:0:0:0:
329,192,59127,1,0,0:0:0:0:
109,192,59227,1,0,0:0:0:0:
256,192,59227,1,0,0:0:0:0:
36,192,59227,1,0,0:0:0:0:
182,192,59327,1,0,0:0:0:0:
36,192,59427,1,0,0:0:0:0:
256,192,59427,1,0,0:0:0:0:
475,192,59427,1,0,0:0:0:0:
109,192,59527,1,0,0:0:0:0:
182,192,59627,1,0,0:0:0:0:
329,192,59627,1,0,0:0:0:0:
256,192,59727,1,0,0:0:0:0:
329,192,59827,1,0,0:0:0:0:
475,192,59827,1,0,0:0:0:0:
402,192,59927,1,0,0:0:0:0:
475,192,60027,1,0,0:0:0:0:
329,192,60027,1,0,0:0:0:0:
402,192,60127,1,0,0:0:0:0:
329,192,60227,1,0,0:0:0:0:
475,192,60227,1,0,0:0:0:0:
36,192,60227,1,0,0:0:0:0:
402,192,60327,1,0,0:0:0:0:
329,192,60427,1,0,0:0:0:0:
182,192,60427,1,0,0:0:0:0:
256,192,60527,1,0,0:0:0:0:
182,192,60627,1,0,0:0:0:0:
36,192,60627,1,0,0:0:0:0:
109,192,60727,1,0,0:0:0:0:
36,192,60827,1,0,0:0:0:0:
182,192,60827,1,0,0:0:0:0:
109,192,60927,1,0,0:0:0:0:
182,192,61027,1,0,0:0:0:0:
256,192,61127,1,0,0:0:0:0:
329,192,61227,1,0,0:0:0:0:
402,192,61327,1,0,0:0:0:0:
475,192,61427,1,0,0:0:0:0:
402,192,61527,1,0,0:0:0:0:
329,192,61627,1,0,0:0:0:0:
402,192,61727,1,0,0:0:0:0:
109,192,61827,1,0,0:0:0:0:
475,192,61827,1,0,0:0:0:0:
182,192,61927,1,0,0:0:0:0:
256,192,62027,1,0,0:0:0:0:
329,192,62127,1,0,0:0:0:0:
402,192,62227,1,0,0:0:0:0:
329,192,62327,1,0,0:0:0:0:
256,192,62427,1,0,0:0:0:0:
329,192,62527,1,0,0:0:0:0:
36,192,62627,1,0,0:0:0:0:
402,192,62627,1,0,0:0:0:0:
109,192,62727,1,0,0:0:0:0:
182,192,62827,1,0,0:0:0:0:
256,192,62927,1,0,0:0:0:0:
329,192,63027,1,0,0:0:0:0:
256,192,63127,1,0,0:0:0:0:
182,192,63227,1,0,0:0:0:0:
256,192,63327,1,0,0:0:0:0:
475,192,63427,1,0,0:0:0:0:
329,192,63427,1,0,0:0:0:0:
402,192,63527,1,0,0:0:0:0:
329,192,63627,1,0,0:0:0:0:
256,192,63727,1,0,0:0:0:0:
182,192,63827,1,0,0:0:0:0:
109,192,63927,1,0,0:0:0:0:
36,192,64027,1,0,0:0:0:0:
109,192,64127,1,0,0:0:0:0:
182,192,64227,128,0,65827:0:0:0:0:
36,192,64227,128,0,65827:0:0:0:0:
402,192,64227,1,0,0:0:0:0:
475,192,64227,1,0,0:0:0:0:
329,192,64227,1,0,0:0:0:0:
329,192,64627,1,0,0:0:0:0:
256,192,64627,1,0,0:0:0:0:
109,192,64627,1,0,0:0:0:0:
460,192,65027,1,0,0:0:0:0:
402,192,65027,1,0,0:0:0:0:
329,192,65027,1,0,0:0:0:0:
256,192,65427,1,0,0:0:0:0:
329,192,65427,1,0,0:0:0:0:
109,192,65427,1,0,0:0:0:0:
460,192,65827,128,0,67027:0:0:0:0:
329,192,65827,128,0,67027:0:0:0:0:
51,192,66227,1,0,0:0:0:0:
109,192,66227,1,0,0:0:0:0:
182,192,66227,1,0,0:0:0:0:
182,192,66627,1,0,0:0:0:0:
256,192,66627,1,0,0:0:0:0:
402,192,66627,1,0,0:0:0:0:
109,192,67027,1,0,0:0:0:0:
36,192,67027,1,0,0:0:0:0:
182,192,67027,1,0,0:0:0:0:
460,192,67427,1,0,0:0:0:0:
402,192,67427,1,0,0:0:0:0:
329,192,67527,1,0,0:0:0:0:
256,192,67527,1,0,0:0:0:0:
182,192,67627,1,0,0:0:0:0:
109,192,67627,1,0,0:0:0:0:
109,192,67827,1,0,0:0:0:0:
256,192,67827,1,0,0:0:0:0:
402,192,67827,1,0,0:0:0:0:
109,192,68027,1,0,0:0:0:0:
256,192,68027,1,0,0:0:0:0:
402,192,68027,1,0,0:0:0:0:
109,192,68227,1,0,0:0:0:0:
256,192,68227,1,0,0:0:0:0:
402,192,68227,1,0,0:0:0:0:
182,192,68427,1,0,0:0:0:0:
109,192,68527,1,0,0:0:0:0:
256,192,68627,1,0,0:0:0:0:
36,192,68627,1,0,0:0:0:0:
182,192,68727,1,0,0:0:0:0:
329,192,68727,1,0,0:0:0:0:
402,192,68827,1,0,0:0:0:0:
256,192,68827,1,0,0:0:0:0:
329,192,68927,1,0,0:0:0:0:
460,192,69027,1,0,0:0:0:0:
402,192,69027,1,0,0:0:0:0:
329,192,69127,1,0,0:0:0:0:
256,192,69127,1,0,0:0:0:0:
182,192,69227,1,0,0:0:0:0:
109,192,69227,1,0,0:0:0:0:
109,192,69427,1,0,0:0:0:0:
256,192,69427,1,0,0:0:0:0:
402,192,69427,1,0,0:0:0:0:
109,192,69627,1,0,0:0:0:0:
256,192,69627,1,0,0:0:0:0:
402,192,69627,1,0,0:0:0:0:
109,192,69827,1,0,0:0:0:0:
256,192,69827,1,0,0:0:0:0:
402,192,69827,1,0,0:0:0:0:
256,192,70027,1,0,0:0:0:0:
182,192,70127,1,0,0:0:0:0:
109,192,70227,1,0,0:0:0:0:
329,192,70227,1,0,0:0:0:0:
402,192,70327,1,0,0:0:0:0:
256,192,70327,1,0,0:0:0:0:
329,192,70427,1,0,0:0:0:0:
475,192,70427,1,0,0:0:0:0:
402,192,70527,1,0,0:0:0:0:
109,192,70627,128,0,72227:0:0:0:0:
475,192,70627,1,0,0:0:0:0:
402,192,70727,1,0,0:0:0:0:
329,192,70827,1,0,0:0:0:0:
256,192,70927,1,0,0:0:0:0:
402,192,70927,1,0,0:0:0:0:
475,192,71027,1,0,0:0:0:0:
182,192,71027,1,0,0:0:0:0:
329,192,71027,1,0,0:0:0:0:
402,192,71127,1,0,0:0:0:0:
329,192,71227,1,0,0:0:0:0:
256,192,71327,1,0,0:0:0:0:
182,192,71427,1,0,0:0:0:0:
36,192,71427,1,0,0:0:0:0:
256,192,71527,1,0,0:0:0:0:
329,192,71627,1,0,0:0:0:0:
402,192,71727,1,0,0:0:0:0:
475,192,71827,1,0,0:0:0:0:
329,192,71827,1,0,0:0:0:0:
402,192,71927,1,0,0:0:0:0:
329,192,72027,1,0,0:0:0:0:
256,192,72127,1,0,0:0:0:0:
402,192,72227,128,0,73827:0:0:0:0:
182,192,72227,1,0,0:0:0:0:
329,192,72227,1,0,0:0:0:0:
256,192,72327,1,0,0:0:0:0:
182,192,72427,1,0,0:0:0:0:
109,192,72527,1,0,0:0:0:0:
256,192,72527,1,0,0:0:0:0:
182,192,72627,1,0,0:0:0:0:
329,192,72627,1,0,0:0:0:0:
36,192,72627,1,0,0:0:0:0:
475,192,72627,1,0,0:0:0:0:
256,192,72727,1,0,0:0:0:0:
182,192,72827,1,0,0:0:0:0:
109,192,72927,1,0,0:0:0:0:
36,192,73027,1,0,0:0:0:0:
109,192,73127,1,0,0:0:0:0:
182,192,73227,1,0,0:0:0:0:
256,192,73327,1,0,0:0:0:0:
182,192,73427,1,0,0:0:0:0:
329,192,73427,1,0,0:0:0:0:
256,192,73527,1,0,0:0:0:0:
182,192,73627,1,0,0:0:0:0:
109,192,73727,1,0,0:0:0:0:
153,192,73827,128,0,75427:0:0:0:0:
36,192,73827,1,0,0:0:0:0:
329,192,73827,1,0,0:0:0:0:
402,192,73927,1,0,0:0:0:0:
475,192,74027,1,0,0:0:0:0:
402,192,74127,1,0,0:0:0:0:
36,192,74127,1,0,0:0:0:0:
329,192,74227,1,0,0:0:0:0:
475,192,74227,1,0,0:0:0:0:
109,192,74227,1,0,0:0:0:0:
402,192,74327,1,0,0:0:0:0:
329,192,74427,1,0,0:0:0:0:
256,192,74527,1,0,0:0:0:0:
329,192,74627,1,0,0:0:0:0:
109,192,74627,1,0,0:0:0:0:
36,192,74627,1,0,0:0:0:0:
402,192,74727,1,0,0:0:0:0:
475,192,74827,1,0,0:0:0:0:
402,192,74927,1,0,0:0:0:0:
329,192,75027,1,0,0:0:0:0:
475,192,75027,1,0,0:0:0:0:
402,192,75127,1,0,0:0:0:0:
329,192,75227,1,0,0:0:0:0:
256,192,75327,1,0,0:0:0:0:
256,192,75427,128,0,77027:0:0:0:0:
36,192,75427,1,0,0:0:0:0:
402,192,75427,1,0,0:0:0:0:
109,192,75527,1,0,0:0:0:0:
182,192,75627,1,0,0:0:0:0:
109,192,75727,1,0,0:0:0:0:
329,192,75727,1,0,0:0:0:0:
36,192,75827,1,0,0:0:0:0:
402,192,75827,1,0,0:0:0:0:
475,192,75827,1,0,0:0:0:0:
109,192,75927,1,0,0:0:0:0:
182,192,76027,1,0,0:0:0:0:
109,192,76127,1,0,0:0:0:0:
475,192,76227,1,0,0:0:0:0:
36,192,76227,1,0,0:0:0:0:
402,192,76327,1,0,0:0:0:0:
329,192,76427,1,0,0:0:0:0:
402,192,76527,1,0,0:0:0:0:
182,192,76527,1,0,0:0:0:0:
109,192,76627,1,0,0:0:0:0:
475,192,76627,1,0,0:0:0:0:
402,192,76727,1,0,0:0:0:0:
329,192,76827,1,0,0:0:0:0:
402,192,76927,1,0,0:0:0:0:
51,192,77027,1,0,0:0:0:0:
109,192,77027,1,0,0:0:0:0:
475,192,77027,1,0,0:0:0:0:
182,192,77127,1,0,0:0:0:0:
153,192,77427,1,0,0:0:0:0:
109,192,77427,1,0,0:0:0:0:
256,192,77527,1,0,0:0:0:0:
256,192,77827,1,0,0:0:0:0:
182,192,77827,1,0,0:0:0:0:
329,192,77927,1,0,0:0:0:0:
358,192,78227,1,0,0:0:0:0:
256,192,78227,1,0,0:0:0:0:
402,192,78327,1,0,0:0:0:0:
329,192,78627,1,0,0:0:0:0:
402,192,78627,1,0,0:0:0:0:
256,192,78727,1,0,0:0:0:0:
358,192,79027,1,0,0:0:0:0:
256,192,79027,1,0,0:0:0:0:
182,192,79127,1,0,0:0:0:0:
256,192,79427,1,0,0:0:0:0:
182,192,79427,1,0,0:0:0:0:
109,192,79527,1,0,0:0:0:0:
109,192,79827,1,0,0:0:0:0:
182,192,79827,1,0,0:0:0:0:
36,192,79927,1,0,0:0:0:0:
109,192,80227,1,0,0:0:0:0:
475,192,80227,1,0,0:0:0:0:
402,192,80327,1,0,0:0:0:0:
109,192,80427,1,0,0:0:0:0:
329,192,80427,1,0,0:0:0:0:
402,192,80527,1,0,0:0:0:0:
182,192,80627,1,0,0:0:0:0:
256,192,80727,1,0,0:0:0:0:
109,192,80827,1,0,0:0:0:0:
329,192,80827,1,0,0:0:0:0:
256,192,80927,1,0,0:0:0:0:
475,192,81027,1,0,0:0:0:0:
402,192,81127,1,0,0:0:0:0:
109,192,81227,1,0,0:0:0:0:
329,192,81227,1,0,0:0:0:0:
402,192,81327,1,0,0:0:0:0:
182,192,81427,1,0,0:0:0:0:
256,192,81527,1,0,0:0:0:0:
36,192,81627,1,0,0:0:0:0:
329,192,81627,1,0,0:0:0:0:
256,192,81727,1,0,0:0:0:0:
475,192,81827,1,0,0:0:0:0:
402,192,81927,1,0,0:0:0:0:
109,192,82027,1,0,0:0:0:0:
329,192,82027,1,0,0:0:0:0:
402,192,82127,1,0,0:0:0:0:
182,192,82227,1,0,0:0:0:0:
256,192,82327,1,0,0:0:0:0:
36,192,82427,1,0,0:0:0:0:
329,192,82427,1,0,0:0:0:0:
256,192,82527,1,0,0:0:0:0:
475,192,82627,1,0,0:0:0:0:
402,192,82727,1,0,0:0:0:0:
109,192,82827,1,0,0:0:0:0:
329,192,82827,1,0,0:0:0:0:
402,192,82927,1,0,0:0:0:0:
256,192,83027,1,0,0:0:0:0:
329,192,83127,1,0,0:0:0:0:
182,192,83227,1,0,0:0:0:0:
402,192,83227,1,0,0:0:0:0:
329,192,83327,1,0,0:0:0:0:
51,192,83427,1,0,0:0:0:0:
109,192,83427,1,0,0:0:0:0:
182,192,83427,1,0,0:0:0:0:
256,192,83527,1,0,0:0:0:0:
109,192,83627,1,0,0:0:0:0:
36,192,83727,1,0,0:0:0:0:
109,192,83827,1,0,0:0:0:0:
182,192,83827,1,0,0:0:0:0:
256,192,83827,1,0,0:0:0:0:
329,192,83927,1,0,0:0:0:0:
182,192,84027,1,0,0:0:0:0:
109,192,84127,1,0,0:0:0:0:
256,192,84227,1,0,0:0:0:0:
182,192,84227,1,0,0:0:0:0:
329,192,84227,1,0,0:0:0:0:
402,192,84327,1,0,0:0:0:0:
256,192,84427,1,0,0:0:0:0:
182,192,84527,1,0,0:0:0:0:
329,192,84627,1,0,0:0:0:0:
256,192,84627,1,0,0:0:0:0:
402,192,84627,1,0,0:0:0:0:
475,192,84727,1,0,0:0:0:0:
329,192,84827,1,0,0:0:0:0:
256,192,84927,1,0,0:0:0:0:
329,192,85027,1,0,0:0:0:0:
402,192,85027,1,0,0:0:0:0:
475,192,85027,1,0,0:0:0:0:
256,192,85127,1,0,0:0:0:0:
402,192,85227,1,0,0:0:0:0:
475,192,85327,1,0,0:0:0:0:
358,192,85427,1,0,0:0:0:0:
256,192,85427,1,0,0:0:0:0:
402,192,85427,1,0,0:0:0:0:
182,192,85527,1,0,0:0:0:0:
329,192,85627,1,0,0:0:0:0:
402,192,85727,1,0,0:0:0:0:
256,192,85827,1,0,0:0:0:0:
182,192,85827,1,0,0:0:0:0:
329,192,85827,1,0,0:0:0:0:
109,192,85927,1,0,0:0:0:0:
256,192,86027,1,0,0:0:0:0:
329,192,86127,1,0,0:0:0:0:
153,192,86227,1,0,0:0:0:0:
109,192,86227,1,0,0:0:0:0:
256,192,86227,1,0,0:0:0:0:
36,192,86327,1,0,0:0:0:0:
182,192,86427,1,0,0:0:0:0:
256,192,86527,1,0,0:0:0:0:
475,192,86627,1,0,0:0:0:0:
182,192,86627,1,0,0:0:0:0:
329,192,86627,1,0,0:0:0:0:
109,192,86727,1,0,0:0:0:0:
256,192,86727,1,0,0:0:0:0:
475,192,86827,1,0,0:0:0:0:
36,192,86827,1,0,0:0:0:0:
182,192,86827,1,0,0:0:0:0:
109,192,86927,1,0,0:0:0:0:
182,192,87027,1,0,0:0:0:0:
36,192,87027,1,0,0:0:0:0:
256,192,87127,1,0,0:0:0:0:
109,192,87127,1,0,0:0:0:0:
475,192,87227,1,0,0:0:0:0:
182,192,87227,1,0,0:0:0:0:
329,192,87227,1,0,0:0:0:0:
256,192,87327,1,0,0:0:0:0:
182,192,87427,1,0,0:0:0:0:
329,192,87427,1,0,0:0:0:0:
109,192,87527,1,0,0:0:0:0:
256,192,87527,1,0,0:0:0:0:
475,192,87627,1,0,0:0:0:0:
182,192,87627,1,0,0:0:0:0:
329,192,87627,1,0,0:0:0:0:
109,192,87727,1,0,0:0:0:0:
256,192,87727,1,0,0:0:0:0:
182,192,87827,1,0,0:0:0:0:
36,192,87827,1,0,0:0:0:0:
109,192,87927,1,0,0:0:0:0:
256,192,87927,1,0,0:0:0:0:
475,192,88027,1,0,0:0:0:0:
329,192,88027,1,0,0:0:0:0:
182,192,88027,1,0,0:0:0:0:
256,192,88127,1,0,0:0:0:0:
402,192,88127,1,0,0:0:0:0:
182,192,88227,1,0,0:0:0:0:
329,192,88227,1,0,0:0:0:0:
402,192,88327,1,0,0:0:0:0:
256,192,88327,1,0,0:0:0:0:
36,192,88427,1,0,0:0:0:0:
329,192,88427,1,0,0:0:0:0:
475,192,88427,1,0,0:0:0:0:
402,192,88527,1,0,0:0:0:0:
329,192,88627,1,0,0:0:0:0:
475,192,88627,1,0,0:0:0:0:
256,192,88727,1,0,0:0:0:0:
402,192,88727,1,0,0:0:0:0:
36,192,88827,1,0,0:0:0:0:
329,192,88827,1,0,0:0:0:0:
182,192,88827,1,0,0:0:0:0:
256,192,88927,1,0,0:0:0:0:
402,192,88927,1,0,0:0:0:0:
475,192,89027,1,0,0:0:0:0:
329,192,89027,1,0,0:0:0:0:
182,192,89027,1,0,0:0:0:0:
402,192,89127,1,0,0:0:0:0:
256,192,89127,1,0,0:0:0:0:
36,192,89227,1,0,0:0:0:0:
475,192,89227,1,0,0:0:0:0:
329,192,89227,1,0,0:0:0:0:
402,192,89327,1,0,0:0:0:0:
475,192,89427,1,0,0:0:0:0:
329,192,89427,1,0,0:0:0:0:
256,192,89527,1,0,0:0:0:0:
402,192,89527,1,0,0:0:0:0:
36,192,89627,1,0,0:0:0:0:
329,192,89627,1,0,0:0:0:0:
182,192,89627,1,0,0:0:0:0:
402,192,89727,1,0,0:0:0:0:
256,192,89727,1,0,0:0:0:0:
182,192,89827,128,0,90227:0:0:0:0:
329,192,89827,1,0,0:0:0:0:
475,192,89827,1,0,0:0:0:0:
109,192,89927,1,0,0:0:0:0:
256,192,89927,1,0,0:0:0:0:
36,192,90027,1,0,0:0:0:0:
109,192,90127,1,0,0:0:0:0:
256,192,90127,1,0,0:0:0:0:
329,192,90227,128,0,90627:0:0:0:0:
402,192,90327,1,0,0:0:0:0:
256,192,90327,1,0,0:0:0:0:
475,192,90427,1,0,0:0:0:0:
256,192,90527,1,0,0:0:0:0:
402,192,90527,1,0,0:0:0:0:
182,192,90627,1,0,0:0:0:0:
36,192,90627,128,0,91027:0:0:0:0:
109,192,90727,1,0,0:0:0:0:
256,192,90727,1,0,0:0:0:0:
182,192,90827,1,0,0:0:0:0:
109,192,90927,1,0,0:0:0:0:
256,192,90927,1,0,0:0:0:0:
256,192,91027,128,0,91427:0:0:0:0:
329,192,91027,1,0,0:0:0:0:
182,192,91027,1,0,0:0:0:0:
402,192,91127,1,0,0:0:0:0:
475,192,91227,1,0,0:0:0:0:
329,192,91227,1,0,0:0:0:0:
402,192,91327,1,0,0:0:0:0:
475,192,91427,128,0,91827:0:0:0:0:
182,192,91427,1,0,0:0:0:0:
329,192,91427,1,0,0:0:0:0:
109,192,91527,1,0,0:0:0:0:
256,192,91527,1,0,0:0:0:0:
36,192,91627,1,0,0:0:0:0:
182,192,91627,1,0,0:0:0:0:
109,192,91727,1,0,0:0:0:0:
256,192,91727,1,0,0:0:0:0:
329,192,91827,128,0,92227:0:0:0:0:
182,192,91827,1,0,0:0:0:0:
402,192,91927,1,0,0:0:0:0:
256,192,91927,1,0,0:0:0:0:
475,192,92027,1,0,0:0:0:0:
402,192,92127,1,0,0:0:0:0:
256,192,92127,1,0,0:0:0:0:
182,192,92227,128,0,92627:0:0:0:0:
109,192,92327,1,0,0:0:0:0:
256,192,92327,1,0,0:0:0:0:
36,192,92427,1,0,0:0:0:0:
109,192,92527,1,0,0:0:0:0:
256,192,92527,1,0,0:0:0:0:
36,192,92627,128,0,93027:0:0:0:0:
329,192,92627,1,0,0:0:0:0:
402,192,92727,1,0,0:0:0:0:
256,192,92727,1,0,0:0:0:0:
329,192,92827,1,0,0:0:0:0:
475,192,92827,1,0,0:0:0:0:
256,192,92927,1,0,0:0:0:0:
402,192,92927,1,0,0:0:0:0:
329,192,93027,1,0,0:0:0:0:
182,192,93027,1,0,0:0:0:0:
475,192,93027,1,0,0:0:0:0:
256,192,93127,1,0,0:0:0:0:
109,192,93127,1,0,0:0:0:0:
475,192,93227,1,0,0:0:0:0:
36,192,93227,1,0,0:0:0:0:
182,192,93227,1,0,0:0:0:0:
109,192,93327,1,0,0:0:0:0:
36,192,93427,1,0,0:0:0:0:
182,192,93427,1,0,0:0:0:0:
256,192,93527,1,0,0:0:0:0:
109,192,93527,1,0,0:0:0:0:
475,192,93627,1,0,0:0:0:0:
329,192,93627,1,0,0:0:0:0:
182,192,93627,1,0,0:0:0:0:
256,192,93727,1,0,0:0:0:0:
329,192,93827,1,0,0:0:0:0:
182,192,93827,1,0,0:0:0:0:
109,192,93927,1,0,0:0:0:0:
256,192,93927,1,0,0:0:0:0:
475,192,94027,1,0,0:0:0:0:
182,192,94027,1,0,0:0:0:0:
329,192,94027,1,0,0:0:0:0:
109,192,94127,1,0,0:0:0:0:
256,192,94127,1,0,0:0:0:0:
36,192,94227,1,0,0:0:0:0:
182,192,94227,1,0,0:0:0:0:
256,192,94327,1,0,0:0:0:0:
109,192,94327,1,0,0:0:0:0:
475,192,94427,1,0,0:0:0:0:
182,192,94427,1,0,0:0:0:0:
329,192,94427,1,0,0:0:0:0:
256,192,94527,1,0,0:0:0:0:
402,192,94527,1,0,0:0:0:0:
182,192,94627,1,0,0:0:0:0:
329,192,94627,1,0,0:0:0:0:
256,192,94727,1,0,0:0:0:0:
402,192,94727,1,0,0:0:0:0:
329,192,94827,1,0,0:0:0:0:
475,192,94827,1,0,0:0:0:0:
36,192,94827,1,0,0:0:0:0:
402,192,94927,1,0,0:0:0:0:
329,192,95027,1,0,0:0:0:0:
475,192,95027,1,0,0:0:0:0:
256,192,95127,1,0,0:0:0:0:
402,192,95127,1,0,0:0:0:0:
36,192,95227,1,0,0:0:0:0:
329,192,95227,1,0,0:0:0:0:
182,192,95227,1,0,0:0:0:0:
256,192,95327,1,0,0:0:0:0:
402,192,95327,1,0,0:0:0:0:
329,192,95427,1,0,0:0:0:0:
182,192,95427,1,0,0:0:0:0:
475,192,95427,1,0,0:0:0:0:
402,192,95527,1,0,0:0:0:0:
256,192,95527,1,0,0:0:0:0:
36,192,95627,1,0,0:0:0:0:
329,192,95627,1,0,0:0:0:0:
475,192,95627,1,0,0:0:0:0:
402,192,95727,1,0,0:0:0:0:
475,192,95827,1,0,0:0:0:0:
329,192,95827,1,0,0:0:0:0:
402,192,95927,1,0,0:0:0:0:
256,192,95927,1,0,0:0:0:0:
36,192,96027,1,0,0:0:0:0:
182,192,96027,1,0,0:0:0:0:
329,192,96027,1,0,0:0:0:0:
402,192,96127,1,0,0:0:0:0:
256,192,96127,1,0,0:0:0:0:
402,192,96227,128,0,96627:0:0:0:0:
329,192,96227,1,0,0:0:0:0:
475,192,96227,1,0,0:0:0:0:
256,192,96327,1,0,0:0:0:0:
182,192,96427,1,0,0:0:0:0:
329,192,96627,128,0,97027:0:0:0:0:
256,192,96627,1,0,0:0:0:0:
475,192,96627,1,0,0:0:0:0:
182,192,96727,1,0,0:0:0:0:
109,192,96827,1,0,0:0:0:0:
256,192,97027,128,0,97427:0:0:0:0:
182,192,97027,1,0,0:0:0:0:
402,192,97027,1,0,0:0:0:0:
109,192,97127,1,0,0:0:0:0:
36,192,97227,1,0,0:0:0:0:
182,192,97427,128,0,97827:0:0:0:0:
329,192,97427,1,0,0:0:0:0:
109,192,97427,1,0,0:0:0:0:
402,192,97527,1,0,0:0:0:0:
475,192,97627,1,0,0:0:0:0:
256,192,97827,128,0,98227:0:0:0:0:
109,192,97827,1,0,0:0:0:0:
329,192,97827,1,0,0:0:0:0:
402,192,97927,1,0,0:0:0:0:
475,192,98027,1,0,0:0:0:0:
182,192,98227,128,0,98627:0:0:0:0:
329,192,98227,1,0,0:0:0:0:
109,192,98227,1,0,0:0:0:0:
402,192,98327,1,0,0:0:0:0:
475,192,98427,1,0,0:0:0:0:
109,192,98627,128,0,99027:0:0:0:0:
36,192,98627,1,0,0:0:0:0:
256,192,98627,1,0,0:0:0:0:
329,192,98727,1,0,0:0:0:0:
402,192,98827,1,0,0:0:0:0:
36,192,99027,128,0,99427:0:0:0:0:
182,192,99027,1,0,0:0:0:0:
256,192,99127,1,0,0:0:0:0:
329,192,99227,1,0,0:0:0:0:
358,192,99427,1,0,0:0:0:0:
402,192,99427,128,0,99827:0:0:0:0:
109,192,99427,1,0,0:0:0:0:
475,192,99427,1,0,0:0:0:0:
256,192,99527,1,0,0:0:0:0:
182,192,99827,128,0,100227:0:0:0:0:
256,192,99827,1,0,0:0:0:0:
109,192,99827,1,0,0:0:0:0:
36,192,99927,1,0,0:0:0:0:
329,192,100227,128,0,100627:0:0:0:0:
256,192,100227,1,0,0:0:0:0:
402,192,100227,1,0,0:0:0:0:
475,192,100327,1,0,0:0:0:0:
109,192,100627,128,0,101027:0:0:0:0:
182,192,100627,1,0,0:0:0:0:
36,192,100627,1,0,0:0:0:0:
256,192,100727,1,0,0:0:0:0:
51,192,101027,1,0,0:0:0:0:
256,192,101227,1,0,0:0:0:0:
109,192,101227,1,0,0:0:0:0:
36,192,101227,1,0,0:0:0:0:
182,192,101327,1,0,0:0:0:0:
109,192,101427,1,0,0:0:0:0:
329,192,101627,1,0,0:0:0:0:
182,192,101627,1,0,0:0:0:0:
109,192,101627,1,0,0:0:0:0:
256,192,101727,1,0,0:0:0:0:
182,192,101827,1,0,0:0:0:0:
402,192,102027,1,0,0:0:0:0:
256,192,102027,1,0,0:0:0:0:
182,192,102027,1,0,0:0:0:0:
329,192,102127,1,0,0:0:0:0:
460,192,102227,1,0,0:0:0:0:
256,192,102227,1,0,0:0:0:0:
402,192,102327,1,0,0:0:0:0:
329,192,102427,1,0,0:0:0:0:
182,192,102427,1,0,0:0:0:0:
109,192,102427,1,0,0:0:0:0:
256,192,102527,1,0,0:0:0:0:
51,192,102627,128,0,104227:0:0:0:0:
182,192,102627,1,0,0:0:0:0:
329,192,102627,1,0,0:0:0:0:
256,192,102827,1,0,0:0:0:0:
402,192,102827,1,0,0:0:0:0:
475,192,103027,1,0,0:0:0:0:
329,192,103027,1,0,0:0:0:0:
402,192,103227,1,0,0:0:0:0:
256,192,103227,1,0,0:0:0:0:
329,192,103427,1,0,0:0:0:0:
182,192,103427,1,0,0:0:0:0:
402,192,103527,1,0,0:0:0:0:
182,192,103627,1,0,0:0:0:0:
475,192,103627,1,0,0:0:0:0:
256,192,103727,1,0,0:0:0:0:
329,192,103827,1,0,0:0:0:0:
475,192,103827,1,0,0:0:0:0:
256,192,103927,1,0,0:0:0:0:
329,192,104027,1,0,0:0:0:0:
402,192,104127,1,0,0:0:0:0:
460,192,104227,128,0,105827:0:0:0:0:
329,192,104227,1,0,0:0:0:0:
182,192,104227,1,0,0:0:0:0:
256,192,104427,1,0,0:0:0:0:
109,192,104427,1,0,0:0:0:0:
36,192,104627,1,0,0:0:0:0:
182,192,104627,1,0,0:0:0:0:
109,192,104827,1,0,0:0:0:0:
256,192,104827,1,0,0:0:0:0:
182,192,105027,1,0,0:0:0:0:
329,192,105027,1,0,0:0:0:0:
109,192,105127,1,0,0:0:0:0:
36,192,105227,1,0,0:0:0:0:
329,192,105227,1,0,0:0:0:0:
256,192,105327,1,0,0:0:0:0:
182,192,105427,1,0,0:0:0:0:
36,192,105427,1,0,0:0:0:0:
256,192,105527,1,0,0:0:0:0:
182,192,105627,1,0,0:0:0:0:
109,192,105727,1,0,0:0:0:0:
182,192,105827,1,0,0:0:0:0:
402,192,105827,1,0,0:0:0:0:
109,192,105927,1,0,0:0:0:0:
329,192,105927,1,0,0:0:0:0:
36,192,106027,1,0,0:0:0:0:
256,192,106027,1,0,0:0:0:0:
402,192,106027,1,0,0:0:0:0:
36,192,106227,1,0,0:0:0:0:
256,192,106227,1,0,0:0:0:0:
402,192,106227,1,0,0:0:0:0:
329,192,106327,1,0,0:0:0:0:
36,192,106427,1,0,0:0:0:0:
402,192,106427,1,0,0:0:0:0:
36,192,106627,1,0,0:0:0:0:
329,192,106627,1,0,0:0:0:0:
475,192,106627,1,0,0:0:0:0:
256,192,106727,1,0,0:0:0:0:
402,192,106727,1,0,0:0:0:0:
182,192,106827,1,0,0:0:0:0:
329,192,106827,1,0,0:0:0:0:
182,192,107027,1,0,0:0:0:0:
329,192,107027,1,0,0:0:0:0:
256,192,107127,1,0,0:0:0:0:
402,192,107127,1,0,0:0:0:0:
329,192,107227,1,0,0:0:0:0:
475,192,107227,1,0,0:0:0:0:
256,192,107327,1,0,0:0:0:0:
182,192,107427,1,0,0:0:0:0:
402,192,107427,1,0,0:0:0:0:
109,192,107527,1,0,0:0:0:0:
329,192,107527,1,0,0:0:0:0:
36,192,107627,1,0,0:0:0:0:
256,192,107627,1,0,0:0:0:0:
402,192,107627,1,0,0:0:0:0:
36,192,107827,1,0,0:0:0:0:
402,192,107827,1,0,0:0:0:0:
256,192,107827,1,0,0:0:0:0:
329,192,107927,1,0,0:0:0:0:
36,192,108027,1,0,0:0:0:0:
402,192,108027,1,0,0:0:0:0:
36,192,108227,1,0,0:0:0:0:
475,192,108227,1,0,0:0:0:0:
329,192,108227,1,0,0:0:0:0:
256,192,108327,1,0,0:0:0:0:
402,192,108327,1,0,0:0:0:0:
329,192,108427,1,0,0:0:0:0:
182,192,108427,1,0,0:0:0:0:
182,192,108627,1,0,0:0:0:0:
36,192,108627,1,0,0:0:0:0:
256,192,108727,1,0,0:0:0:0:
109,192,108727,1,0,0:0:0:0:
329,192,108827,1,0,0:0:0:0:
182,192,108827,1,0,0:0:0:0:
256,192,108927,1,0,0:0:0:0:
51,192,109027,128,0,110627:0:0:0:0:
475,192,109027,1,0,0:0:0:0:
329,192,109027,1,0,0:0:0:0:
402,192,109127,1,0,0:0:0:0:
329,192,109227,1,0,0:0:0:0:
402,192,109327,1,0,0:0:0:0:
256,192,109327,1,0,0:0:0:0:
182,192,109427,1,0,0:0:0:0:
475,192,109427,1,0,0:0:0:0:
256,192,109527,1,0,0:0:0:0:
402,192,109527,1,0,0:0:0:0:
329,192,109627,1,0,0:0:0:0:
402,192,109727,1,0,0:0:0:0:
475,192,109827,1,0,0:0:0:0:
402,192,109927,1,0,0:0:0:0:
329,192,110027,1,0,0:0:0:0:
402,192,110127,1,0,0:0:0:0:
256,192,110127,1,0,0:0:0:0:
182,192,110227,1,0,0:0:0:0:
475,192,110227,1,0,0:0:0:0:
256,192,110327,1,0,0:0:0:0:
402,192,110327,1,0,0:0:0:0:
329,192,110427,1,0,0:0:0:0:
256,192,110527,1,0,0:0:0:0:
460,192,110627,128,0,112227:0:0:0:0:
329,192,110627,1,0,0:0:0:0:
182,192,110627,1,0,0:0:0:0:
256,192,110727,1,0,0:0:0:0:
182,192,110827,1,0,0:0:0:0:
109,192,110927,1,0,0:0:0:0:
256,192,110927,1,0,0:0:0:0:
36,192,111027,1,0,0:0:0:0:
329,192,111027,1,0,0:0:0:0:
109,192,111127,1,0,0:0:0:0:
256,192,111127,1,0,0:0:0:0:
182,192,111227,1,0,0:0:0:0:
109,192,111327,1,0,0:0:0:0:
36,192,111427,1,0,0:0:0:0:
109,192,111527,1,0,0:0:0:0:
182,192,111627,1,0,0:0:0:0:
109,192,111727,1,0,0:0:0:0:
256,192,111727,1,0,0:0:0:0:
36,192,111827,1,0,0:0:0:0:
329,192,111827,1,0,0:0:0:0:
109,192,111927,1,0,0:0:0:0:
256,192,111927,1,0,0:0:0:0:
182,192,112027,1,0,0:0:0:0:
256,192,112127,1,0,0:0:0:0:
329,192,112227,1,0,0:0:0:0:
182,192,112227,1,0,0:0:0:0:
256,192,112327,1,0,0:0:0:0:
182,192,112427,1,0,0:0:0:0:
256,192,112527,1,0,0:0:0:0:
36,192,112627,1,0,0:0:0:0:
182,192,112627,1,0,0:0:0:0:
109,192,112727,1,0,0:0:0:0:
182,192,112827,1,0,0:0:0:0:
109,192,112927,1,0,0:0:0:0:
475,192,113027,1,0,0:0:0:0:
329,192,113027,1,0,0:0:0:0:
402,192,113127,1,0,0:0:0:0:
329,192,113227,1,0,0:0:0:0:
402,192,113327,1,0,0:0:0:0:
109,192,113427,1,0,0:0:0:0:
256,192,113427,1,0,0:0:0:0:
182,192,113527,1,0,0:0:0:0:
256,192,113627,1,0,0:0:0:0:
182,192,113727,1,0,0:0:0:0:
475,192,113827,1,0,0:0:0:0:
329,192,113827,1,0,0:0:0:0:
402,192,113927,1,0,0:0:0:0:
329,192,114027,1,0,0:0:0:0:
402,192,114127,1,0,0:0:0:0:
36,192,114227,1,0,0:0:0:0:
182,192,114227,1,0,0:0:0:0:
109,192,114327,1,0,0:0:0:0:
182,192,114427,1,0,0:0:0:0:
109,192,114527,1,0,0:0:0:0:
329,192,114627,1,0,0:0:0:0:
182,192,114627,1,0,0:0:0:0:
256,192,114727,1,0,0:0:0:0:
182,192,114827,1,0,0:0:0:0:
256,192,114927,1,0,0:0:0:0:
329,192,115027,1,0,0:0:0:0:
475,192,115027,1,0,0:0:0:0:
402,192,115127,1,0,0:0:0:0:
475,192,115227,1,0,0:0:0:0:
402,192,115327,1,0,0:0:0:0:
36,192,115427,1,0,0:0:0:0:
182,192,115427,128,0,115827:0:0:0:0:
256,192,115427,1,0,0:0:0:0:
329,192,115527,1,0,0:0:0:0:
402,192,115627,1,0,0:0:0:0:
256,192,115827,128,0,116227:0:0:0:0:
329,192,115827,1,0,0:0:0:0:
109,192,115827,1,0,0:0:0:0:
402,192,115927,1,0,0:0:0:0:
475,192,116027,1,0,0:0:0:0:
329,192,116227,128,0,116627:0:0:0:0:
402,192,116227,1,0,0:0:0:0:
182,192,116227,1,0,0:0:0:0:
109,192,116327,1,0,0:0:0:0:
36,192,116427,1,0,0:0:0:0:
402,192,116627,128,0,117027:0:0:0:0:
475,192,116627,1,0,0:0:0:0:
256,192,116627,1,0,0:0:0:0:
182,192,116727,1,0,0:0:0:0:
109,192,116827,1,0,0:0:0:0:
475,192,117027,128,0,117427:0:0:0:0:
329,192,117027,1,0,0:0:0:0:
256,192,117127,1,0,0:0:0:0:
182,192,117227,1,0,0:0:0:0:
402,192,117427,128,0,117827:0:0:0:0:
329,192,117427,1,0,0:0:0:0:
256,192,117527,1,0,0:0:0:0:
182,192,117627,1,0,0:0:0:0:
329,192,117827,128,0,118227:0:0:0:0:
256,192,117827,1,0,0:0:0:0:
475,192,117827,1,0,0:0:0:0:
182,192,117927,1,0,0:0:0:0:
109,192,118027,1,0,0:0:0:0:
256,192,118227,128,0,118627:0:0:0:0:
182,192,118227,1,0,0:0:0:0:
402,192,118227,1,0,0:0:0:0:
109,192,118327,1,0,0:0:0:0:
36,192,118427,1,0,0:0:0:0:
358,192,118627,1,0,0:0:0:0:
109,192,118627,1,0,0:0:0:0:
475,192,118627,1,0,0:0:0:0:
358,192,118827,1,0,0:0:0:0:
182,192,118827,1,0,0:0:0:0:
475,192,118827,1,0,0:0:0:0:
109,192,118927,1,0,0:0:0:0:
36,192,119027,1,0,0:0:0:0:
182,192,119027,1,0,0:0:0:0:
109,192,119127,1,0,0:0:0:0:
358,192,119227,1,0,0:0:0:0:
36,192,119227,1,0,0:0:0:0:
475,192,119227,1,0,0:0:0:0:
109,192,119327,1,0,0:0:0:0:
36,192,119427,1,0,0:0:0:0:
109,192,119527,1,0,0:0:0:0:
358,192,119627,1,0,0:0:0:0:
182,192,119627,1,0,0:0:0:0:
475,192,119627,1,0,0:0:0:0:
109,192,119727,1,0,0:0:0:0:
36,192,119827,1,0,0:0:0:0:
109,192,119927,1,0,0:0:0:0:
358,192,120027,1,0,0:0:0:0:
182,192,120027,1,0,0:0:0:0:
475,192,120027,1,0,0:0:0:0:
109,192,120127,1,0,0:0:0:0:
36,192,120227,1,0,0:0:0:0:
358,192,120427,1,0,0:0:0:0:
182,192,120427,1,0,0:0:0:0:
475,192,120427,1,0,0:0:0:0:
109,192,120527,1,0,0:0:0:0:
36,192,120627,1,0,0:0:0:0:
182,192,120627,1,0,0:0:0:0:
109,192,120727,1,0,0:0:0:0:
358,192,120827,1,0,0:0:0:0:
36,192,120827,1,0,0:0:0:0:
475,192,120827,1,0,0:0:0:0:
109,192,120927,1,0,0:0:0:0:
36,192,121027,1,0,0:0:0:0:
109,192,121127,1,0,0:0:0:0:
358,192,121227,1,0,0:0:0:0:
182,192,121227,1,0,0:0:0:0:
475,192,121227,1,0,0:0:0:0:
109,192,121327,1,0,0:0:0:0:
36,192,121427,1,0,0:0:0:0:
109,192,121527,1,0,0:0:0:0:
358,192,121627,1,0,0:0:0:0:
182,192,121627,1,0,0:0:0:0:
475,192,121627,1,0,0:0:0:0:
109,192,121727,1,0,0:0:0:0:
182,192,121827,1,0,0:0:0:0:
109,192,121827,128,0,122227:0:0:0:0:
36,192,121827,1,0,0:0:0:0:
256,192,121927,1,0,0:0:0:0:
329,192,122027,1,0,0:0:0:0:
182,192,122227,128,0,122627:0:0:0:0:
256,192,122227,1,0,0:0:0:0:
36,192,122227,1,0,0:0:0:0:
329,192,122327,1,0,0:0:0:0:
402,192,122427,1,0,0:0:0:0:
256,192,122627,128,0,123027:0:0:0:0:
329,192,122627,1,0,0:0:0:0:
109,192,122627,1,0,0:0:0:0:
402,192,122727,1,0,0:0:0:0:
475,192,122827,1,0,0:0:0:0:
329,192,123027,128,0,123427:0:0:0:0:
402,192,123027,1,0,0:0:0:0:
182,192,123027,1,0,0:0:0:0:
109,192,123127,1,0,0:0:0:0:
36,192,123227,1,0,0:0:0:0:
460,192,123427,1,0,0:0:0:0:
402,192,123427,128,0,123827:0:0:0:0:
256,192,123427,1,0,0:0:0:0:
182,192,123527,1,0,0:0:0:0:
109,192,123627,1,0,0:0:0:0:
329,192,123827,128,0,124227:0:0:0:0:
256,192,123827,1,0,0:0:0:0:
475,192,123827,1,0,0:0:0:0:
182,192,123927,1,0,0:0:0:0:
109,192,124027,1,0,0:0:0:0:
256,192,124227,128,0,124627:0:0:0:0:
182,192,124227,1,0,0:0:0:0:
402,192,124227,1,0,0:0:0:0:
109,192,124327,1,0,0:0:0:0:
36,192,124427,1,0,0:0:0:0:
182,192,124627,128,0,125027:0:0:0:0:
109,192,124627,1,0,0:0:0:0:
329,192,124627,1,0,0:0:0:0:
402,192,124727,1,0,0:0:0:0:
475,192,124827,1,0,0:0:0:0:
256,192,125027,1,0,0:0:0:0:
109,192,125027,1,0,0:0:0:0:
36,192,125027,1,0,0:0:0:0:
329,192,125027,1,0,0:0:0:0:
358,192,125227,1,0,0:0:0:0:
256,192,125227,1,0,0:0:0:0:
182,192,125227,1,0,0:0:0:0:
402,192,125327,1,0,0:0:0:0:
109,192,125327,1,0,0:0:0:0:
329,192,125427,1,0,0:0:0:0:
475,192,125427,1,0,0:0:0:0:
36,192,125427,1,0,0:0:0:0:
182,192,125427,1,0,0:0:0:0:
402,192,125527,1,0,0:0:0:0:
109,192,125527,1,0,0:0:0:0:
475,192,125627,1,0,0:0:0:0:
256,192,125627,1,0,0:0:0:0:
36,192,125627,1,0,0:0:0:0:
329,192,125627,1,0,0:0:0:0:
182,192,125627,1,0,0:0:0:0:
402,192,125727,1,0,0:0:0:0:
109,192,125727,1,0,0:0:0:0:
475,192,125827,1,0,0:0:0:0:
36,192,125827,1,0,0:0:0:0:
402,192,125927,1,0,0:0:0:0:
109,192,125927,1,0,0:0:0:0:
358,192,126027,1,0,0:0:0:0:
256,192,126027,1,0,0:0:0:0:
182,192,126027,1,0,0:0:0:0:
402,192,126127,1,0,0:0:0:0:
109,192,126127,1,0,0:0:0:0:
475,192,126227,1,0,0:0:0:0:
36,192,126227,1,0,0:0:0:0:
402,192,126327,1,0,0:0:0:0:
109,192,126327,1,0,0:0:0:0:
329,192,126427,1,0,0:0:0:0:
256,192,126427,1,0,0:0:0:0:
182,192,126427,1,0,0:0:0:0:
109,192,126527,1,0,0:0:0:0:
402,192,126527,1,0,0:0:0:0:
36,192,126627,1,0,0:0:0:0:
182,192,126627,1,0,0:0:0:0:
329,192,126627,1,0,0:0:0:0:
475,192,126627,1,0,0:0:0:0:
358,192,126827,1,0,0:0:0:0:
256,192,126827,1,0,0:0:0:0:
182,192,126827,1,0,0:0:0:0:
402,192,126927,1,0,0:0:0:0:
109,192,126927,1,0,0:0:0:0:
475,192,127027,1,0,0:0:0:0:
36,192,127027,1,0,0:0:0:0:
402,192,127127,1,0,0:0:0:0:
109,192,127127,1,0,0:0:0:0:
475,192,127227,1,0,0:0:0:0:
256,192,127227,1,0,0:0:0:0:
36,192,127227,1,0,0:0:0:0:
182,192,127227,1,0,0:0:0:0:
329,192,127227,1,0,0:0:0:0:
402,192,127327,1,0,0:0:0:0:
109,192,127327,1,0,0:0:0:0:
475,192,127427,1,0,0:0:0:0:
36,192,127427,1,0,0:0:0:0:
402,192,127527,1,0,0:0:0:0:
109,192,127527,1,0,0:0:0:0:
358,192,127627,1,0,0:0:0:0:
256,192,127627,1,0,0:0:0:0:
182,192,127627,1,0,0:0:0:0:
109,192,127727,1,0,0:0:0:0:
402,192,127727,1,0,0:0:0:0:
475,192,127827,1,0,0:0:0:0:
36,192,127827,1,0,0:0:0:0:
402,192,127927,1,0,0:0:0:0:
109,192,127927,1,0,0:0:0:0:
329,192,128027,1,0,0:0:0:0:
256,192,128027,1,0,0:0:0:0:
182,192,128027,1,0,0:0:0:0:
109,192,128127,1,0,0:0:0:0:
402,192,128127,1,0,0:0:0:0:
36,192,128227,128,0,128627:0:0:0:0:
109,192,128227,1,0,0:0:0:0:
475,192,128227,1,0,0:0:0:0:
182,192,128327,1,0,0:0:0:0:
256,192,128427,1,0,0:0:0:0:
182,192,128627,1,0,0:0:0:0:
109,192,128627,128,0,129027:0:0:0:0:
256,192,128727,1,0,0:0:0:0:
329,192,128827,1,0,0:0:0:0:
256,192,129027,1,0,0:0:0:0:
182,192,129027,128,0,129427:0:0:0:0:
36,192,129027,1,0,0:0:0:0:
329,192,129127,1,0,0:0:0:0:
402,192,129227,1,0,0:0:0:0:
329,192,129427,1,0,0:0:0:0:
256,192,129427,128,0,129827:0:0:0:0:
109,192,129427,1,0,0:0:0:0:
402,192,129527,1,0,0:0:0:0:
475,192,129627,1,0,0:0:0:0:
329,192,129827,128,0,130227:0:0:0:0:
402,192,129827,1,0,0:0:0:0:
182,192,129827,1,0,0:0:0:0:
109,192,129927,1,0,0:0:0:0:
36,192,130027,1,0,0:0:0:0:
256,192,130227,128,0,130627:0:0:0:0:
182,192,130227,1,0,0:0:0:0:
402,192,130227,1,0,0:0:0:0:
109,192,130327,1,0,0:0:0:0:
36,192,130427,1,0,0:0:0:0:
182,192,130627,128,0,131027:0:0:0:0:
109,192,130627,1,0,0:0:0:0:
329,192,130627,1,0,0:0:0:0:
402,192,130727,1,0,0:0:0:0:
475,192,130827,1,0,0:0:0:0:
109,192,131027,128,0,131427:0:0:0:0:
36,192,131027,1,0,0:0:0:0:
256,192,131027,1,0,0:0:0:0:
329,192,131127,1,0,0:0:0:0:
402,192,131227,1,0,0:0:0:0:
153,192,131427,1,0,0:0:0:0:
36,192,131427,1,0,0:0:0:0:
153,192,131627,1,0,0:0:0:0:
358,192,131627,1,0,0:0:0:0:
36,192,131627,1,0,0:0:0:0:
402,192,131727,1,0,0:0:0:0:
329,192,131827,1,0,0:0:0:0:
475,192,131827,1,0,0:0:0:0:
402,192,131927,1,0,0:0:0:0:
153,192,132027,1,0,0:0:0:0:
475,192,132027,1,0,0:0:0:0:
36,192,132027,1,0,0:0:0:0:
402,192,132127,1,0,0:0:0:0:
475,192,132227,1,0,0:0:0:0:
402,192,132327,1,0,0:0:0:0:
153,192,132427,1,0,0:0:0:0:
358,192,132427,1,0,0:0:0:0:
36,192,132427,1,0,0:0:0:0:
402,192,132527,1,0,0:0:0:0:
475,192,132627,1,0,0:0:0:0:
402,192,132727,1,0,0:0:0:0:
153,192,132827,1,0,0:0:0:0:
329,192,132827,1,0,0:0:0:0:
36,192,132827,1,0,0:0:0:0:
402,192,132927,1,0,0:0:0:0:
475,192,133027,1,0,0:0:0:0:
153,192,133227,1,0,0:0:0:0:
358,192,133227,1,0,0:0:0:0:
36,192,133227,1,0,0:0:0:0:
402,192,133327,1,0,0:0:0:0:
475,192,133427,1,0,0:0:0:0:
329,192,133427,1,0,0:0:0:0:
402,192,133527,1,0,0:0:0:0:
153,192,133627,1,0,0:0:0:0:
475,192,133627,1,0,0:0:0:0:
36,192,133627,1,0,0:0:0:0:
402,192,133727,1,0,0:0:0:0:
475,192,133827,1,0,0:0:0:0:
402,192,133927,1,0,0:0:0:0:
153,192,134027,1,0,0:0:0:0:
358,192,134027,1,0,0:0:0:0:
36,192,134027,1,0,0:0:0:0:
402,192,134127,1,0,0:0:0:0:
475,192,134227,1,0,0:0:0:0:
402,192,134327,1,0,0:0:0:0:
153,192,134427,1,0,0:0:0:0:
329,192,134427,1,0,0:0:0:0:
36,192,134427,1,0,0:0:0:0:
402,192,134527,1,0,0:0:0:0:
475,192,134627,128,0,136227:0:0:0:0:
402,192,134627,1,0,0:0:0:0:
402,192,135027,128,0,136227:0:0:0:0:
329,192,135027,1,0,0:0:0:0:
329,192,135427,128,0,136227:0:0:0:0:
256,192,135427,1,0,0:0:0:0:
256,192,135827,128,0,136227:0:0:0:0:
182,192,135827,1,0,0:0:0:0:
36,192,136227,128,0,137827:0:0:0:0:
182,192,136227,1,0,0:0:0:0:
109,192,136627,128,0,137827:0:0:0:0:
182,192,136627,1,0,0:0:0:0:
182,192,137027,128,0,137827:0:0:0:0:
256,192,137027,1,0,0:0:0:0:
256,192,137427,128,0,137827:0:0:0:0:
329,192,137427,1,0,0:0:0:0:
329,192,137827,128,0,139427:0:0:0:0:
402,192,137827,1,0,0:0:0:0:
402,192,138227,128,0,139427:0:0:0:0:
475,192,138227,1,0,0:0:0:0:
475,192,138627,128,0,139427:0:0:0:0:
256,192,138627,1,0,0:0:0:0:
256,192,139027,128,0,139427:0:0:0:0:
182,192,139027,1,0,0:0:0:0:
51,192,139427,1,0,0:0:0:0:
182,192,139427,128,0,139827:0:0:0:0:
109,192,139827,128,0,140227:0:0:0:0:
256,192,139827,1,0,0:0:0:0:
36,192,139827,1,0,0:0:0:0:
256,192,140227,128,0,140627:0:0:0:0:
182,192,140227,1,0,0:0:0:0:
329,192,140227,1,0,0:0:0:0:
36,192,140627,128,0,141027:0:0:0:0:
182,192,140627,1,0,0:0:0:0:
109,192,140627,1,0,0:0:0:0:
109,192,141027,1,0,0:0:0:0:
475,192,141027,128,0,143827:0:0:0:0:
402,192,141027,1,0,0:0:0:0:
402,192,141427,128,0,143427:0:0:0:0:
329,192,141427,1,0,0:0:0:0:
329,192,141827,128,0,143027:0:0:0:0:
256,192,141827,1,0,0:0:0:0:
256,192,142227,128,0,142627:0:0:0:0:
182,192,142227,1,0,0:0:0:0:
36,192,142627,128,0,145427:0:0:0:0:
109,192,142627,1,0,0:0:0:0:
109,192,143027,128,0,145027:0:0:0:0:
182,192,143027,1,0,0:0:0:0:
182,192,143427,128,0,144627:0:0:0:0:
256,192,143427,1,0,0:0:0:0:
256,192,143827,128,0,144227:0:0:0:0:
329,192,143827,1,0,0:0:0:0:
475,192,144227,128,0,147027:0:0:0:0:
402,192,144227,1,0,0:0:0:0:
402,192,144627,128,0,146627:0:0:0:0:
329,192,144627,1,0,0:0:0:0:
329,192,145027,128,0,146227:0:0:0:0:
256,192,145027,1,0,0:0:0:0:
256,192,145427,128,0,145827:0:0:0:0:
182,192,145427,1,0,0:0:0:0:
36,192,145827,128,0,148627:0:0:0:0:
109,192,145827,1,0,0:0:0:0:
109,192,146227,128,0,148227:0:0:0:0:
182,192,146227,1,0,0:0:0:0:
182,192,146627,128,0,147827:0:0:0:0:
256,192,146627,1,0,0:0:0:0:
256,192,147027,128,0,147427:0:0:0:0:
329,192,147027,1,0,0:0:0:0:
402,192,147427,128,0,147827:0:0:0:0:
329,192,147827,128,0,148227:0:0:0:0:
475,192,147827,1,0,0:0:0:0:
256,192,148227,128,0,148627:0:0:0:0:
402,192,148227,1,0,0:0:0:0:
182,192,148627,128,0,149027:0:0:0:0:
329,192,148627,1,0,0:0:0:0:
402,192,149027,1,0,0:0:0:0:
475,192,149027,1,0,0:0:0:0:
329,192,149027,1,0,0:0:0:0:
109,192,149027,1,0,0:0:0:0:
256,192,149227,1,0,0:0:0:0:
329,192,149227,1,0,0:0:0:0:
402,192,149227,1,0,0:0:0:0:
51,192,149627,1,0,0:0:0:0:
109,192,149627,1,0,0:0:0:0:
182,192,149627,1,0,0:0:0:0:
256,192,150027,1,0,0:0:0:0:
329,192,150027,1,0,0:0:0:0:
182,192,150027,1,0,0:0:0:0:
460,192,150427,1,0,0:0:0:0:
402,192,150427,1,0,0:0:0:0:
329,192,150427,1,0,0:0:0:0:
36,192,150627,1,0,0:0:0:0:
109,192,150727,1,0,0:0:0:0:
182,192,150827,1,0,0:0:0:0:
475,192,150927,1,0,0:0:0:0:
36,192,150927,1,0,0:0:0:0:
402,192,151027,1,0,0:0:0:0:
109,192,151027,1,0,0:0:0:0:
329,192,151127,1,0,0:0:0:0:
182,192,151127,1,0,0:0:0:0:
256,192,151227,1,0,0:0:0:0:
182,192,151327,1,0,0:0:0:0:
109,192,151427,1,0,0:0:0:0:
256,192,151427,1,0,0:0:0:0:
182,192,151527,1,0,0:0:0:0:
329,192,151527,1,0,0:0:0:0:
256,192,151627,1,0,0:0:0:0:
402,192,151627,1,0,0:0:0:0:
329,192,151727,1,0,0:0:0:0:
182,192,151727,1,0,0:0:0:0:
256,192,151827,1,0,0:0:0:0:
36,192,151827,1,0,0:0:0:0:
475,192,151827,1,0,0:0:0:0:
109,192,151927,1,0,0:0:0:0:
182,192,152027,1,0,0:0:0:0:
256,192,152127,1,0,0:0:0:0:
109,192,152227,1,0,0:0:0:0:
402,192,152227,1,0,0:0:0:0:
329,192,152327,1,0,0:0:0:0:
256,192,152427,1,0,0:0:0:0:
182,192,152527,1,0,0:0:0:0:
36,192,152627,1,0,0:0:0:0:
256,192,152627,1,0,0:0:0:0:
475,192,152627,1,0,0:0:0:0:
109,192,152727,1,0,0:0:0:0:
182,192,152827,1,0,0:0:0:0:
256,192,152927,1,0,0:0:0:0:
109,192,153027,1,0,0:0:0:0:
402,192,153027,1,0,0:0:0:0:
329,192,153127,1,0,0:0:0:0:
256,192,153227,1,0,0:0:0:0:
182,192,153327,1,0,0:0:0:0:
36,192,153427,1,0,0:0:0:0:
256,192,153427,1,0,0:0:0:0:
475,192,153427,1,0,0:0:0:0:
109,192,153527,1,0,0:0:0:0:
182,192,153627,1,0,0:0:0:0:
256,192,153727,1,0,0:0:0:0:
402,192,153827,128,0,154227:0:0:0:0:
256,192,153827,1,0,0:0:0:0:
475,192,153827,1,0,0:0:0:0:
182,192,153927,1,0,0:0:0:0:
109,192,154027,1,0,0:0:0:0:
36,192,154127,1,0,0:0:0:0:
182,192,154127,1,0,0:0:0:0:
182,192,154227,128,0,154627:0:0:0:0:
256,192,154227,1,0,0:0:0:0:
109,192,154227,1,0,0:0:0:0:
329,192,154327,1,0,0:0:0:0:
402,192,154427,1,0,0:0:0:0:
329,192,154527,1,0,0:0:0:0:
475,192,154527,1,0,0:0:0:0:
329,192,154627,128,0,155027:0:0:0:0:
402,192,154627,1,0,0:0:0:0:
256,192,154627,1,0,0:0:0:0:
182,192,154727,1,0,0:0:0:0:
109,192,154827,1,0,0:0:0:0:
182,192,154927,1,0,0:0:0:0:
36,192,154927,1,0,0:0:0:0:
256,192,155027,1,0,0:0:0:0:
109,192,155027,128,0,155427:0:0:0:0:
329,192,155127,1,0,0:0:0:0:
402,192,155227,1,0,0:0:0:0:
329,192,155327,1,0,0:0:0:0:
475,192,155327,1,0,0:0:0:0:
256,192,155427,1,0,0:0:0:0:
36,192,155427,1,0,0:0:0:0:
329,192,155527,1,0,0:0:0:0:
402,192,155627,1,0,0:0:0:0:
36,192,155727,1,0,0:0:0:0:
475,192,155727,1,0,0:0:0:0:
109,192,155827,1,0,0:0:0:0:
402,192,155827,1,0,0:0:0:0:
182,192,155927,1,0,0:0:0:0:
329,192,155927,1,0,0:0:0:0:
256,192,156027,1,0,0:0:0:0:
182,192,156127,1,0,0:0:0:0:
256,192,156227,1,0,0:0:0:0:
109,192,156227,1,0,0:0:0:0:
329,192,156327,1,0,0:0:0:0:
182,192,156327,1,0,0:0:0:0:
402,192,156427,1,0,0:0:0:0:
256,192,156427,1,0,0:0:0:0:
182,192,156527,1,0,0:0:0:0:
329,192,156527,1,0,0:0:0:0:
109,192,156627,1,0,0:0:0:0:
256,192,156627,1,0,0:0:0:0:
475,192,156627,1,0,0:0:0:0:
182,192,156727,1,0,0:0:0:0:
256,192,156827,1,0,0:0:0:0:
329,192,156927,1,0,0:0:0:0:
402,192,157027,1,0,0:0:0:0:
109,192,157027,1,0,0:0:0:0:
329,192,157127,1,0,0:0:0:0:
256,192,157227,1,0,0:0:0:0:
182,192,157327,1,0,0:0:0:0:
36,192,157427,1,0,0:0:0:0:
475,192,157427,1,0,0:0:0:0:
109,192,157527,1,0,0:0:0:0:
182,192,157627,1,0,0:0:0:0:
256,192,157727,1,0,0:0:0:0:
402,192,157827,1,0,0:0:0:0:
109,192,157827,1,0,0:0:0:0:
329,192,157927,1,0,0:0:0:0:
256,192,158027,1,0,0:0:0:0:
182,192,158127,1,0,0:0:0:0:
36,192,158227,1,0,0:0:0:0:
475,192,158227,1,0,0:0:0:0:
109,192,158327,1,0,0:0:0:0:
182,192,158427,1,0,0:0:0:0:
256,192,158527,1,0,0:0:0:0:
475,192,158627,128,0,159027:0:0:0:0:
402,192,158627,1,0,0:0:0:0:
36,192,158627,1,0,0:0:0:0:
329,192,158727,1,0,0:0:0:0:
256,192,158827,1,0,0:0:0:0:
182,192,158927,1,0,0:0:0:0:
256,192,159027,128,0,159427:0:0:0:0:
402,192,159027,1,0,0:0:0:0:
329,192,159027,1,0,0:0:0:0:
36,192,159027,1,0,0:0:0:0:
109,192,159127,1,0,0:0:0:0:
402,192,159227,1,0,0:0:0:0:
475,192,159327,1,0,0:0:0:0:
329,192,159427,128,0,159827:0:0:0:0:
402,192,159427,1,0,0:0:0:0:
182,192,159427,1,0,0:0:0:0:
109,192,159527,1,0,0:0:0:0:
36,192,159627,1,0,0:0:0:0:
475,192,159727,1,0,0:0:0:0:
182,192,159827,128,0,160227:0:0:0:0:
256,192,159827,1,0,0:0:0:0:
36,192,159827,1,0,0:0:0:0:
109,192,159927,1,0,0:0:0:0:
402,192,160027,1,0,0:0:0:0:
475,192,160127,1,0,0:0:0:0:
109,192,160227,128,0,160627:0:0:0:0:
256,192,160227,1,0,0:0:0:0:
36,192,160227,1,0,0:0:0:0:
182,192,160627,128,0,161027:0:0:0:0:
256,192,160627,1,0,0:0:0:0:
36,192,160627,1,0,0:0:0:0:
256,192,161027,128,0,161427:0:0:0:0:
109,192,161027,1,0,0:0:0:0:
329,192,161027,1,0,0:0:0:0:
329,192,161427,128,0,161827:0:0:0:0:
182,192,161427,1,0,0:0:0:0:
402,192,161427,1,0,0:0:0:0:
402,192,161827,128,0,162227:0:0:0:0:
256,192,161827,1,0,0:0:0:0:
475,192,161827,1,0,0:0:0:0:
329,192,162227,128,0,162627:0:0:0:0:
475,192,162227,1,0,0:0:0:0:
256,192,162227,1,0,0:0:0:0:
182,192,162627,128,0,163027:0:0:0:0:
256,192,162627,1,0,0:0:0:0:
109,192,162627,1,0,0:0:0:0:
256,192,163027,128,0,163427:0:0:0:0:
329,192,163027,1,0,0:0:0:0:
109,192,163027,1,0,0:0:0:0:
182,192,163427,128,0,163827:0:0:0:0:
329,192,163427,1,0,0:0:0:0:
109,192,163427,1,0,0:0:0:0:
256,192,163827,128,0,164227:0:0:0:0:
109,192,163827,1,0,0:0:0:0:
329,192,163827,1,0,0:0:0:0:
329,192,164227,128,0,164627:0:0:0:0:
182,192,164227,1,0,0:0:0:0:
402,192,164227,1,0,0:0:0:0:
402,192,164627,128,0,165027:0:0:0:0:
475,192,164627,1,0,0:0:0:0:
256,192,164627,1,0,0:0:0:0:
475,192,165027,128,0,165427:0:0:0:0:
329,192,165027,1,0,0:0:0:0:
358,192,165427,1,0,0:0:0:0:
402,192,165427,128,0,165827:0:0:0:0:
256,192,165827,1,0,0:0:0:0:
329,192,165827,128,0,166227:0:0:0:0:
475,192,165827,1,0,0:0:0:0:
153,192,166227,1,0,0:0:0:0:
256,192,166227,128,0,166627:0:0:0:0:
402,192,166227,1,0,0:0:0:0:
460,192,166627,128,0,168227:0:0:0:0:
329,192,166627,1,0,0:0:0:0:
182,192,166627,1,0,0:0:0:0:
36,192,166627,1,0,0:0:0:0:
109,192,166827,1,0,0:0:0:0:
182,192,167027,1,0,0:0:0:0:
256,192,167227,1,0,0:0:0:0:
256,192,167427,1,0,0:0:0:0:
182,192,167427,128,0,168227:0:0:0:0:
329,192,167427,1,0,0:0:0:0:
109,192,167427,1,0,0:0:0:0:
402,192,167627,1,0,0:0:0:0:
329,192,167827,1,0,0:0:0:0:
256,192,168027,1,0,0:0:0:0:
51,192,168227,128,0,169827:0:0:0:0:
329,192,168227,1,0,0:0:0:0:
256,192,168427,1,0,0:0:0:0:
460,192,168627,1,0,0:0:0:0:
402,192,168627,128,0,169827:0:0:0:0:
182,192,168627,1,0,0:0:0:0:
329,192,168627,1,0,0:0:0:0:
109,192,168827,1,0,0:0:0:0:
182,192,169027,1,0,0:0:0:0:
256,192,169227,1,0,0:0:0:0:
329,192,169427,1,0,0:0:0:0:
256,192,169627,1,0,0:0:0:0:
358,192,169827,128,0,171427:0:0:0:0:
182,192,169827,1,0,0:0:0:0:
109,192,170027,1,0,0:0:0:0:
36,192,170227,1,0,0:0:0:0:
109,192,170427,1,0,0:0:0:0:
109,192,170627,1,0,0:0:0:0:
36,192,170627,128,0,171427:0:0:0:0:
182,192,170627,1,0,0:0:0:0:
475,192,170627,1,0,0:0:0:0:
256,192,170827,1,0,0:0:0:0:
182,192,171027,1,0,0:0:0:0:
109,192,171227,1,0,0:0:0:0:
153,192,171427,128,0,173027:0:0:0:0:
475,192,171427,1,0,0:0:0:0:
109,192,171627,1,0,0:0:0:0:
460,192,171827,1,0,0:0:0:0:
402,192,171827,128,0,173027:0:0:0:0:
36,192,171827,1,0,0:0:0:0:
329,192,171827,1,0,0:0:0:0:
109,192,172027,1,0,0:0:0:0:
256,192,172227,1,0,0:0:0:0:
329,192,172427,1,0,0:0:0:0:
475,192,172627,1,0,0:0:0:0:
329,192,172827,1,0,0:0:0:0:
460,192,173027,128,0,174627:0:0:0:0:
256,192,173027,1,0,0:0:0:0:
36,192,173027,1,0,0:0:0:0:
182,192,173227,1,0,0:0:0:0:
109,192,173427,1,0,0:0:0:0:
36,192,173627,1,0,0:0:0:0:
256,192,173827,1,0,0:0:0:0:
182,192,173827,128,0,174627:0:0:0:0:
109,192,173827,1,0,0:0:0:0:
402,192,173827,1,0,0:0:0:0:
36,192,174027,1,0,0:0:0:0:
109,192,174227,1,0,0:0:0:0:
256,192,174427,1,0,0:0:0:0:
51,192,174627,128,0,176227:0:0:0:0:
329,192,174627,1,0,0:0:0:0:
402,192,174827,1,0,0:0:0:0:
460,192,175027,1,0,0:0:0:0:
402,192,175027,128,0,176227:0:0:0:0:
329,192,175027,1,0,0:0:0:0:
182,192,175027,1,0,0:0:0:0:
256,192,175227,1,0,0:0:0:0:
182,192,175427,1,0,0:0:0:0:
109,192,175627,1,0,0:0:0:0:
182,192,175827,1,0,0:0:0:0:
256,192,176027,1,0,0:0:0:0:
358,192,176227,128,0,177827:0:0:0:0:
182,192,176227,1,0,0:0:0:0:
109,192,176427,1,0,0:0:0:0:
36,192,176627,1,0,0:0:0:0:
109,192,176827,1,0,0:0:0:0:
153,192,177027,1,0,0:0:0:0:
109,192,177027,128,0,177827:0:0:0:0:
36,192,177027,1,0,0:0:0:0:
475,192,177027,1,0,0:0:0:0:
256,192,177227,1,0,0:0:0:0:
402,192,177427,1,0,0:0:0:0:
475,192,177627,1,0,0:0:0:0:
256,192,177827,128,0,179427:0:0:0:0:
402,192,177827,1,0,0:0:0:0:
182,192,178027,1,0,0:0:0:0:
460,192,178227,1,0,0:0:0:0:
402,192,178227,128,0,179427:0:0:0:0:
109,192,178227,1,0,0:0:0:0:
329,192,178327,1,0,0:0:0:0:
36,192,178427,1,0,0:0:0:0:
475,192,178427,1,0,0:0:0:0:
329,192,178527,1,0,0:0:0:0:
109,192,178627,1,0,0:0:0:0:
475,192,178627,1,0,0:0:0:0:
329,192,178727,1,0,0:0:0:0:
182,192,178827,1,0,0:0:0:0:
475,192,178827,1,0,0:0:0:0:
329,192,178927,1,0,0:0:0:0:
109,192,179027,1,0,0:0:0:0:
475,192,179027,1,0,0:0:0:0:
329,192,179127,1,0,0:0:0:0:
36,192,179227,1,0,0:0:0:0:
475,192,179227,1,0,0:0:0:0:
329,192,179327,1,0,0:0:0:0:
153,192,179427,128,0,181027:0:0:0:0:
109,192,179427,1,0,0:0:0:0:
475,192,179427,1,0,0:0:0:0:
36,192,179527,1,0,0:0:0:0:
475,192,179627,1,0,0:0:0:0:
402,192,179727,1,0,0:0:0:0:
475,192,179827,1,0,0:0:0:0:
329,192,179827,1,0,0:0:0:0:
256,192,179927,1,0,0:0:0:0:
402,192,179927,1,0,0:0:0:0:
109,192,180027,1,0,0:0:0:0:
329,192,180027,1,0,0:0:0:0:
256,192,180127,1,0,0:0:0:0:
109,192,180227,1,0,0:0:0:0:
329,192,180227,1,0,0:0:0:0:
256,192,180327,1,0,0:0:0:0:
402,192,180327,1,0,0:0:0:0:
475,192,180427,1,0,0:0:0:0:
329,192,180427,1,0,0:0:0:0:
402,192,180527,1,0,0:0:0:0:
475,192,180627,1,0,0:0:0:0:
329,192,180627,1,0,0:0:0:0:
256,192,180727,1,0,0:0:0:0:
402,192,180727,1,0,0:0:0:0:
329,192,180827,1,0,0:0:0:0:
475,192,180827,1,0,0:0:0:0:
402,192,180927,1,0,0:0:0:0:
256,192,181027,128,0,182627:0:0:0:0:
109,192,181027,1,0,0:0:0:0:
36,192,181127,1,0,0:0:0:0:
402,192,181227,1,0,0:0:0:0:
329,192,181327,1,0,0:0:0:0:
475,192,181327,1,0,0:0:0:0:
182,192,181427,1,0,0:0:0:0:
402,192,181427,1,0,0:0:0:0:
109,192,181527,1,0,0:0:0:0:
329,192,181527,1,0,0:0:0:0:
36,192,181627,1,0,0:0:0:0:
182,192,181627,1,0,0:0:0:0:
109,192,181727,1,0,0:0:0:0:
36,192,181827,1,0,0:0:0:0:
182,192,181827,1,0,0:0:0:0:
109,192,181927,1,0,0:0:0:0:
329,192,181927,1,0,0:0:0:0:
402,192,182027,1,0,0:0:0:0:
182,192,182027,1,0,0:0:0:0:
329,192,182127,1,0,0:0:0:0:
402,192,182227,1,0,0:0:0:0:
182,192,182227,1,0,0:0:0:0:
329,192,182327,1,0,0:0:0:0:
109,192,182327,1,0,0:0:0:0:
402,192,182427,1,0,0:0:0:0:
182,192,182427,1,0,0:0:0:0:
329,192,182527,1,0,0:0:0:0:
460,192,182627,128,0,183427:0:0:0:0:
402,192,182627,1,0,0:0:0:0:
329,192,182727,1,0,0:0:0:0:
256,192,182827,1,0,0:0:0:0:
182,192,182927,1,0,0:0:0:0:
256,192,183027,1,0,0:0:0:0:
109,192,183027,1,0,0:0:0:0:
329,192,183127,1,0,0:0:0:0:
36,192,183127,1,0,0:0:0:0:
402,192,183227,1,0,0:0:0:0:
109,192,183227,1,0,0:0:0:0:
182,192,183327,1,0,0:0:0:0:
329,192,183327,1,0,0:0:0:0:
358,192,183427,128,0,184227:0:0:0:0:
256,192,183427,1,0,0:0:0:0:
182,192,183527,1,0,0:0:0:0:
109,192,183627,1,0,0:0:0:0:
36,192,183727,1,0,0:0:0:0:
109,192,183827,1,0,0:0:0:0:
182,192,183927,1,0,0:0:0:0:
256,192,184027,1,0,0:0:0:0:
109,192,184127,1,0,0:0:0:0:
402,192,184127,1,0,0:0:0:0:
256,192,184227,128,0,185027:0:0:0:0:
182,192,184227,1,0,0:0:0:0:
109,192,184327,1,0,0:0:0:0:
402,192,184327,1,0,0:0:0:0:
36,192,184427,1,0,0:0:0:0:
475,192,184427,1,0,0:0:0:0:
182,192,184527,1,0,0:0:0:0:
329,192,184527,1,0,0:0:0:0:
36,192,184627,1,0,0:0:0:0:
475,192,184627,1,0,0:0:0:0:
109,192,184727,1,0,0:0:0:0:
402,192,184727,1,0,0:0:0:0:
182,192,184827,1,0,0:0:0:0:
329,192,184827,1,0,0:0:0:0:
109,192,184927,1,0,0:0:0:0:
402,192,184927,1,0,0:0:0:0:
51,192,185027,128,0,185827:0:0:0:0:
475,192,185027,1,0,0:0:0:0:
402,192,185127,1,0,0:0:0:0:
329,192,185227,1,0,0:0:0:0:
256,192,185327,1,0,0:0:0:0:
329,192,185427,1,0,0:0:0:0:
182,192,185427,1,0,0:0:0:0:
402,192,185527,1,0,0:0:0:0:
109,192,185527,1,0,0:0:0:0:
475,192,185627,1,0,0:0:0:0:
182,192,185627,1,0,0:0:0:0:
256,192,185727,1,0,0:0:0:0:
402,192,185727,1,0,0:0:0:0:
329,192,185827,1,0,0:0:0:0:
256,192,185827,128,0,187427:0:0:0:0:
36,192,186227,1,0,0:0:0:0:
475,192,186227,1,0,0:0:0:0:
109,192,186327,1,0,0:0:0:0:
402,192,186327,1,0,0:0:0:0:
182,192,186427,1,0,0:0:0:0:
329,192,186427,1,0,0:0:0:0:
402,192,186527,1,0,0:0:0:0:
109,192,186527,1,0,0:0:0:0:
475,192,186627,1,0,0:0:0:0:
36,192,186627,1,0,0:0:0:0:
402,192,186727,1,0,0:0:0:0:
109,192,186727,1,0,0:0:0:0:
329,192,186827,1,0,0:0:0:0:
182,192,186827,1,0,0:0:0:0:
109,192,186927,1,0,0:0:0:0:
402,192,186927,1,0,0:0:0:0:
36,192,187027,1,0,0:0:0:0:
475,192,187027,1,0,0:0:0:0:
109,192,187127,1,0,0:0:0:0:
402,192,187127,1,0,0:0:0:0:
182,192,187227,1,0,0:0:0:0:
329,192,187227,1,0,0:0:0:0:
109,192,187327,1,0,0:0:0:0:
402,192,187327,1,0,0:0:0:0:
51,192,187427,1,0,0:0:0:0:
460,192,187427,1,0,0:0:0:0:
36,192,187827,1,0,0:0:0:0:
475,192,187827,1,0,0:0:0:0:
256,192,187827,128,0,189027:0:0:0:0:
109,192,187927,1,0,0:0:0:0:
402,192,187927,1,0,0:0:0:0:
182,192,188027,1,0,0:0:0:0:
329,192,188027,1,0,0:0:0:0:
109,192,188127,1,0,0:0:0:0:
402,192,188127,1,0,0:0:0:0:
51,192,188227,1,0,0:0:0:0:
460,192,188227,1,0,0:0:0:0:
402,192,188327,1,0,0:0:0:0:
109,192,188327,1,0,0:0:0:0:
329,192,188427,1,0,0:0:0:0:
182,192,188427,1,0,0:0:0:0:
109,192,188527,1,0,0:0:0:0:
402,192,188527,1,0,0:0:0:0:
36,192,188627,1,0,0:0:0:0:
475,192,188627,1,0,0:0:0:0:
109,192,188727,1,0,0:0:0:0:
402,192,188727,1,0,0:0:0:0:
182,192,188827,1,0,0:0:0:0:
329,192,188827,1,0,0:0:0:0:
109,192,188927,1,0,0:0:0:0:
402,192,188927,1,0,0:0:0:0:
153,192,189027,1,0,0:0:0:0:
358,192,189027,1,0,0:0:0:0:
36,192,189027,1,0,0:0:0:0:
475,192,189027,1,0,0:0:0:0:
36,192,189427,1,0,0:0:0:0:
329,192,189427,1,0,0:0:0:0:
256,192,189427,128,0,190627:0:0:0:0:
109,192,189527,1,0,0:0:0:0:
402,192,189527,1,0,0:0:0:0:
182,192,189627,1,0,0:0:0:0:
475,192,189627,1,0,0:0:0:0:
402,192,189727,1,0,0:0:0:0:
109,192,189727,1,0,0:0:0:0:
358,192,189827,1,0,0:0:0:0:
36,192,189827,1,0,0:0:0:0:
109,192,189927,1,0,0:0:0:0:
402,192,189927,1,0,0:0:0:0:
182,192,190027,1,0,0:0:0:0:
475,192,190027,1,0,0:0:0:0:
402,192,190127,1,0,0:0:0:0:
109,192,190127,1,0,0:0:0:0:
329,192,190227,1,0,0:0:0:0:
36,192,190227,1,0,0:0:0:0:
109,192,190327,1,0,0:0:0:0:
402,192,190327,1,0,0:0:0:0:
182,192,190427,1,0,0:0:0:0:
475,192,190427,1,0,0:0:0:0:
109,192,190527,1,0,0:0:0:0:
402,192,190527,1,0,0:0:0:0:
358,192,190627,1,0,0:0:0:0:
36,192,190627,1,0,0:0:0:0:
109,192,191027,1,0,0:0:0:0:
182,192,191027,1,0,0:0:0:0:
256,192,191227,1,0,0:0:0:0:
329,192,191227,1,0,0:0:0:0:
460,192,191427,128,0,192227:0:0:0:0:
256,192,191827,1,0,0:0:0:0:
109,192,191827,1,0,0:0:0:0:
153,192,192227,1,0,0:0:0:0:
329,192,192227,1,0,0:0:0:0:
36,192,192227,1,0,0:0:0:0:
